VA - Lost & Found 1970-1978 (1998) 2CD


VA - Lost & Found 1970-1978 (1998) 2CD
EAC | FLAC | Image (Cue&Log) ~ 1 Gb (incl 5%) | Mp3 (CBR320) ~ 389 Mb (incl 5%) | Scans included
Genre: Pop, Rock, R&B | Label: EMI Svenska AB | # 4932062 | Time: 02:32:54

2-disc compilation of pop and rock hits of the 70s. Classic hits by Shocking Blue, Beach Boys, Jackson 5, Cat Stevens, Lobo, Middle Of The Road, Slade, Sweet, Cher, 10 CC, Smokie, Bonnie Tyler, Gerry Rafferty and more and more. And also contains a lot of forgotten hits of the 70s.


Tracklist:

CD1:

01. Shocking Blue - Venus (03:03)
02. Edison Lighthouse - Love Grows (Where My Rosemary Goes) (02:53)
03. Mark Lindsay - Arizona (03:07)
04. Pipkins - Gimme Dat Ding (02:13)
05. Roger James Cooke - Today I Killed A Man I Didn't Know (03:16)
06. Beach Boys - Cottonfields (03:02)
07. Mungo Jerry - In The Summertime (03:31)
08. Christie - Yellow River (02:43)
09. John Phillips - Mississippi (03:33)
10. Dawn - Candida (03:07)
11. Lynn Anderson - Rose Garden (02:53)
12. Jackson 5 - Goin' Back To Indiana (03:32)
13. Sweet - Funny Funny (02:46)
14. Raiders - Indian Reservation (02:54)
15. White Plains - Every Little Move She Makes (02:53)
16. Middle Of The Road - Soley Soley (03:09)
17. Cat Stevens - Morning Has Broken (03:19)
18. Tony Christie - Is This The Way To Amarillo (03:11)
19. Gilbert O'Sullivan - Matrimony (03:14)
20. Don McLean - American Pie (part 1) (04:15)
21. New World - Sister Jane (03:40)
22. Hot Butter - Pop Corn (02:33)
23. Lynsey De Paul - Sugar Me (03:38)
24. Lobo - I'd Love You To Want Me (04:04)

CD2:

01. Albert Hammond - It never rains in southern California (03:52)
02. CCS - Sixteen tons (02:58)
03. Jose Feliciano - Tale of Maria (03:19)
04. Bjorn Skifs & Blablus - Hooked on a feeling (02:53)
05. Chicory Tip - Good grief Christina (03:11)
06. Bonnie St Claire & Unit Gloria - Clap your hands and stomp your feet (04:00)
07. Wild Angels - I fought the law (02:24)
08. Cher - Dark lady (03:27)
09. Terry Jacks - Seasons in the sun (03:27)
10. Slade - Everyday (03:11)
11. Rubettes - Sugar baby love (03:29)
12. Billy Swan - I can help (02:57)
13. 10 CC - I'm not in love (03:47)
14. Harpo - Moviestar (03:24)
15. Dr Hook - Only sixteen (02:48)
16. Sammy Davis Jr - Baretta's theme (keep your eye on the sparrow) (02:25)
17. Bellamy Brothers - Let your love flow (03:16)
18. Smokie - Living next door to Alice (03:28)
19. Brian Chapman - Save me (03:29)
20. Maxine Nightingale - Right back where we started from (03:14)
21. Bonnie Tyler - It.s a heartache (03:30)
22. John Paul Young - Love is in the air (03:27)
23. Gerry Rafferty - Baker Street (04:05)


Exact Audio Copy V1.0 beta 6 from 9. April 2015

EAC extraction logfile from 19. April 2015, 8:34

Various Artists / Lost and Found 1970-1978 CD1

Used drive : ASUS SDRW-08D1S-U Adapter: 1 ID: 1

Read mode : Secure
Utilize accurate stream : Yes
Defeat audio cache : Yes
Make use of C2 pointers : No

Read offset correction : 667
Overread into Lead-In and Lead-Out : No
Fill up missing offset samples with silence : Yes
Delete leading and trailing silent blocks : No
Null samples used in CRC calculations : Yes
Used interface : Native Win32 interface for Win NT & 2000

Used output format : User Defined Encoder
Selected bitrate : 128 kBit/s
Quality : High
Add ID3 tag : No
Command line compressor : C:Program Files (x86)Exact Audio CopyFlacflac.exe
Additional command line options : -V -8 -T "Date=%year%" -T "Genre=%genre%" %source%


TOC of the extracted CD

Track | Start | Length | Start sector | End sector
---------------------------------------------------------
1 | 0:00.00 | 3:03.52 | 0 | 13776
2 | 3:03.52 | 2:53.45 | 13777 | 26796
3 | 5:57.22 | 3:07.50 | 26797 | 40871
4 | 9:04.72 | 2:13.00 | 40872 | 50846
5 | 11:17.72 | 3:16.45 | 50847 | 65591
6 | 14:34.42 | 3:02.05 | 65592 | 79246
7 | 17:36.47 | 3:31.43 | 79247 | 95114
8 | 21:08.15 | 2:43.37 | 95115 | 107376
9 | 23:51.52 | 3:33.60 | 107377 | 123411
10 | 27:25.37 | 3:07.43 | 123412 | 137479
11 | 30:33.05 | 2:53.20 | 137480 | 150474
12 | 33:26.25 | 3:32.60 | 150475 | 166434
13 | 36:59.10 | 2:46.65 | 166435 | 178949
14 | 39:46.00 | 2:54.17 | 178950 | 192016
15 | 42:40.17 | 2:53.15 | 192017 | 205006
16 | 45:33.32 | 3:09.15 | 205007 | 219196
17 | 48:42.47 | 3:19.60 | 219197 | 234181
18 | 52:02.32 | 3:11.18 | 234182 | 248524
19 | 55:13.50 | 3:14.10 | 248525 | 263084
20 | 58:27.60 | 4:15.32 | 263085 | 282241
21 | 62:43.17 | 3:40.50 | 282242 | 298791
22 | 66:23.67 | 2:33.73 | 298792 | 310339
23 | 68:57.65 | 3:38.30 | 310340 | 326719
24 | 72:36.20 | 4:04.25 | 326720 | 345044


Range status and errors

Selected range

Filename C:UsersОлегDesktopCD 1Various Artists - Lost and Found 1970-1978 CD1.wav

Peak level 100.0 %
Extraction speed 4.2 X
Range quality 100.0 %
Test CRC 83E56E7E
Copy CRC 83E56E7E
Copy OK

No errors occurred


AccurateRip summary

Track 1 accurately ripped (confidence 8) [40F47B36] (AR v2)
Track 2 accurately ripped (confidence 8) [7B498420] (AR v2)
Track 3 accurately ripped (confidence 8) [47F5BF84] (AR v2)
Track 4 accurately ripped (confidence 8) [9DC824B9] (AR v2)
Track 5 accurately ripped (confidence 8) [6F34F5C1] (AR v2)
Track 6 accurately ripped (confidence 8) [4ABBC529] (AR v2)
Track 7 accurately ripped (confidence 8) [68CE78BF] (AR v2)
Track 8 accurately ripped (confidence 8) [DE5046CF] (AR v2)
Track 9 accurately ripped (confidence 8) [FD2CB6A9] (AR v2)
Track 10 accurately ripped (confidence 8) [75C8D820] (AR v2)
Track 11 accurately ripped (confidence 8) [6D8C0AB1] (AR v2)
Track 12 accurately ripped (confidence 8) [8137667B] (AR v2)
Track 13 accurately ripped (confidence 8) [AD801839] (AR v2)
Track 14 accurately ripped (confidence 7) [1DE7411B] (AR v2)
Track 15 accurately ripped (confidence 8) [91F24730] (AR v2)
Track 16 accurately ripped (confidence 8) [09882A9E] (AR v2)
Track 17 accurately ripped (confidence 8) [10029D1E] (AR v2)
Track 18 accurately ripped (confidence 7) [93C2E376] (AR v2)
Track 19 accurately ripped (confidence 7) [A5A78981] (AR v2)
Track 20 accurately ripped (confidence 8) [E74549EB] (AR v2)
Track 21 accurately ripped (confidence 8) [2DB42ADE] (AR v2)
Track 22 accurately ripped (confidence 7) [75401101] (AR v2)
Track 23 accurately ripped (confidence 8) [62DADA18] (AR v2)
Track 24 accurately ripped (confidence 6) [4A796C7B] (AR v2)

All tracks accurately ripped

End of status report

---- CUETools DB Plugin V2.1.6

[CTDB TOCID: 0TByy.Ho_MP0uIfIlh3L4t3WBP0-] found
Submit result: already submitted
Track | CTDB Status
1 | (7/7) Accurately ripped
2 | (7/7) Accurately ripped
3 | (7/7) Accurately ripped
4 | (7/7) Accurately ripped
5 | (7/7) Accurately ripped
6 | (7/7) Accurately ripped
7 | (7/7) Accurately ripped
8 | (7/7) Accurately ripped
9 | (7/7) Accurately ripped
10 | (7/7) Accurately ripped
11 | (7/7) Accurately ripped
12 | (7/7) Accurately ripped
13 | (7/7) Accurately ripped
14 | (7/7) Accurately ripped
15 | (7/7) Accurately ripped
16 | (7/7) Accurately ripped
17 | (7/7) Accurately ripped
18 | (7/7) Accurately ripped
19 | (7/7) Accurately ripped
20 | (7/7) Accurately ripped
21 | (7/7) Accurately ripped
22 | (7/7) Accurately ripped
23 | (7/7) Accurately ripped
24 | (7/7) Accurately ripped


==== Log checksum 9D7007CE97906BEB6F33B9F5FB42443EE85EF7AB5D40275E4CC5941A24EE0569 ====

foobar2000 1.2 / Dynamic Range Meter 1.1.1
log date: 2015-04-22 18:15:08

--------------------------------------------------------------------------------
Analyzed: Beach Boys / Lost and Found 1970-1978 CD1 (1)
Cat Stevens / Lost and Found 1970-1978 CD1 (2)
--------------------------------------------------------------------------------

DR Peak RMS Duration Track
--------------------------------------------------------------------------------
DR11 0.00 dB -13.26 dB 3:02 06-Cottonfields
DR12 0.00 dB -14.71 dB 3:20 17-Morning Has Broken
--------------------------------------------------------------------------------

Number of tracks: 2
Official DR value: DR11

Samplerate: 44100 Hz
Channels: 2
Bits per sample: 16
Bitrate: 868 kbps
Codec: FLAC
================================================================================

--------------------------------------------------------------------------------
Analyzed: Christie / Lost and Found 1970-1978 CD1 (1)
Dawn / Lost and Found 1970-1978 CD1 (2)
Don McLean / Lost and Found 1970-1978 CD1 (3)
--------------------------------------------------------------------------------

DR Peak RMS Duration Track
--------------------------------------------------------------------------------
DR11 -0.67 dB -12.95 dB 2:43 08-Yellow River
DR11 -1.00 dB -13.12 dB 3:08 10-Candida
DR10 -0.36 dB -12.95 dB 4:15 20-American Pie (part 1)
--------------------------------------------------------------------------------

Number of tracks: 3
Official DR value: DR10

Samplerate: 44100 Hz
Channels: 2
Bits per sample: 16
Bitrate: 868 kbps
Codec: FLAC
================================================================================

--------------------------------------------------------------------------------
Analyzed: Edison Lighthouse / Lost and Found 1970-1978 CD1 (1)
Gilbert O'Sullivan / Lost and Found 1970-1978 CD1 (2)
Hot Butter / Lost and Found 1970-1978 CD1 (3)
--------------------------------------------------------------------------------

DR Peak RMS Duration Track
--------------------------------------------------------------------------------
DR9 -0.70 dB -11.03 dB 2:54 02-Love Grows (Where My Rosemary Goes)
DR8 -1.00 dB -10.75 dB 3:14 19-Matrimony
DR14 0.00 dB -16.20 dB 2:34 22-Pop Corn
--------------------------------------------------------------------------------

Number of tracks: 3
Official DR value: DR10

Samplerate: 44100 Hz
Channels: 2
Bits per sample: 16
Bitrate: 868 kbps
Codec: FLAC
================================================================================

--------------------------------------------------------------------------------
Statistics for: 12-Goin' Back To Indiana
Number of samples: 9384480
Duration: 3:33
--------------------------------------------------------------------------------

Left Right

Peak Value: -0.46 dB --- -0.63 dB
Avg RMS: -13.87 dB --- -13.71 dB
DR channel: 11.37 dB --- 11.51 dB
--------------------------------------------------------------------------------

Official DR Value: DR11

Samplerate: 44100 Hz
Channels: 2
Bits per sample: 16
Bitrate: 868 kbps
Codec: FLAC
================================================================================
--------------------------------------------------------------------------------
Analyzed: John Phillips / Lost and Found 1970-1978 CD1 (1)
Lobo / Lost and Found 1970-1978 CD1 (2)
--------------------------------------------------------------------------------

DR Peak RMS Duration Track
--------------------------------------------------------------------------------
DR10 -0.59 dB -12.33 dB 3:34 09-Mississippi
DR12 0.00 dB -14.10 dB 4:04 24-I'd Love You To Want Me
--------------------------------------------------------------------------------

Number of tracks: 2
Official DR value: DR11

Samplerate: 44100 Hz
Channels: 2
Bits per sample: 16
Bitrate: 868 kbps
Codec: FLAC
================================================================================

--------------------------------------------------------------------------------
Analyzed: Lynn Anderson / Lost and Found 1970-1978 CD1 (1)
Lynsey De Paul / Lost and Found 1970-1978 CD1 (2)
--------------------------------------------------------------------------------

DR Peak RMS Duration Track
--------------------------------------------------------------------------------
DR11 -0.28 dB -13.29 dB 2:53 11-Rose Garden
DR10 -0.35 dB -12.03 dB 3:38 23-Sugar Me
--------------------------------------------------------------------------------

Number of tracks: 2
Official DR value: DR10

Samplerate: 44100 Hz
Channels: 2
Bits per sample: 16
Bitrate: 868 kbps
Codec: FLAC
================================================================================

--------------------------------------------------------------------------------
Analyzed: Mark Lindsay / Lost and Found 1970-1978 CD1 (1)
Middle Of The Road / Lost and Found 1970-1978 CD1 (2)
--------------------------------------------------------------------------------

DR Peak RMS Duration Track
--------------------------------------------------------------------------------
DR10 0.00 dB -12.80 dB 3:08 03-Arizona
DR11 0.00 dB -13.38 dB 3:09 16-Soley Soley
--------------------------------------------------------------------------------

Number of tracks: 2
Official DR value: DR11

Samplerate: 44100 Hz
Channels: 2
Bits per sample: 16
Bitrate: 868 kbps
Codec: FLAC
================================================================================

--------------------------------------------------------------------------------
Analyzed: Mungo Jerry / Lost and Found 1970-1978 CD1 (1)
New World / Lost and Found 1970-1978 CD1 (2)
--------------------------------------------------------------------------------

DR Peak RMS Duration Track
--------------------------------------------------------------------------------
DR10 -0.04 dB -11.61 dB 3:32 07-In The Summertime
DR11 -0.27 dB -14.74 dB 3:41 21-Sister Jane
--------------------------------------------------------------------------------

Number of tracks: 2
Official DR value: DR11

Samplerate: 44100 Hz
Channels: 2
Bits per sample: 16
Bitrate: 868 kbps
Codec: FLAC
================================================================================

--------------------------------------------------------------------------------
Analyzed: Pipkins / Lost and Found 1970-1978 CD1 (1)
Raiders / Lost and Found 1970-1978 CD1 (2)
--------------------------------------------------------------------------------

DR Peak RMS Duration Track
--------------------------------------------------------------------------------
DR10 0.00 dB -12.30 dB 2:13 04-Gimme Dat Ding
DR13 -0.14 dB -15.09 dB 2:54 14-Indian Reservation
--------------------------------------------------------------------------------

Number of tracks: 2
Official DR value: DR11

Samplerate: 44100 Hz
Channels: 2
Bits per sample: 16
Bitrate: 868 kbps
Codec: FLAC
================================================================================

--------------------------------------------------------------------------------
Statistics for: 05-Today I Killed A Man I Didn't Know
Number of samples: 8670060
Duration: 3:17
--------------------------------------------------------------------------------

Left Right

Peak Value: -0.10 dB --- -1.43 dB
Avg RMS: -13.46 dB --- -14.79 dB
DR channel: 10.35 dB --- 10.29 dB
--------------------------------------------------------------------------------

Official DR Value: DR10

Samplerate: 44100 Hz
Channels: 2
Bits per sample: 16
Bitrate: 868 kbps
Codec: FLAC
================================================================================
--------------------------------------------------------------------------------
Analyzed: Shocking Blue / Lost and Found 1970-1978 CD1 (1)
Sweet / Lost and Found 1970-1978 CD1 (2)
Tony Christie / Lost and Found 1970-1978 CD1 (3)
--------------------------------------------------------------------------------

DR Peak RMS Duration Track
--------------------------------------------------------------------------------
DR9 -0.86 dB -11.62 dB 3:04 01-Venus
DR14 -0.02 dB -14.95 dB 2:47 13-Funny Funny
DR10 -0.79 dB -11.25 dB 3:11 18-Is This The Way To Amarillo
--------------------------------------------------------------------------------

Number of tracks: 3
Official DR value: DR11

Samplerate: 44100 Hz
Channels: 2
Bits per sample: 16
Bitrate: 868 kbps
Codec: FLAC
================================================================================

--------------------------------------------------------------------------------
Statistics for: 15-Every Little Move She Makes
Number of samples: 7638120
Duration: 2:53
--------------------------------------------------------------------------------

Left Right

Peak Value: 0.00 dB --- 0.00 dB
Avg RMS: -11.87 dB --- -11.17 dB
DR channel: 9.94 dB --- 9.69 dB
--------------------------------------------------------------------------------

Official DR Value: DR10

Samplerate: 44100 Hz
Channels: 2
Bits per sample: 16
Bitrate: 868 kbps
Codec: FLAC
================================================================================


Exact Audio Copy V1.0 beta 6 from 9. April 2015

EAC extraction logfile from 19. April 2015, 12:44

Various Artists / Lost And Found - 1970-1978 CD2

Used drive : ASUS SDRW-08D1S-U Adapter: 1 ID: 1

Read mode : Secure
Utilize accurate stream : Yes
Defeat audio cache : Yes
Make use of C2 pointers : No

Read offset correction : 667
Overread into Lead-In and Lead-Out : No
Fill up missing offset samples with silence : Yes
Delete leading and trailing silent blocks : No
Null samples used in CRC calculations : Yes
Used interface : Native Win32 interface for Win NT & 2000

Used output format : User Defined Encoder
Selected bitrate : 128 kBit/s
Quality : High
Add ID3 tag : No
Command line compressor : C:Program Files (x86)Exact Audio CopyFlacflac.exe
Additional command line options : -V -8 -T "Date=%year%" -T "Genre=%genre%" %source%


TOC of the extracted CD

Track | Start | Length | Start sector | End sector
---------------------------------------------------------
1 | 0:00.00 | 3:52.67 | 0 | 17466
2 | 3:52.67 | 2:59.00 | 17467 | 30891
3 | 6:51.67 | 3:19.38 | 30892 | 45854
4 | 10:11.30 | 2:53.27 | 45855 | 58856
5 | 13:04.57 | 3:11.45 | 58857 | 73226
6 | 16:16.27 | 4:00.58 | 73227 | 91284
7 | 20:17.10 | 2:24.02 | 91285 | 102086
8 | 22:41.12 | 3:27.63 | 102087 | 117674
9 | 26:09.00 | 3:27.17 | 117675 | 133216
10 | 29:36.17 | 3:11.40 | 133217 | 147581
11 | 32:47.57 | 3:29.30 | 147582 | 163286
12 | 36:17.12 | 2:57.55 | 163287 | 176616
13 | 39:14.67 | 3:47.63 | 176617 | 193704
14 | 43:02.55 | 3:24.00 | 193705 | 209004
15 | 46:26.55 | 2:48.30 | 209005 | 221634
16 | 49:15.10 | 2:25.67 | 221635 | 232576
17 | 51:41.02 | 3:16.53 | 232577 | 247329
18 | 54:57.55 | 3:28.62 | 247330 | 262991
19 | 58:26.42 | 3:29.03 | 262992 | 278669
20 | 61:55.45 | 3:14.45 | 278670 | 293264
21 | 65:10.15 | 3:30.45 | 293265 | 309059
22 | 68:40.60 | 3:27.72 | 309060 | 324656
23 | 72:08.57 | 4:05.03 | 324657 | 343034


Range status and errors

Selected range

Filename C:UsersОлегDesktopLost & FoundCD2Various Artists - Lost And Found - 1970-1978 CD2.wav

Peak level 100.0 %
Extraction speed 4.2 X
Range quality 100.0 %
Test CRC 0AE3896C
Copy CRC 0AE3896C
Copy OK

No errors occurred


AccurateRip summary

Track 1 accurately ripped (confidence 7) [757D0EE0] (AR v2)
Track 2 accurately ripped (confidence 7) [1F1AAA82] (AR v2)
Track 3 accurately ripped (confidence 7) [6AEE7748] (AR v2)
Track 4 accurately ripped (confidence 7) [983D6D94] (AR v2)
Track 5 accurately ripped (confidence 7) [F8030C73] (AR v2)
Track 6 accurately ripped (confidence 7) [CF98DD05] (AR v2)
Track 7 accurately ripped (confidence 7) [C719295E] (AR v2)
Track 8 accurately ripped (confidence 7) [1984BD78] (AR v2)
Track 9 accurately ripped (confidence 6) [1EAA0BC5] (AR v2)
Track 10 accurately ripped (confidence 7) [89104C0A] (AR v2)
Track 11 accurately ripped (confidence 7) [F1B2431E] (AR v2)
Track 12 accurately ripped (confidence 7) [478E3110] (AR v2)
Track 13 accurately ripped (confidence 7) [732201A3] (AR v2)
Track 14 accurately ripped (confidence 7) [8AB1172F] (AR v2)
Track 15 accurately ripped (confidence 7) [0EB96314] (AR v2)
Track 16 accurately ripped (confidence 7) [44F918D8] (AR v2)
Track 17 accurately ripped (confidence 7) [A4C331DF] (AR v2)
Track 18 accurately ripped (confidence 7) [88E97C12] (AR v2)
Track 19 accurately ripped (confidence 7) [E41E48DB] (AR v2)
Track 20 accurately ripped (confidence 7) [CB82C9E0] (AR v2)
Track 21 accurately ripped (confidence 7) [19C62062] (AR v2)
Track 22 accurately ripped (confidence 7) [4454EB87] (AR v2)
Track 23 accurately ripped (confidence 7) [063F7BA9] (AR v2)

All tracks accurately ripped

End of status report

---- CUETools DB Plugin V2.1.6

[CTDB TOCID: Z_AhR1PFLlf9feSvPNQ7T3tNqS4-] database access error: Невозможно разрешить удаленное имя: 'db.cuetools.net'


==== Log checksum AB478F63A37F332304A7767E39BFC5CD27048AA59A4D1377898D1D33B6EA1881 ====

foobar2000 1.2 / Dynamic Range Meter 1.1.1
log date: 2015-04-22 18:15:35

--------------------------------------------------------------------------------
Analyzed: Albert Hammond / Lost And Found - 1970-1978 CD2 (1)
Bellamy Brothers / Lost And Found - 1970-1978 CD2 (2)
--------------------------------------------------------------------------------

DR Peak RMS Duration Track
--------------------------------------------------------------------------------
DR11 0.00 dB -12.90 dB 3:53 01-It never rains in southern California
DR16 0.00 dB -17.02 dB 3:17 17-Let your love flow
--------------------------------------------------------------------------------

Number of tracks: 2
Official DR value: DR13

Samplerate: 44100 Hz
Channels: 2
Bits per sample: 16
Bitrate: 896 kbps
Codec: FLAC
================================================================================

--------------------------------------------------------------------------------
Statistics for: 12-I can help
Number of samples: 7838040
Duration: 2:58
--------------------------------------------------------------------------------

Left Right

Peak Value: -0.33 dB --- -0.48 dB
Avg RMS: -13.55 dB --- -14.21 dB
DR channel: 11.51 dB --- 12.15 dB
--------------------------------------------------------------------------------

Official DR Value: DR12

Samplerate: 44100 Hz
Channels: 2
Bits per sample: 16
Bitrate: 896 kbps
Codec: FLAC
================================================================================
--------------------------------------------------------------------------------
Analyzed: Bjorn Skifs & Blablus / Lost And Found - 1970-1978 CD2 (1)
Bonnie St Claire & Unit Gloria / Lost And Found - 1970-1978 CD2 (2)
Bonnie Tyler / Lost And Found - 1970-1978 CD2 (3)
--------------------------------------------------------------------------------

DR Peak RMS Duration Track
--------------------------------------------------------------------------------
DR7 -1.91 dB -9.85 dB 2:53 04-Hooked on a feeling
DR10 0.00 dB -11.17 dB 4:01 06-Clap your hands and stomp your feet
DR9 -0.97 dB -12.19 dB 3:31 21-It.s a heartache
--------------------------------------------------------------------------------

Number of tracks: 3
Official DR value: DR9

Samplerate: 44100 Hz
Channels: 2
Bits per sample: 16
Bitrate: 896 kbps
Codec: FLAC
================================================================================

--------------------------------------------------------------------------------
Statistics for: 19-Save me
Number of samples: 9218664
Duration: 3:29
--------------------------------------------------------------------------------

Left Right

Peak Value: -0.63 dB --- -0.63 dB
Avg RMS: -12.65 dB --- -11.17 dB
DR channel: 10.87 dB --- 9.53 dB
--------------------------------------------------------------------------------

Official DR Value: DR10

Samplerate: 44100 Hz
Channels: 2
Bits per sample: 16
Bitrate: 896 kbps
Codec: FLAC
================================================================================
--------------------------------------------------------------------------------
Analyzed: CCS / Lost And Found - 1970-1978 CD2 (1)
Cher / Lost And Found - 1970-1978 CD2 (2)
--------------------------------------------------------------------------------

DR Peak RMS Duration Track
--------------------------------------------------------------------------------
DR10 -0.54 dB -12.72 dB 2:59 02-Sixteen tons
DR12 0.00 dB -13.95 dB 3:28 08-Dark lady
--------------------------------------------------------------------------------

Number of tracks: 2
Official DR value: DR11

Samplerate: 44100 Hz
Channels: 2
Bits per sample: 16
Bitrate: 896 kbps
Codec: FLAC
================================================================================

--------------------------------------------------------------------------------
Analyzed: Chicory Tip / Lost And Found - 1970-1978 CD2 (1)
Dr Hook / Lost And Found - 1970-1978 CD2 (2)
Gerry Rafferty / Lost And Found - 1970-1978 CD2 (3)
--------------------------------------------------------------------------------

DR Peak RMS Duration Track
--------------------------------------------------------------------------------
DR11 -0.12 dB -12.07 dB 3:12 05-Good grief Christina
DR12 0.00 dB -14.64 dB 2:48 15-Only sixteen
DR9 -0.66 dB -11.99 dB 4:05 23-Baker Street
--------------------------------------------------------------------------------

Number of tracks: 3
Official DR value: DR11

Samplerate: 44100 Hz
Channels: 2
Bits per sample: 16
Bitrate: 896 kbps
Codec: FLAC
================================================================================

--------------------------------------------------------------------------------
Analyzed: Harpo / Lost And Found - 1970-1978 CD2 (1)
John Paul Young / Lost And Found - 1970-1978 CD2 (2)
--------------------------------------------------------------------------------

DR Peak RMS Duration Track
--------------------------------------------------------------------------------
DR9 -1.12 dB -11.30 dB 3:24 14-Moviestar
DR13 -0.44 dB -16.18 dB 3:28 22-Love is in the air
--------------------------------------------------------------------------------

Number of tracks: 2
Official DR value: DR11

Samplerate: 44100 Hz
Channels: 2
Bits per sample: 16
Bitrate: 896 kbps
Codec: FLAC
================================================================================

--------------------------------------------------------------------------------
Analyzed: Jose Feliciano / Lost And Found - 1970-1978 CD2 (1)
Maxine Nightingale / Lost And Found - 1970-1978 CD2 (2)
--------------------------------------------------------------------------------

DR Peak RMS Duration Track
--------------------------------------------------------------------------------
DR10 -0.26 dB -12.22 dB 3:20 03-Tale of Maria
DR11 -1.08 dB -14.18 dB 3:15 20-Right back where we started from
--------------------------------------------------------------------------------

Number of tracks: 2
Official DR value: DR11

Samplerate: 44100 Hz
Channels: 2
Bits per sample: 16
Bitrate: 896 kbps
Codec: FLAC
================================================================================

--------------------------------------------------------------------------------
Analyzed: Rubettes / Lost And Found - 1970-1978 CD2 (1)
Sammy Davis Jr / Lost And Found - 1970-1978 CD2 (2)
--------------------------------------------------------------------------------

DR Peak RMS Duration Track
--------------------------------------------------------------------------------
DR9 -0.60 dB -10.75 dB 3:29 11-Sugar baby love
DR10 -0.50 dB -13.00 dB 2:26 16-Baretta's theme (keep your eye on the sparrow)
--------------------------------------------------------------------------------

Number of tracks: 2
Official DR value: DR10

Samplerate: 44100 Hz
Channels: 2
Bits per sample: 16
Bitrate: 896 kbps
Codec: FLAC
================================================================================

--------------------------------------------------------------------------------
Analyzed: Slade / Lost And Found - 1970-1978 CD2 (1)
Smokie / Lost And Found - 1970-1978 CD2 (2)
--------------------------------------------------------------------------------

DR Peak RMS Duration Track
--------------------------------------------------------------------------------
DR8 -0.86 dB -12.00 dB 3:12 10-Everyday
DR12 -0.29 dB -14.53 dB 3:29 18-Living next door to Alice
--------------------------------------------------------------------------------

Number of tracks: 2
Official DR value: DR10

Samplerate: 44100 Hz
Channels: 2
Bits per sample: 16
Bitrate: 896 kbps
Codec: FLAC
================================================================================

--------------------------------------------------------------------------------
Statistics for: 09-Seasons in the sun
Number of samples: 9138696
Duration: 3:27
--------------------------------------------------------------------------------

Left Right

Peak Value: -0.66 dB --- -0.19 dB
Avg RMS: -11.72 dB --- -11.47 dB
DR channel: 8.67 dB --- 8.91 dB
--------------------------------------------------------------------------------

Official DR Value: DR9

Samplerate: 44100 Hz
Channels: 2
Bits per sample: 16
Bitrate: 896 kbps
Codec: FLAC
================================================================================
--------------------------------------------------------------------------------
Statistics for: 07-I fought the law
Number of samples: 6351576
Duration: 2:24
--------------------------------------------------------------------------------

Left Right

Peak Value: 0.00 dB --- -0.28 dB
Avg RMS: -14.95 dB --- -15.39 dB
DR channel: 13.60 dB --- 13.04 dB
--------------------------------------------------------------------------------

Official DR Value: DR13

Samplerate: 44100 Hz
Channels: 2
Bits per sample: 16
Bitrate: 896 kbps
Codec: FLAC
================================================================================
foobar2000 1.2 / Dynamic Range Meter 1.1.1
log date: 2015-04-22 18:15:32

--------------------------------------------------------------------------------
Statistics for: 13-I'm not in love
Number of samples: 10047744
Duration: 3:48
--------------------------------------------------------------------------------

Left Right

Peak Value: -0.95 dB --- 0.00 dB
Avg RMS: -16.07 dB --- -16.23 dB
DR channel: 12.78 dB --- 13.18 dB
--------------------------------------------------------------------------------

Official DR Value: DR13

Samplerate: 44100 Hz
Channels: 2
Bits per sample: 16
Bitrate: 896 kbps
Codec: FLAC
================================================================================


All thanks to original releaser - Alex Fal





Password: designol