Вход в свой аккаунт

Или войдите через соц. сети

Vienna Art Orchestra - All That Strauss (2000)


Vienna Art Orchestra - All That Strauss (2000)
EAC | FLAC | Image (Cue&Log) ~ 506 Mb (incl 5%) | Mp3 (CBR320) ~ 206 Mb (incl 5%) | Scans included
Genre: Jazz, Experimental Big Band, Creative Orchestra | Label: TCB Records | # 20052 | Time: 01:13:58

“ From Beethoven, Mozart and Chopin to Mahler and Bartok, European classical music has been a source of inspiration to numerous jazz musicians. The 19th Century compositions of the Strauss family are the subject of All That Strauss, which documents a New Year's 2000 concert by the Vienna Art Orchestra--one of Europe's most adventurous big bands. It is quite appropriate that this Strauss tribute concert was performed in Vienna and that the orchestra has Vienna in its name; for many classical greats have lived in Austria's largest city, including Johann and Eduard Strauss. While the Vienna Art Orchestra's love of the Strauss legacy is obvious, the band doesn't treat its compositions like museum pieces. Instead, time-honored compositions like "Donauwalzer," "Albion Polka," "Ein Morgen, ein Mittag, ein Abend in Wien" and "Lagunen Walzer" are given serious jazz makeovers, and arranger Mathias Rüegg sees to it that the orchestra takes a lot of chances with the material. To some classical purists, the very thought of approaching these pieces as jazz is an act of musical heresy. But in fact, the Vienna Art Orchestra honors the memory of Johann and Eduard Strauss by doing something fresh and creative with their music. All That Strauss won't appeal to classical purists or classical snobs, but from a jazz perspective, it's a gem.

Review by Alex Henderson, Allmusic.com
”






Tracklist:

01. Wein, Weib und Gesang (09:12)
02. Process-Plolka (02:04)
03. Ein Morgen, ein Mittag, ein Abend in Wien (07:58)
04. Mit Extrapost (03:29)
05. Albion-Polka (03:52)
06. Gruss an Prag (03:16)
07. Lagunen-Walzer (09:00)
08. Persischer Marsch (03:20)
09. Hellenen Polka (04:40)
10. Marienklange walzer (07:09)
11. Eljen a Magyar (04:10)
12. Czardas (04:51)
13. Donauwalzer (10:51)


Exact Audio Copy V0.99 prebeta 4 from 23. January 2008

EAC extraction logfile from 24. October 2009, 3:46

Vienna Art Orchestra / All That Strauss - First New Years Concert

Used drive : YAMAHA CRW-F1E Adapter: 4 ID: 0

Read mode : Secure
Utilize accurate stream : Yes
Defeat audio cache : Yes
Make use of C2 pointers : No

Read offset correction : 733
Overread into Lead-In and Lead-Out : No
Fill up missing offset samples with silence : Yes
Delete leading and trailing silent blocks : No
Null samples used in CRC calculations : Yes
Used interface : Native Win32 interface for Win NT & 2000

Used output format : Internal WAV Routines
Sample format : 44.100 Hz; 16 Bit; Stereo


TOC of the extracted CD

Track | Start | Length | Start sector | End sector
---------------------------------------------------------
1 | 0:00.00 | 9:12.37 | 0 | 41436
2 | 9:12.37 | 2:04.28 | 41437 | 50764
3 | 11:16.65 | 7:58.27 | 50765 | 86641
4 | 19:15.17 | 3:29.10 | 86642 | 102326
5 | 22:44.27 | 3:52.03 | 102327 | 119729
6 | 26:36.30 | 3:16.72 | 119730 | 134501
7 | 29:53.27 | 9:00.28 | 134502 | 175029
8 | 38:53.55 | 3:20.17 | 175030 | 190046
9 | 42:13.72 | 4:40.55 | 190047 | 211101
10 | 46:54.52 | 7:09.50 | 211102 | 243326
11 | 54:04.27 | 4:10.23 | 243327 | 262099
12 | 58:14.50 | 4:51.52 | 262100 | 283976
13 | 63:06.27 | 10:51.23 | 283977 | 332824


Range status and errors

Selected range

Filename D:!mTorrent razdachiVienna Art Orchestra_All That StraussVienna Art Orchestra - All That Strauss.wav

Peak level 98.8 %
Range quality 100.0 %
Test CRC 6FF4DB87
Copy CRC 6FF4DB87
Copy OK

No errors occurred


AccurateRip summary

Track 1 accurately ripped (confidence 4) [9AA0926A]
Track 2 accurately ripped (confidence 5) [EE5D22BD]
Track 3 accurately ripped (confidence 5) [883A256A]
Track 4 accurately ripped (confidence 5) [D7E89DBA]
Track 5 accurately ripped (confidence 5) [720FDA8C]
Track 6 accurately ripped (confidence 5) [277FAAB1]
Track 7 accurately ripped (confidence 5) [6DC9F5B1]
Track 8 accurately ripped (confidence 5) [2D3DADC2]
Track 9 accurately ripped (confidence 5) [FC05D3EB]
Track 10 accurately ripped (confidence 4) [6D559318]
Track 11 accurately ripped (confidence 5) [ABF777EB]
Track 12 accurately ripped (confidence 5) [C6E02661]
Track 13 accurately ripped (confidence 5) [2A75310F]

All tracks accurately ripped

End of status report

[CUETools log; Date: 30.04.2015 15:03:08; Version: 2.1.4]
[CTDB TOCID: jifqMc.h4PAuP.gOJ9SW3eFUKTI-] found.
Track | CTDB Status
1 | (7/7) Accurately ripped
2 | (7/7) Accurately ripped
3 | (7/7) Accurately ripped
4 | (7/7) Accurately ripped
5 | (7/7) Accurately ripped
6 | (7/7) Accurately ripped
7 | (7/7) Accurately ripped
8 | (7/7) Accurately ripped
9 | (7/7) Accurately ripped
10 | (7/7) Accurately ripped
11 | (7/7) Accurately ripped
12 | (7/7) Accurately ripped
13 | (7/7) Accurately ripped
[AccurateRip ID: 002215d3-0151f39e-dc11550d] found.
Track [ CRC | V2 ] Status
01 [9aa0926a|e76b9a3d] (10+06/16) Accurately ripped
02 [ee5d22bd|97e53fd9] (11+06/17) Accurately ripped
03 [883a256a|fc3224dc] (11+06/17) Accurately ripped
04 [d7e89dba|1a47e943] (11+06/17) Accurately ripped
05 [720fda8c|0c8bb99e] (11+06/17) Accurately ripped
06 [277faab1|bac47ac8] (11+06/17) Accurately ripped
07 [6dc9f5b1|41635d75] (11+06/17) Accurately ripped
08 [2d3dadc2|e646333c] (11+06/17) Accurately ripped
09 [fc05d3eb|b688737e] (11+06/17) Accurately ripped
10 [6d559318|930b896b] (10+06/16) Accurately ripped
11 [abf777eb|52b012e2] (11+06/17) Accurately ripped
12 [c6e02661|7b90db52] (11+06/17) Accurately ripped
13 [2a75310f|c5b6a100] (11+06/17) Accurately ripped

Track Peak [ CRC32 ] [W/O NULL] [ LOG ]
-- 98,8 [6FF4DB87] [12223F9C] CRC32
01 98,8 [B9D06808] [688DA5B7]
02 98,8 [29A18C78] [B788FB9C]
03 98,8 [95CC2571] [E0318566]
04 44,7 [C84275E8] [40692CEE]
05 98,8 [3A33D1AB] [971E14FC]
06 98,8 [4EE48349] [FF839061]
07 97,9 [2717AE25] [B6D0F017]
08 98,8 [0184C0AC] [BC27F230]
09 60,2 [8B378624] [57E4CE06]
10 98,2 [17113EE9] [51B43A45]
11 98,5 [5DF04CE5] [EEE90998]
12 98,8 [96FBF896] [3B9BE43B]
13 98,8 [BE3D04D6] [D46315FB]

foobar2000 1.2 / Dynamic Range Meter 1.1.1
log date: 2015-04-30 15:07:43

--------------------------------------------------------------------------------
Analyzed: Vienna Art Orchestra / All That Strauss - First New Years Concert
--------------------------------------------------------------------------------

DR Peak RMS Duration Track
--------------------------------------------------------------------------------
DR12 -0.10 dB -15.97 dB 9:12 01-Wein, Weib und Gesang
DR13 -0.10 dB -16.33 dB 2:04 02-Process-Plolka
DR12 -0.10 dB -15.83 dB 7:58 03-Ein Morgen, ein Mittag, ein Abend in Wien
DR12 -6.98 dB -22.49 dB 3:29 04-Mit Extrapost
DR12 -0.10 dB -16.08 dB 3:52 05-Albion-Polka
DR11 -0.10 dB -14.08 dB 3:17 06-Gruss an Prag
DR12 -0.18 dB -16.07 dB 9:00 07-Lagunen-Walzer
DR11 -0.10 dB -14.41 dB 3:20 08-Persischer Marsch
DR15 -4.40 dB -24.71 dB 4:41 09-Hellenen Polka
DR12 -0.15 dB -17.29 dB 7:10 10-Marienklange walzer
DR13 -0.13 dB -17.25 dB 4:10 11-Eljen a Magyar
DR11 -0.10 dB -15.39 dB 4:52 12-Czardas
DR12 -0.10 dB -16.45 dB 10:51 13-Donauwalzer
--------------------------------------------------------------------------------

Number of tracks: 13
Official DR value: DR12

Samplerate: 44100 Hz
Channels: 2
Bits per sample: 16
Bitrate: 861 kbps
Codec: FLAC
================================================================================


All thanks to original releaser - max cherry





Password: designol