Вход в свой аккаунт

Или войдите через соц. сети

Hot Rize - When I'm Free (2014)


Hot Rize - When I'm Free (2014)
EAC | FLAC | Image (Cue&Log) ~ 231 Mb (incl 5%) | Mp3 (CBR320) ~ 105 Mb (incl 5%) | Scans included
Genre: Bluegrass, Folk | Label: Ten In Hand | # THR9001 | Time: 00:38:05

“ Ever since Tim O'Brien, Pete Wernick, Nick Foster, and Charles Sawtelle first appearedonstage together in 1978, Hot Rize has been one of bluegrass music's most beloved and critically-acclaimed bands punctuated by winning the IBMA s first Entertainer of the Year Award. Although it s been almost 25 years since their last studio album, the foursome with guitarist Bryan Sutton taking the place of the late Sawtelle hasn't lost a step, as they prove on their new record, When I'm Free. ”


“ You know that let down when you've look forward to something for years. Wrapped in anticipation and projecting your hopes? I was able to attend a show by one of great progressive bluegrass bands Hot Rize a couple days before this release. The band was tight and the new material stood along the old. An album that is from the group as a whole, not the pieces put together. After 20 years they sat down and recorded the material playing live in a circle like bluegrass played at a camp site. Tim O'Brien, a master songwriter and solo performer in is own right, has a two great ones here ("Blues Is Falling", "You Were On My Mind This Morning") Nick Forster has the fun "Doggone". They do a left over song from Mark Knoffler's "Privateering" , a Los Lobos cover and youngster Bryan Sutton adds a mellow and beautiful song of his own all while Dr., Banjo Pete Wernick plays in unique style that compliments each song just perfect. Not sure if this is a one time reunion spurt (they have played festivals since 2002 but not toured) or a sign that Hot Rize is going to be active again, but either way this is just what this long time fan was hoping for.

Review by Cain Knobel, Amazon.com
”





Tracklist:

01. Western Skies (02:42)
02. Blue Is Fallin' (04:05)
03. Come Away (03:44)
04. Sky Rider (02:36)
05. You Where On My Mind This Morning (03:02)
06. Doggone (02:32)
07. A Cowboy's Life (03:40)
08. I Never Met A One Like You (02:59)
09. Burn It Down (03:15)
10. Glory In The Meeting House (02:59)
11. I Am The Road (03:24)
12. Clary Mae (03:02)


Exact Audio Copy V1.0 beta 6 from 9. April 2015

EAC extraction logfile from 28. April 2015, 10:54

Hot Rize / When I'm Free

Used drive : ASUS SDRW-08D1S-U Adapter: 1 ID: 1

Read mode : Secure
Utilize accurate stream : Yes
Defeat audio cache : Yes
Make use of C2 pointers : No

Read offset correction : 667
Overread into Lead-In and Lead-Out : No
Fill up missing offset samples with silence : Yes
Delete leading and trailing silent blocks : No
Null samples used in CRC calculations : Yes
Used interface : Native Win32 interface for Win NT & 2000

Used output format : User Defined Encoder
Selected bitrate : 128 kBit/s
Quality : High
Add ID3 tag : No
Command line compressor : C:Program Files (x86)Exact Audio CopyFlacflac.exe
Additional command line options : -V -8 -T "Date=%year%" -T "Genre=%genre%" %source%


TOC of the extracted CD

Track | Start | Length | Start sector | End sector
---------------------------------------------------------
1 | 0:00.00 | 2:42.36 | 0 | 12185
2 | 2:42.36 | 4:05.00 | 12186 | 30560
3 | 6:47.36 | 3:44.10 | 30561 | 47370
4 | 10:31.46 | 2:36.58 | 47371 | 59128
5 | 13:08.29 | 3:02.09 | 59129 | 72787
6 | 16:10.38 | 2:32.49 | 72788 | 84236
7 | 18:43.12 | 3:40.44 | 84237 | 100780
8 | 22:23.56 | 2:59.15 | 100781 | 114220
9 | 25:22.71 | 3:15.64 | 114221 | 128909
10 | 28:38.60 | 2:59.43 | 128910 | 142377
11 | 31:38.28 | 3:24.47 | 142378 | 157724
12 | 35:03.00 | 3:02.20 | 157725 | 171394


Range status and errors

Selected range

Filename C:UsersОлегDesktopHot RizeHot Rize - When I'm Free.wav

Peak level 94.9 %
Extraction speed 3.6 X
Range quality 100.0 %
Test CRC F896D0EB
Copy CRC F896D0EB
Copy OK

No errors occurred


AccurateRip summary

Track 1 accurately ripped (confidence 8) [F9A39D7B] (AR v2)
Track 2 accurately ripped (confidence 8) [C49CC937] (AR v2)
Track 3 accurately ripped (confidence 8) [F706ED13] (AR v2)
Track 4 accurately ripped (confidence 8) [50A7098B] (AR v2)
Track 5 accurately ripped (confidence 8) [FDF179F6] (AR v2)
Track 6 accurately ripped (confidence 8) [47F92820] (AR v2)
Track 7 accurately ripped (confidence 8) [1A504E8F] (AR v2)
Track 8 accurately ripped (confidence 8) [CACA91BA] (AR v2)
Track 9 accurately ripped (confidence 8) [313507DA] (AR v2)
Track 10 accurately ripped (confidence 8) [A0161F62] (AR v2)
Track 11 accurately ripped (confidence 8) [CB601F2F] (AR v2)
Track 12 accurately ripped (confidence 8) [3E9E5237] (AR v2)

All tracks accurately ripped

End of status report

---- CUETools DB Plugin V2.1.6

[CTDB TOCID: cQkTSQvnJ8ICov74iyDdGCsIWuY-] found
Submit result: cQkTSQvnJ8ICov74iyDdGCsIWuY- has been confirmed
Track | CTDB Status
1 | (7/7) Accurately ripped
2 | (7/7) Accurately ripped
3 | (7/7) Accurately ripped
4 | (7/7) Accurately ripped
5 | (7/7) Accurately ripped
6 | (7/7) Accurately ripped
7 | (7/7) Accurately ripped
8 | (7/7) Accurately ripped
9 | (7/7) Accurately ripped
10 | (7/7) Accurately ripped
11 | (7/7) Accurately ripped
12 | (7/7) Accurately ripped


==== Log checksum 2B6114F84366EAEA627CDE187825AE1B5C75A882BA42F604CDE817CAFAEF1959 ====

foobar2000 1.2 / Dynamic Range Meter 1.1.1
log date: 2015-04-30 15:47:39

--------------------------------------------------------------------------------
Analyzed: Hot Rize / When I'm Free
--------------------------------------------------------------------------------

DR Peak RMS Duration Track
--------------------------------------------------------------------------------
DR8 -0.45 dB -9.52 dB 2:42 01-Western Skies
DR9 -0.45 dB -10.65 dB 4:05 02-Blue Is Fallin'
DR8 -0.45 dB -10.10 dB 3:44 03-Come Away
DR8 -0.45 dB -9.87 dB 2:37 04-Sky Rider
DR9 -0.45 dB -10.75 dB 3:02 05-You Where On My Mind This Morning
DR9 -0.45 dB -10.94 dB 2:33 06-Doggone
DR10 -0.45 dB -12.27 dB 3:41 07-A Cowboy's Life
DR9 -0.45 dB -10.61 dB 2:59 08-I Never Met A One Like You
DR9 -0.45 dB -11.08 dB 3:16 09-Burn It Down
DR10 -0.45 dB -11.75 dB 3:00 10-Glory In The Meeting House
DR9 -0.45 dB -11.45 dB 3:25 11-I Am The Road
DR9 -0.45 dB -10.63 dB 3:02 12-Clary Mae
--------------------------------------------------------------------------------

Number of tracks: 12
Official DR value: DR9

Samplerate: 44100 Hz
Channels: 2
Bits per sample: 16
Bitrate: 760 kbps
Codec: FLAC
================================================================================



All thanks to original releaser - Alex Fal





Password: designol