Japan - Tin Drum (1981) [Non-Remastered]


Japan - Tin Drum (1981)
EAC | FLAC | Image (Cue&Log) ~ 234 Mb (incl 5%) | Mp3 (CBR320) ~ 111 Mb (incl 5%) | Scans included
Genre: New Romantic, New Wave, Art Rock, Post-Punk | Label: Virgin | # CDV2209, 0777 7 86697 22 | Time: 00:38:04

Partially growing out of their success in the country they were named after, as well as growing friendship and affiliation with such bands as Yellow Magic Orchestra, Japan, on Tin Drum, made its most unique, challenging, and striking album. It was also the final full studio effort from the group, and what a way to bow out -- there was practically no resemblance to the trash glam flailers on Adolescent Sex anymore. Rather than repeat the sheer restraint on Gentlemen Take Polaroids, Tin Drum is an album of energy, Sylvian's singing still the decadently joyful thing it is, but the arrangements and performances tight, full, and active. The fusion of exquisite funk courtesy of Karn and Jansen's joined-at-the-hip rhythm section and a range of Asian music influences, from instrumentation to subject matter, combined with an even wider use of technological approaches to create the dramatic, sly songs on offer. Only the Talking Heads showed the same attempt at reach and variety at the time, at least in the Western rock world, but Japan arguably outstripped the New York band with its sheer sense of theatrical style. To top it all off, the band was more popular than ever, with "Ghosts," an appropriately haunting ballad notable for its utterly minimal arrangement, almost entirely eschewing beats for Barbieri's textures and Jansen's work on marimba, becoming a Top Ten hit in the U.K. The wound-up dancefloor art grooves of "The Art of Parties" and especially "Visions of China," the latter featuring what has to be Karnand Jansen's eternal highlight performance (check out Jansen's jaw-dropping drum break) were also notable efforts. Meanwhile, the evocation of Chinese culture in general continued with such songs as "Canton," a slightly martial, stately march with clear inspiration from the country's classical music tradition, and the concluding "Cantonese Boy."

Review by Ned Raggett, Allmusic.com





Tracklist:

01. The Art Of Parties (04:11)
02. Talking Drum (03:36)
03. Ghosts (04:34)
04. Canton (05:28)
05. Still Life In Mobile Homes (05:34)
06. Visions Of China (03:39)
07. Sons Of Pioneers (07:09)
08. Cantonese Boy (03:49)


Exact Audio Copy V1.0 beta 6 from 9. April 2015

Отчёт EAC об извлечении, выполненном 5. мая 2015, 20:33

Japan / Tin Drum

Дисковод: SONY CD-RW CRX230ED Adapter: 1 ID: 0

Режим чтения : Достоверность
Использование точного потока : Да
Отключение кэша аудио : Да
Использование указателей C2 : Нет

Коррекция смещения при чтении : 6
Способность читать области Lead-in и Lead-out : Нет
Заполнение пропущенных сэмплов тишиной : Да
Удаление блоков с тишиной в начале и конце : Нет
При вычислениях CRC использовались нулевые сэмплы : Да
Интерфейс : Встроенный Win32-интерфейс для Win NT/2000

Выходной формат : Внутренние WAV-операции
Формат сэмплов : 44.100 Гц; 16 бит; стерео


TOC извлечённого CD

Трек | Старт | Длительность | Начальный сектор | Конечный сектор
---------------------------------------------------------------------
1 | 0:00.25 | 4:11.20 | 25 | 18869
2 | 4:11.45 | 3:36.63 | 18870 | 35132
3 | 7:48.33 | 4:34.47 | 35133 | 55729
4 | 12:23.05 | 5:28.13 | 55730 | 80342
5 | 17:51.18 | 5:34.50 | 80343 | 105442
6 | 23:25.68 | 3:39.02 | 105443 | 121869
7 | 27:04.70 | 7:09.00 | 121870 | 154044
8 | 34:13.70 | 3:50.00 | 154045 | 171294


Характеристики диапазона извлечения и сообщения об ошибках

Выбранный диапазон

Имя файла F:MusicCDTorrentJapan - Tin DrumJapan - Tin Drum.wav

Пиковый уровень 95.5 %
Скорость извлечения 5.5 X
Качество диапазона 100.0 %
CRC теста 7297C981
CRC копии 7297C981
Копирование... OK

Ошибок не произошло


AccurateRip: сводка

Трек 1 : извлечено точно (доверие 2) [3332AC66] (AR v2)
Трек 2 : извлечено точно (доверие 3) [FF62FDA5] (AR v2)
Трек 3 : извлечено точно (доверие 3) [2DA88080] (AR v2)
Трек 4 : извлечено точно (доверие 2) [FC3451EC] (AR v2)
Трек 5 : извлечено точно (доверие 2) [4044310F] (AR v2)
Трек 6 : извлечено точно (доверие 2) [55D4EC42] (AR v2)
Трек 7 : извлечено точно (доверие 3) [DAADB8D2] (AR v2)
Трек 8 : извлечено точно (доверие 2) [342362C7] (AR v2)

Все треки извлечены точно

Конец отчёта

---- CUETools DB Plugin V2.1.6

[CTDB TOCID: anecrisHIKGjvfFrEEup2t7aATc-] found
Submit result: anecrisHIKGjvfFrEEup2t7aATc- has been confirmed
Track | CTDB Status
1 | (2/2) Accurately ripped
2 | (2/2) Accurately ripped
3 | (2/2) Accurately ripped
4 | (2/2) Accurately ripped
5 | (2/2) Accurately ripped
6 | (2/2) Accurately ripped
7 | (2/2) Accurately ripped
8 | (2/2) Accurately ripped


==== Контрольная сумма отчёта B973A5F7E535796133CF7F194802E702288C0C405E4E0C5C247D4EA37C86636D ====

foobar2000 1.3.8 / Dynamic Range Meter 1.1.1
log date: 2015-05-06 15:31:36

--------------------------------------------------------------------------------
Analyzed: Japan / Tin Drum
--------------------------------------------------------------------------------

DR Peak RMS Duration Track
--------------------------------------------------------------------------------
DR12 -2.87 dB -16.51 dB 4:11 01-The Art Of Parties
DR14 -0.52 dB -17.24 dB 3:37 02-Talking Drum
DR11 -3.67 dB -18.82 dB 4:35 03-Ghosts
DR13 -0.40 dB -14.46 dB 5:28 04-Canton
DR12 -1.24 dB -15.92 dB 5:35 05-Still Life In Mobile Homes
DR12 -1.46 dB -15.08 dB 3:39 06-Visions Of China
DR12 -3.86 dB -18.41 dB 7:09 07-Sons Of Pioneers
DR13 -2.47 dB -16.85 dB 3:50 08-Cantonese Boy
--------------------------------------------------------------------------------

Number of tracks: 8
Official DR value: DR12

Samplerate: 44100 Hz
Channels: 2
Bits per sample: 16
Bitrate: 730 kbps
Codec: FLAC
================================================================================



All thanks to original releaser - squirr








Password: designol