VA - Pink Champagne (2003) 2CD


VA - Pink Champagne (2003) 2CD
EAC | FLAC | Tracks (Cue&Log) ~ 766 Mb (incl 5%) | Mp3 (CBR320) ~ 333 Mb (incl 5%) | Scans included
Genre: Vocal Jazz, Traditional Pop, Show Tunes | Label: EMI | # 7243 595428 2 9 | Time: 02:11:35

Exclusive 32-track collection from EMI features the perfect soundtrack to your cocktail party! Highlights include, Cassandra Wilson 'Time After Time', Peggy Lee 'I Left My Heart In San Francicso', Minnie Riperton featuring Jose Feliciano 'Light My Fire', Charlie Hunter and Norah Jones 'More than This', Julie London 'Fly Me to the Moon', Cilla Black 'Alfie', Eva Cassidy 'Yesterday', Nina Simone 'Wild is the Wind' and other tracks from Billie Holiday, Ella Fitzgerald, Sarah Vaughan, Liza Minnelli, Judy Garland, Edith Piaf, Nancy Wilson and many more.


Tracklist:

CD1:

01. Eva Cassidy - Yesterday (3:07)
02. Charlie Hunter & Norah Jones - More Than This (4:11)
03. Dianne Reeves - Both Sides Now (7:02)
04. Enzo Pietropaoli - Sorry Seems to Be the Hardest Word (4:09)
05. Miriam Aida & Fredrik Kronkvist - Sunny (5:13)
06. Julie London - Fly Me to the Moon (2:34)
07. Nancy Wilson - People (3:43)
08. Cilla Black - Alfie (2:39)
09. Angelita Li & Hans Ulrik - Close to You (5:21)
10. Patricia Barber - A Taste of Honey (4:29)
11. Sarah Vaughan - In a Sentimental Mood (4:05)
12. Dinah Washington - These Foolish Things (3:29)
13. Nina Simone - Wild Is the Wind (3:27)
14. Lena Horne - Imagination (5:49)
15. Billie Holiday & The Paul Whiteman Orchestra - Trav'lin' Light (3:18)
16. Ella Fitzgerald - Medley: Candy/All I Do Is Dream of You/Spring Is Here/
720 in the Books/It Happened in Monterey/What Can I Say After I Say I'm Sorry (6:43)

CD2:

01. Lisa Ono - Tea for Two (3:19)
02. Sanne Salomonsen - Smooth Operator (4:20)
03. Eartha Kitt - The Girl from Ipanema (3:04)
04. Eden Atwood - Fool on the Hill (4:09)
05. Melissa Errico - Never Saw Blue Like That (4:28)
06. Cassandra Wilson - Time After Time (4:08)
07. Jane Duboc - If It's Magic (3:43)
08. Silje Nergaard feat. Pat Metheny - Tell Me Where You're Going (5:23)
09. Fay Claassen - What Are You Doing the Rest of Your Life (4:41)
10. Peggy Lee - I Left My Heart in San Francisco (2:23)
11. Liza Minnelli - Theme from New York New York (3:17)
12. Judy Garland - Over the Rainbow (3:31)
13. Edith Piaf - La Vie en Rose (3:25)
14. Jan Lundgren Trio feat. Stacey Kent - I Don't Stand the Ghost of a Chance (3:51)
15. Caecilie Norby - By the Time I Get to Phoenix (3:24)
16. Minnie Riperton feat. Jose Feliciano - Light My Fire (5:10)


Exact Audio Copy V1.0 beta 3 from 29. August 2011

EAC extraction logfile from 28. February 2013, 23:55

Various Artists / Pink Champagne Disc1

Used drive : PIONEER BD-ROM BDC-207 Adapter: 0 ID: 1

Read mode : Secure
Utilize accurate stream : Yes
Defeat audio cache : Yes
Make use of C2 pointers : No

Read offset correction : 667
Overread into Lead-In and Lead-Out : No
Fill up missing offset samples with silence : Yes
Delete leading and trailing silent blocks : No
Null samples used in CRC calculations : Yes
Used interface : Native Win32 interface for Win NT & 2000
Gap handling : Appended to previous track

Used output format : User Defined Encoder
Selected bitrate : 1024 kBit/s
Quality : High
Add ID3 tag : No
Command line compressor : D:Program Files (x86)Exact Audio CopyFLACFLAC.EXE
Additional command line options : -8 -V -T "ARTIST=%artist%" -T "TITLE=%title%" -T "ALBUM=%albumtitle%" -T "DATE=%year%" -T "TRACKNUMBER=%tracknr%" -T "GENRE=%genre%" -T "PERFORMER=%albuminterpret%" -T "COMPOSER=%composer%" %haslyrics%--tag-from-file=LYRICS="%lyricsfile%"%haslyrics% -T "ALBUMARTIST=%albumartist%" -T "DISCNUMBER=%cdnumber%" -T "TOTALDISCS=%totalcds%" -T "TOTALTRACKS=%numtracks%" -T "COMMENT=%comment%" %source% -o %dest%


TOC of the extracted CD

Track | Start | Length | Start sector | End sector
---------------------------------------------------------
1 | 0:00.00 | 3:06.48 | 0 | 13997
2 | 3:06.48 | 4:10.38 | 13998 | 32785
3 | 7:17.11 | 7:02.35 | 32786 | 64470
4 | 14:19.46 | 4:08.39 | 64471 | 83109
5 | 18:28.10 | 5:13.16 | 83110 | 106600
6 | 23:41.26 | 2:34.08 | 106601 | 118158
7 | 26:15.34 | 3:42.44 | 118159 | 134852
8 | 29:58.03 | 2:38.58 | 134853 | 146760
9 | 32:36.61 | 5:20.73 | 146761 | 170833
10 | 37:57.59 | 4:29.02 | 170834 | 191010
11 | 42:26.61 | 4:04.73 | 191011 | 209383
12 | 46:31.59 | 3:28.69 | 209384 | 225052
13 | 50:00.53 | 3:27.09 | 225053 | 240586
14 | 53:27.62 | 5:49.07 | 240587 | 266768
15 | 59:16.69 | 3:18.19 | 266769 | 281637
16 | 62:35.13 | 6:42.67 | 281638 | 311854
17 | 71:50.05 | 7:44.54 | 323255 | 358108


Track 1

Filename Z:musicVarious Artists - Pink Champagne (2003) [FLAC] {EMI}Disc11 - Eva Cassidy - Yesterday.wav

Pre-gap length 0:00:02.00

Peak level 89.9 %
Extraction speed 1.1 X
Track quality 100.0 %
Test CRC F5F292CE
Copy CRC F5F292CE
Accurately ripped (confidence 3) [812D927B] (AR v2)
Copy OK

Track 2

Filename Z:musicVarious Artists - Pink Champagne (2003) [FLAC] {EMI}Disc12 - Charlie Hunter & Norah Jones - More Than This.wav

Pre-gap length 0:00:01.00

Peak level 73.2 %
Extraction speed 1.3 X
Track quality 100.0 %
Test CRC F829904D
Copy CRC F829904D
Accurately ripped (confidence 3) [7F8CA398] (AR v2)
Copy OK

Track 3

Filename Z:musicVarious Artists - Pink Champagne (2003) [FLAC] {EMI}Disc13 - Dianne Reeves - Both Sides Now.wav

Pre-gap length 0:00:01.09

Peak level 80.4 %
Extraction speed 1.5 X
Track quality 100.0 %
Test CRC BDF30F02
Copy CRC BDF30F02
Accurately ripped (confidence 3) [0E8C1221] (AR v2)
Copy OK

Track 4

Filename Z:musicVarious Artists - Pink Champagne (2003) [FLAC] {EMI}Disc14 - Enzo Pietropaoli - Sorry Seems To Be The Hardest Word.wav

Pre-gap length 0:00:00.97

Peak level 80.1 %
Extraction speed 1.5 X
Track quality 100.0 %
Test CRC 55B355B8
Copy CRC 55B355B8
Accurately ripped (confidence 3) [5CF0FA02] (AR v2)
Copy OK

Track 5

Filename Z:musicVarious Artists - Pink Champagne (2003) [FLAC] {EMI}Disc15 - Miriam Aida & Fredrik Kronkvist - Sunny.wav

Pre-gap length 0:00:01.12

Peak level 77.2 %
Extraction speed 1.7 X
Track quality 100.0 %
Test CRC F87A952B
Copy CRC F87A952B
Accurately ripped (confidence 3) [4D4184C9] (AR v2)
Copy OK

Track 6

Filename Z:musicVarious Artists - Pink Champagne (2003) [FLAC] {EMI}Disc16 - Julie London - Fly Me To The Moon.wav

Pre-gap length 0:00:01.20

Peak level 92.4 %
Extraction speed 1.6 X
Track quality 100.0 %
Test CRC A12E7992
Copy CRC A12E7992
Accurately ripped (confidence 3) [0EDF3094] (AR v2)
Copy OK

Track 7

Filename Z:musicVarious Artists - Pink Champagne (2003) [FLAC] {EMI}Disc17 - Nancy Wilson - People.wav

Pre-gap length 0:00:01.01

Peak level 86.1 %
Extraction speed 1.7 X
Track quality 100.0 %
Test CRC 411117D2
Copy CRC 411117D2
Accurately ripped (confidence 3) [3A8AC5A1] (AR v2)
Copy OK

Track 8

Filename Z:musicVarious Artists - Pink Champagne (2003) [FLAC] {EMI}Disc18 - Cilla Black - Alfie.wav

Pre-gap length 0:00:01.20

Peak level 93.5 %
Extraction speed 1.7 X
Track quality 100.0 %
Test CRC 7F41EFB0
Copy CRC 7F41EFB0
Accurately ripped (confidence 3) [6454271D] (AR v2)
Copy OK

Track 9

Filename Z:musicVarious Artists - Pink Champagne (2003) [FLAC] {EMI}Disc19 - Angelita Li , Hans Ulrik - Close To You.wav

Pre-gap length 0:00:00.97

Peak level 83.5 %
Extraction speed 1.9 X
Track quality 100.0 %
Test CRC 508060ED
Copy CRC 508060ED
Accurately ripped (confidence 3) [0576DBBC] (AR v2)
Copy OK

Track 10

Filename Z:musicVarious Artists - Pink Champagne (2003) [FLAC] {EMI}Disc110 - Patricia Barber - A Taste Of Honey.wav

Pre-gap length 0:00:01.32

Peak level 100.0 %
Extraction speed 2.0 X
Track quality 100.0 %
Test CRC 409B886D
Copy CRC 409B886D
Accurately ripped (confidence 3) [4046655B] (AR v2)
Copy OK

Track 11

Filename Z:musicVarious Artists - Pink Champagne (2003) [FLAC] {EMI}Disc111 - Sarah Vaughan - In A Sentimental Mood.wav

Pre-gap length 0:00:01.06

Peak level 83.5 %
Extraction speed 2.0 X
Track quality 100.0 %
Test CRC D08D8A46
Copy CRC D08D8A46
Accurately ripped (confidence 3) [04296352] (AR v2)
Copy OK

Track 12

Filename Z:musicVarious Artists - Pink Champagne (2003) [FLAC] {EMI}Disc112 - Dinah Washington - These Foolish Things.wav

Pre-gap length 0:00:01.05

Peak level 91.4 %
Extraction speed 2.0 X
Track quality 100.0 %
Test CRC 417446CC
Copy CRC 417446CC
Accurately ripped (confidence 3) [F22265C5] (AR v2)
Copy OK

Track 13

Filename Z:musicVarious Artists - Pink Champagne (2003) [FLAC] {EMI}Disc113 - Nina Simone - Wild Is The Wind.wav

Pre-gap length 0:00:01.13

Peak level 83.5 %
Extraction speed 1.8 X
Track quality 99.9 %
Test CRC 5C88C52E
Copy CRC 5C88C52E
Accurately ripped (confidence 3) [38364C09] (AR v2)
Copy OK

Track 14

Filename Z:musicVarious Artists - Pink Champagne (2003) [FLAC] {EMI}Disc114 - Lena Horne - Imagination.wav

Pre-gap length 0:00:01.41

Peak level 92.1 %
Extraction speed 2.3 X
Track quality 100.0 %
Test CRC E2A678B9
Copy CRC E2A678B9
Accurately ripped (confidence 3) [FEA410C4] (AR v2)
Copy OK

Track 15

Filename Z:musicVarious Artists - Pink Champagne (2003) [FLAC] {EMI}Disc115 - Billie Holiday with The Paul Whiteman Orchestra - Trav'lin' Light.wav

Pre-gap length 0:00:01.38

Peak level 71.5 %
Extraction speed 2.2 X
Track quality 100.0 %
Test CRC 40F20255
Copy CRC 40F20255
Accurately ripped (confidence 3) [DE078A71] (AR v2)
Copy OK

Track 16

Filename Z:musicVarious Artists - Pink Champagne (2003) [FLAC] {EMI}Disc116 - Ella Fitzgerald - Medley- Candy,All I Do Is Dream Of You,Spring Is Here,720 In The Books,It Happened In Monterey,What Can I Say After I Say I'm Sorry.wav

Pre-gap length 0:00:01.02

Peak level 84.4 %
Extraction speed 2.4 X
Track quality 100.0 %
Test CRC 68E54229
Copy CRC 68E54229
Accurately ripped (confidence 2) [D8818B19] (AR v2)
Copy OK


All tracks accurately ripped

No errors occurred

End of status report

---- CUETools DB Plugin V2.1.3

[CTDB TOCID: t97tGOKIm0u.PUNU_hZtNrqgV3g-] disk not present in database, Submit result: database access error: 请求被中止: 请求已被取消。


==== Log checksum 62331D2FDF6386330413B3B09EA92E8525E6A1A8948DE4A6E08BEAED0F9237CA ====

foobar2000 1.3.8 / Dynamic Range Meter 1.1.1
log date: 2015-05-07 15:45:22

--------------------------------------------------------------------------------
Analyzed: Angelita Li & Hans Ulrik / Pink Champagne CD1 (1)
Billie Holiday & The Paul Whiteman Orchestra / Pink Champagne CD1 (2)
Charlie Hunter & Norah Jones / Pink Champagne CD1 (3)
Cilla Black / Pink Champagne CD1 (4)
Dianne Reeves / Pink Champagne CD1 (5)
Dinah Washington / Pink Champagne CD1 (6)
Ella Fitzgerald / Pink Champagne CD1 (7)
Enzo Pietropaoli / Pink Champagne CD1 (8)
Eva Cassidy / Pink Champagne CD1 (9)
Julie London / Pink Champagne CD1 (10)
Lena Horne / Pink Champagne CD1 (11)
Miriam Aida & Fredrik Kronkvist / Pink Champagne CD1 (12)
Nancy Wilson / Pink Champagne CD1 (13)
Nina Simone / Pink Champagne CD1 (14)
Patricia Barber / Pink Champagne CD1 (15)
Sarah Vaughan / Pink Champagne CD1 (16)
--------------------------------------------------------------------------------

DR Peak RMS Duration Track
--------------------------------------------------------------------------------
DR9 -1.56 dB -13.16 dB 5:21 09-Close to You
DR11 -2.90 dB -16.83 dB 3:18 15-Trav'lin' Light
DR11 -2.71 dB -15.80 dB 4:11 02-More Than This
DR9 -0.58 dB -13.20 dB 2:39 08-Alfie
DR13 -1.89 dB -21.42 dB 7:02 03-Both Sides Now
DR12 -0.77 dB -16.28 dB 3:29 12-These Foolish Things
DR11 -1.47 dB -14.77 dB 6:43 16-Medley
DR14 -1.92 dB -19.79 dB 4:09 04-Sorry Seems to Be the Hardest Word
DR10 -0.92 dB -15.31 dB 3:07 01-Yesterday
DR11 -0.68 dB -14.44 dB 2:34 06-Fly Me to the Moon
DR12 -0.71 dB -16.81 dB 5:49 14-Imagination
DR10 -2.24 dB -14.88 dB 5:13 05-Sunny
DR12 -1.30 dB -19.05 dB 3:43 07-People
DR9 -1.56 dB -15.70 dB 3:27 13-Wild Is the Wind
DR17 0.00 dB -21.52 dB 4:29 10-A Taste of Honey
DR11 -1.56 dB -16.13 dB 4:05 11-In a Sentimental Mood
--------------------------------------------------------------------------------

Number of tracks: 16
Official DR value: DR11

Samplerate: 44100 Hz
Channels: 2
Bits per sample: 16
Bitrate: 675 kbps
Codec: FLAC
================================================================================


Exact Audio Copy V1.0 beta 3 from 29. August 2011

EAC extraction logfile from 1. March 2013, 12:33

Various Artists / Pink Champagne Disc2

Used drive : PIONEER BD-ROM BDC-207 Adapter: 0 ID: 1

Read mode : Secure
Utilize accurate stream : Yes
Defeat audio cache : Yes
Make use of C2 pointers : No

Read offset correction : 667
Overread into Lead-In and Lead-Out : No
Fill up missing offset samples with silence : Yes
Delete leading and trailing silent blocks : No
Null samples used in CRC calculations : Yes
Used interface : Native Win32 interface for Win NT & 2000
Gap handling : Appended to previous track

Used output format : User Defined Encoder
Selected bitrate : 1024 kBit/s
Quality : High
Add ID3 tag : No
Command line compressor : D:Program Files (x86)Exact Audio CopyFLACFLAC.EXE
Additional command line options : -8 -V -T "ARTIST=%artist%" -T "TITLE=%title%" -T "ALBUM=%albumtitle%" -T "DATE=%year%" -T "TRACKNUMBER=%tracknr%" -T "GENRE=%genre%" -T "PERFORMER=%albuminterpret%" -T "COMPOSER=%composer%" %haslyrics%--tag-from-file=LYRICS="%lyricsfile%"%haslyrics% -T "ALBUMARTIST=%albumartist%" -T "DISCNUMBER=%cdnumber%" -T "TOTALDISCS=%totalcds%" -T "TOTALTRACKS=%numtracks%" -T "COMMENT=%comment%" %source% -o %dest%


TOC of the extracted CD

Track | Start | Length | Start sector | End sector
---------------------------------------------------------
1 | 0:00.00 | 3:19.34 | 0 | 14958
2 | 3:19.34 | 4:19.56 | 14959 | 34439
3 | 7:39.15 | 3:04.23 | 34440 | 48262
4 | 10:43.38 | 4:08.45 | 48263 | 66907
5 | 14:52.08 | 4:27.45 | 66908 | 86977
6 | 19:19.53 | 4:07.42 | 86978 | 105544
7 | 23:27.20 | 3:43.17 | 105545 | 122286
8 | 27:10.37 | 5:23.33 | 122287 | 146544
9 | 32:33.70 | 4:40.38 | 146545 | 167582
10 | 37:14.33 | 2:23.37 | 167583 | 178344
11 | 39:37.70 | 3:17.16 | 178345 | 193135
12 | 42:55.11 | 3:31.08 | 193136 | 208968
13 | 46:26.19 | 3:25.04 | 208969 | 224347
14 | 49:51.23 | 3:51.00 | 224348 | 241672
15 | 53:42.23 | 3:24.22 | 241673 | 256994
16 | 57:06.45 | 5:10.34 | 256995 | 280278
17 | 64:49.04 | 2:58.36 | 291679 | 305064


Track 1

Filename Z:musicVarious Artists - Pink Champagne (2003) [FLAC] {EMI}Disc21 - Lisa Ono - Tea For Two.wav

Pre-gap length 0:00:02.00

Peak level 65.5 %
Extraction speed 1.1 X
Track quality 100.0 %
Test CRC BBD85132
Copy CRC BBD85132
Accurately ripped (confidence 2) [522BF7D7] (AR v2)
Copy OK

Track 2

Filename Z:musicVarious Artists - Pink Champagne (2003) [FLAC] {EMI}Disc22 - Sanne Salomonsen - Smooth Operator.wav

Pre-gap length 0:00:00.88

Peak level 98.8 %
Extraction speed 1.3 X
Track quality 100.0 %
Test CRC 706E0545
Copy CRC 706E0545
Accurately ripped (confidence 2) [B9A09D32] (AR v2)
Copy OK

Track 3

Filename Z:musicVarious Artists - Pink Champagne (2003) [FLAC] {EMI}Disc23 - Eartha Kitt - The Girl From Ipanema.wav

Pre-gap length 0:00:01.10

Peak level 98.8 %
Extraction speed 1.3 X
Track quality 100.0 %
Test CRC 536E825C
Copy CRC 536E825C
Accurately ripped (confidence 2) [E1D8B096] (AR v2)
Copy OK

Track 4

Filename Z:musicVarious Artists - Pink Champagne (2003) [FLAC] {EMI}Disc24 - Eden Atwood - Fool On The Hill.wav

Pre-gap length 0:00:00.98

Peak level 98.8 %
Extraction speed 1.5 X
Track quality 100.0 %
Test CRC 287D3FC0
Copy CRC 287D3FC0
Accurately ripped (confidence 2) [52DABF1F] (AR v2)
Copy OK

Track 5

Filename Z:musicVarious Artists - Pink Champagne (2003) [FLAC] {EMI}Disc25 - Melissa Errico - Never Saw Blue like That.wav

Pre-gap length 0:00:01.10

Peak level 98.8 %
Extraction speed 1.4 X
Track quality 99.9 %
Test CRC 3CE255E5
Copy CRC 3CE255E5
Track not present in AccurateRip database
Copy OK

Track 6

Filename Z:musicVarious Artists - Pink Champagne (2003) [FLAC] {EMI}Disc26 - Cassandra Wilson - Time After Time.wav

Pre-gap length 0:00:01.09

Peak level 98.8 %
Extraction speed 1.6 X
Track quality 100.0 %
Test CRC 59D89E97
Copy CRC 59D89E97
Accurately ripped (confidence 2) [C0FBC7BC] (AR v2)
Copy OK

Track 7

Filename Z:musicVarious Artists - Pink Champagne (2003) [FLAC] {EMI}Disc27 - Jane Duboc - If It's Magic.wav

Pre-gap length 0:00:00.84

Peak level 95.8 %
Extraction speed 1.7 X
Track quality 100.0 %
Test CRC 43647807
Copy CRC 43647807
Accurately ripped (confidence 2) [D1790915] (AR v2)
Copy OK

Track 8

Filename Z:musicVarious Artists - Pink Champagne (2003) [FLAC] {EMI}Disc28 - Silje Nergaard featuring Pat Metheny - Tell Me Where You're Going.wav

Pre-gap length 0:00:01.04

Peak level 98.8 %
Extraction speed 1.9 X
Track quality 100.0 %
Test CRC 74A40773
Copy CRC 74A40773
Accurately ripped (confidence 2) [AB8F1CCD] (AR v2)
Copy OK

Track 9

Filename Z:musicVarious Artists - Pink Champagne (2003) [FLAC] {EMI}Disc29 - Fay Claassen - What Are You Doing The Rest Of Your Life.wav

Pre-gap length 0:00:00.94

Peak level 98.8 %
Extraction speed 1.7 X
Track quality 99.9 %
Test CRC C43EA1C6
Copy CRC C43EA1C6
Accurately ripped (confidence 2) [8C7AC1C8] (AR v2)
Copy OK

Track 10

Filename Z:musicVarious Artists - Pink Champagne (2003) [FLAC] {EMI}Disc210 - Peggy Lee - I Left My Heart In San Francisco.wav

Pre-gap length 0:00:00.85

Peak level 91.2 %
Extraction speed 1.8 X
Track quality 100.0 %
Test CRC C7352CB0
Copy CRC C7352CB0
Accurately ripped (confidence 2) [7496E840] (AR v2)
Copy OK

Track 11

Filename Z:musicVarious Artists - Pink Champagne (2003) [FLAC] {EMI}Disc211 - Liza Minnelli - Theme From New York New York.wav

Pre-gap length 0:00:00.94

Peak level 98.8 %
Extraction speed 1.7 X
Track quality 99.9 %
Test CRC 1E131686
Copy CRC 1E131686
Accurately ripped (confidence 2) [4AEDF876] (AR v2)
Copy OK

Track 12

Filename Z:musicVarious Artists - Pink Champagne (2003) [FLAC] {EMI}Disc212 - Judy Garland - Over The Rainbow.wav

Pre-gap length 0:00:00.49

Peak level 98.8 %
Extraction speed 2.0 X
Track quality 100.0 %
Test CRC 018B5ACF
Copy CRC 018B5ACF
Accurately ripped (confidence 2) [B1668601] (AR v2)
Copy OK

Track 13

Filename Z:musicVarious Artists - Pink Champagne (2003) [FLAC] {EMI}Disc213 - Edith Piaf - La Vie En Rose.wav

Pre-gap length 0:00:00.98

Peak level 98.8 %
Extraction speed 2.0 X
Track quality 100.0 %
Test CRC E79C5A23
Copy CRC E79C5A23
Accurately ripped (confidence 2) [ECAA26A8] (AR v2)
Copy OK

Track 14

Filename Z:musicVarious Artists - Pink Champagne (2003) [FLAC] {EMI}Disc214 - Jan Lundgren Trio featuring Stacey Kent - I Don't Stand The Ghost Of A Chance.wav

Pre-gap length 0:00:01.02

Peak level 68.7 %
Extraction speed 2.1 X
Track quality 100.0 %
Test CRC C50F425A
Copy CRC C50F425A
Accurately ripped (confidence 2) [604E1F32] (AR v2)
Copy OK

Track 15

Filename Z:musicVarious Artists - Pink Champagne (2003) [FLAC] {EMI}Disc215 - Caecilie Norby - By The Time I Get To Phoenix.wav

Pre-gap length 0:00:01.13

Peak level 98.8 %
Extraction speed 2.1 X
Track quality 100.0 %
Test CRC 82597EFD
Copy CRC 82597EFD
Accurately ripped (confidence 2) [72B8F66E] (AR v2)
Copy OK

Track 16

Filename Z:musicVarious Artists - Pink Champagne (2003) [FLAC] {EMI}Disc216 - Minnie Riperton featuring Jose Feliciano - Light My Fire.wav

Pre-gap length 0:00:01.13

Peak level 98.8 %
Extraction speed 2.1 X
Track quality 99.9 %
Test CRC 5DADBAE7
Copy CRC 5DADBAE7
Accurately ripped (confidence 2) [6222EF7B] (AR v2)
Copy OK


15 音轨精确校准抓取
1 音轨在 AccurateRip 数据库中无记录

Some tracks could not be verified as accurate

No errors occurred

End of status report

---- CUETools DB Plugin V2.1.3

[CTDB TOCID: lUmwpr1F0dO3BK3sNXCq.LiW.CQ-] disk not present in database, Submit result: lUmwpr1F0dO3BK3sNXCq.LiW.CQ- has been uploaded


==== Log checksum C29E9D929CCABA57E5E7A3F6274A87E4B100BEFD258F3DE45B34EC50425FD62D ====

foobar2000 1.3.8 / Dynamic Range Meter 1.1.1
log date: 2015-05-07 15:46:13

--------------------------------------------------------------------------------
Analyzed: Caecilie Norby / Pink Champagne CD2 (1)
Cassandra Wilson / Pink Champagne CD2 (2)
Eartha Kitt / Pink Champagne CD2 (3)
Eden Atwood / Pink Champagne CD2 (4)
Edith Piaf / Pink Champagne CD2 (5)
Fay Claassen / Pink Champagne CD2 (6)
Jan Lundgren Trio feat. Stacey Kent / Pink Champagne CD2 (7)
Jane Duboc / Pink Champagne CD2 (8)
Judy Garland / Pink Champagne CD2 (9)
Lisa Ono / Pink Champagne CD2 (10)
Liza Minnelli / Pink Champagne CD2 (11)
Melissa Errico / Pink Champagne CD2 (12)
Minnie Riperton feat. Jose Feliciano / Pink Champagne CD2 (13)
Peggy Lee / Pink Champagne CD2 (14)
Sanne Salomonsen / Pink Champagne CD2 (15)
Silje Nergaard feat. Pat Metheny / Pink Champagne CD2 (16)
--------------------------------------------------------------------------------

DR Peak RMS Duration Track
--------------------------------------------------------------------------------
DR11 -0.10 dB -14.41 dB 3:24 15-By the Time I Get to Phoenix
DR9 -0.10 dB -11.39 dB 4:08 06-Time After Time
DR10 -0.10 dB -12.00 dB 3:04 03-The Girl from Ipanema
DR9 -0.10 dB -11.84 dB 4:09 04-Fool on the Hill
DR12 -0.10 dB -16.74 dB 3:25 13-La Vie en Rose
DR8 -0.10 dB -12.00 dB 4:41 09-What Are You Doing the Rest of Your Life
DR12 -3.26 dB -18.94 dB 3:51 14-I Don't Stand the Ghost of a Chance
DR10 -0.37 dB -13.72 dB 3:43 07-If It's Magic
DR10 -0.10 dB -14.70 dB 3:31 12-Over the Rainbow
DR5 -3.66 dB -10.27 dB 3:19 01-Tea for Two
DR9 -0.10 dB -11.60 dB 3:17 11-Theme from New York New York
DR9 -0.10 dB -12.78 dB 4:28 05-Never Saw Blue Like That
DR11 -0.10 dB -14.20 dB 5:10 16-Light My Fire
DR9 -0.80 dB -14.16 dB 2:23 10-I Left My Heart in San Francisco
DR8 -0.10 dB -11.45 dB 4:20 02-Smooth Operator
DR9 -0.10 dB -11.39 dB 5:23 08-Tell Me Where You're Going
--------------------------------------------------------------------------------

Number of tracks: 16
Official DR value: DR9

Samplerate: 44100 Hz
Channels: 2
Bits per sample: 16
Bitrate: 1004 kbps
Codec: FLAC
================================================================================



All thanks to original releaser - robotechno & fiks22 for share





Password: designol