Art Blakey's Jazz Messengers With Thelonious Monk (1958)


Art Blakey's Jazz Messengers With Thelonious Monk (1958)
EAC | FLAC | Image (Cue&Log) ~ 259 Mb (incl 5%) | Mp3 (CBR320) ~ 116 Mb (incl 5%) | Scans included
Genre: Hard Bop, Bop | Label: Atlantic Jazz | # 1278-2 | Time: 00:44:20

Most of the titles on this album are derived from Thelonious Monk's vast catalog of bop standards. Both co-leaders are at the peak of their respective prowess with insightful interpretations of nearly half a dozen inspired performances from this incarnation of the Blakey-led Jazz Messengers. This combo features Art Blakey (drums), Johnny Griffin (tenor sax), Bill Hardman (trumpet), and Spanky Debrest (bass). Immediately, Hardman ups the ante with a piledriving lead during "Evidence" that underscores the heavy-hitting nature of this particular jazz confab. Monk counters with some powerful and inspired runs that are sonically splintered by the enthusiastic -- if not practically percussive -- chord progressions and highly logistic phrasings from the pianist. The inherent melodic buoyancy on "In Walked Bud" contains a springboard-like quality, with Griffin matching Monk's bounce measure for measure. Griffin's incessant efforts create a freshness to the tune that often escapes other less inspired readings. From Blakey's boisterous opening on "Blue Monk" through to Monk's single-note crescendo during the finale, the Jazz Messengers provide a lethargic propulsion that showcases the melody's bluesy origins. This directly contrasts the uptempo charge of "Rhythm-A-Ning." The quirky yet catchy chorus glides with the dual-lead horn section as the entire arrangement is tautly bound by the understated Debrest and Blakey. Griffin's "Purple Shades" is the only non-Monk composition that this aggregate recorded. This smartly syncopated blues seems better suited for the Jazz Messengers than for Monk. However, the pianist's opening solo alternately shimmers and shudders with Debrest as well as Griffin and Hardman, who demonstrate their own pronounced capabilities over Monk's otherwise occasional counterpoint.

Review by Lindsay Planer, Allmusic.com











Tracklist:

01. Evidence (06:45)
02. In Walked Bud (06:38)
03. Blue Monk (07:52)
04. I Mean You (08:03)
05. Rhythm-A-Ning (07:20)
06. Purple Shades (07:40)


Exact Audio Copy V1.0 beta 3 from 29. August 2011

Отчёт EAC об извлечении, выполненном 17. октября 2012, 8:47

Art Blakey & Thelonious Monk / Art Blakey's Jazz Messengers With Thelonious Monk

Дисковод: HL-DT-STBDDVDRW CH10LS20 Adapter: 2 ID: 1

Режим чтения : Достоверность
Использование точного потока : Да
Отключение кэша аудио : Да
Использование указателей C2 : Нет

Коррекция смещения при чтении : 667
Способность читать области Lead-in и Lead-out : Нет
Заполнение пропущенных сэмплов тишиной : Да
Удаление блоков с тишиной в начале и конце : Нет
При вычислениях CRC использовались нулевые сэмплы : Да
Интерфейс : Встроенный Win32-интерфейс для Win NT/2000

Выходной формат : Пользовательский кодировщик
Выбранный битрейт : 128 kBit/s
Качество : Высокий
Добавление ID3-тега : Нет
Утилита сжатия : C:Program FilesExact Audio CopyFLACFLAC.EXE
Дополнительные параметры : -V -8 -T "Date=%year%" -T "Genre=%genre%" %source%


TOC извлечённого CD

Трек | Старт | Длительность | Начальный сектор | Конечный сектор
---------------------------------------------------------------------
1 | 0:00.32 | 6:45.65 | 32 | 30471
2 | 6:46.22 | 6:38.10 | 30472 | 60331
3 | 13:24.32 | 7:52.08 | 60332 | 95739
4 | 21:16.40 | 8:03.07 | 95740 | 131971
5 | 29:19.47 | 7:20.23 | 131972 | 164994
6 | 36:39.70 | 7:40.15 | 164995 | 199509


Характеристики диапазона извлечения и сообщения об ошибках

Выбранный диапазон

Имя файла D:DLArt Blakey's Jazz Messengers With Thelonious MonkArt Blakey & Thelonious Monk - Art Blakey's Jazz Messengers With Thelonious Monk.wav

Пиковый уровень 86.9 %
Скорость извлечения 1.7 X
Качество диапазона 100.0 %
CRC теста 81A92C48
CRC копии 81A92C48
Копирование... OK

Ошибок не произошло


AccurateRip: сводка

Трек 1 точность не определена (достоверность 10) [EF4F3B32], AccurateRip вернул [F09C3094] (AR v2)
Трек 2 точность не определена (достоверность 11) [A28519FF], AccurateRip вернул [211292B0] (AR v2)
Трек 3 точность не определена (достоверность 11) [3225DBE2], AccurateRip вернул [40CF8178] (AR v2)
Трек 4 точность не определена (достоверность 11) [7D629C1B], AccurateRip вернул [2E3D717F] (AR v2)
Трек 5 точность не определена (достоверность 11) [85312208], AccurateRip вернул [AB45B51A] (AR v2)
Трек 6 точность не определена (достоверность 11) [47E646B6], AccurateRip вернул [A2E7599A] (AR v2)

Ни один трек не прошёл проверки на точность
В вашей базе может быть иной вариант штамповки диска

Конец отчёта

==== Контрольная сумма отчёта 5DCB785FCBE85189557F46F30C655F39D118F4BD6E9CA28D0F5BB3BA2E4353FF ====

foobar2000 1.3.8 / Dynamic Range Meter 1.1.1
log date: 2015-05-10 11:56:18

--------------------------------------------------------------------------------
Analyzed: Art Blakey & Thelonious Monk / Art Blakey's Jazz Messengers With Thelonious Monk
--------------------------------------------------------------------------------

DR Peak RMS Duration Track
--------------------------------------------------------------------------------
DR13 -1.41 dB -20.17 dB 6:46 01-Evidence
DR14 -2.36 dB -21.52 dB 6:38 02-In Walked Bud
DR15 -3.02 dB -24.40 dB 7:52 03-Blue Monk
DR14 -2.85 dB -21.73 dB 8:03 04-I Mean You
DR13 -1.21 dB -19.69 dB 7:20 05-Rhythm-A-Ning
DR15 -3.41 dB -23.27 dB 7:40 06-Purple Shades
--------------------------------------------------------------------------------

Number of tracks: 6
Official DR value: DR14

Samplerate: 44100 Hz
Channels: 2
Bits per sample: 16
Bitrate: 749 kbps
Codec: FLAC
================================================================================



All thanks to original releaser - strizh64





Password: designol