Вход в свой аккаунт

Или войдите через соц. сети

Rhythm Logic - Sweet Talk (2000)


Rhythm Logic - Sweet Talk (2000)
EAC Rip | FLAC (Tracks) +CUE, LOG | 400 MB | Covers Included
Jazz | Label: Video Arts | Catalog Number: VACM-1151

“ A self-proclaimed "super group" featuring Michael White and Ron Smith (veteran players noted for time with Frankie Beverly and Maze), Rhythm Logic mines similar territory explored by Fourplay-mostly mid-tempo, synthesizer driven light R&B fare. ”



Exact Audio Copy V1.0 beta 3 from 29. August 2011

EAC extraction logfile from 8. May 2015, 13:16

Rhythm Logic / Sweet Talk

Used drive : ATAPI DVD A DH16A6L-C Adapter: 2 ID: 0

Read mode : Secure
Utilize accurate stream : Yes
Defeat audio cache : Yes
Make use of C2 pointers : No

Read offset correction : 6
Overread into Lead-In and Lead-Out : No
Fill up missing offset samples with silence : Yes
Delete leading and trailing silent blocks : No
Null samples used in CRC calculations : Yes
Used interface : Native Win32 interface for Win NT & 2000
Gap handling : Appended to previous track

Used output format : User Defined Encoder
Selected bitrate : 1024 kBit/s
Quality : High
Add ID3 tag : No
Command line compressor : C:Program FilesFLACflac.exe
Additional command line options : -8 -V -T "ARTIST=%artist%" -T "TITLE=%title%" -T "ALBUM=%albumtitle%" -T "DATE=%year%" -T "TRACKNUMBER=%tracknr%" -T "GENRE=%genre%" -T "PERFORMER=%albuminterpret%" -T "COMPOSER=%composer%" %haslyrics%--tag-from-file=LYRICS="%lyricsfile%"%haslyrics% -T "ALBUMARTIST=%albumartist%" -T "DISCNUMBER=%cdnumber%" -T "TOTALDISCS=%totalcds%" -T "TOTALTRACKS=%numtracks%" -T "COMMENT=%comment%" %source% -o %dest%


TOC of the extracted CD

Track | Start | Length | Start sector | End sector
---------------------------------------------------------
1 | 0:00.00 | 4:03.55 | 0 | 18279
2 | 4:03.55 | 5:16.25 | 18280 | 42004
3 | 9:20.05 | 5:20.07 | 42005 | 66011
4 | 14:40.12 | 5:47.60 | 66012 | 92096
5 | 20:27.72 | 5:25.10 | 92097 | 116481
6 | 25:53.07 | 4:31.63 | 116482 | 136869
7 | 30:24.70 | 3:56.12 | 136870 | 154581
8 | 34:21.07 | 5:08.38 | 154582 | 177719
9 | 39:29.45 | 5:04.02 | 177720 | 200521
10 | 44:33.47 | 6:36.60 | 200522 | 230281


Track 1

Filename H:..................00Rhythm Logic • Rhythm Logic (1999)1 - Drunk On Love.wav

Pre-gap length 0:00:02.00

Peak level 99.0 %
Extraction speed 3.3 X
Track quality 100.0 %
Test CRC 278404CA
Copy CRC 278404CA
Cannot be verified as accurate (confidence 2) [D90B694A], AccurateRip returned [2986A129] (AR v2)
Copy OK

Track 2

Filename H:..................00Rhythm Logic • Rhythm Logic (1999)2 - Rhythm Method.wav

Pre-gap length 0:00:00.35

Peak level 99.1 %
Extraction speed 3.8 X
Track quality 100.0 %
Test CRC 391B0631
Copy CRC 391B0631
Cannot be verified as accurate (confidence 2) [A33CA41F], AccurateRip returned [DC616DAB] (AR v2)
Copy OK

Track 3

Filename H:..................00Rhythm Logic • Rhythm Logic (1999)3 - Midnight Conversations.wav

Pre-gap length 0:00:00.35

Peak level 99.0 %
Extraction speed 4.2 X
Track quality 100.0 %
Test CRC 19E075F0
Copy CRC 19E075F0
Cannot be verified as accurate (confidence 2) [EF2F87D2], AccurateRip returned [F7FF0D04] (AR v2)
Copy OK

Track 4

Filename H:..................00Rhythm Logic • Rhythm Logic (1999)4 - Sweet Talk.wav

Pre-gap length 0:00:01.45

Peak level 99.1 %
Extraction speed 4.1 X
Track quality 99.9 %
Test CRC 4ACC5ABD
Copy CRC 4ACC5ABD
Cannot be verified as accurate (confidence 2) [1F4A1981], AccurateRip returned [7ED6D1AD] (AR v2)
Copy OK

Track 5

Filename H:..................00Rhythm Logic • Rhythm Logic (1999)5 - If Only You Knew.wav

Pre-gap length 0:00:00.70

Peak level 99.2 %
Extraction speed 2.6 X
Track quality 99.8 %
Test CRC A73F761F
Copy CRC A73F761F
Cannot be verified as accurate (confidence 2) [DC96CE09], AccurateRip returned [F9469841] (AR v2)
Copy OK

Track 6

Filename H:..................00Rhythm Logic • Rhythm Logic (1999)6 - Brooklyn Breezes.wav

Pre-gap length 0:00:00.62

Peak level 99.1 %
Extraction speed 3.1 X
Track quality 99.8 %
Test CRC B40EA486
Copy CRC B40EA486
Cannot be verified as accurate (confidence 2) [D9C9B9A8], AccurateRip returned [35D73CA3] (AR v2)
Copy OK

Track 7

Filename H:..................00Rhythm Logic • Rhythm Logic (1999)7 - Night Fever.wav

Pre-gap length 0:00:01.43

Peak level 99.0 %
Extraction speed 3.4 X
Track quality 99.9 %
Test CRC ABC8D524
Copy CRC ABC8D524
Cannot be verified as accurate (confidence 2) [4B110584], AccurateRip returned [15E0DDCF] (AR v2)
Copy OK

Track 8

Filename H:..................00Rhythm Logic • Rhythm Logic (1999)8 - Call Me Tonight.wav

Pre-gap length 0:00:01.10

Peak level 99.0 %
Extraction speed 3.9 X
Track quality 99.9 %
Test CRC A9696F5F
Copy CRC A9696F5F
Cannot be verified as accurate (confidence 2) [C073CD45], AccurateRip returned [CD2248BA] (AR v2)
Copy OK

Track 9

Filename H:..................00Rhythm Logic • Rhythm Logic (1999)9 - There For You.wav

Pre-gap length 0:00:01.13

Peak level 99.0 %
Extraction speed 3.1 X
Track quality 99.7 %
Test CRC 3D6C194F
Copy CRC 3D6C194F
Cannot be verified as accurate (confidence 2) [6D34F0C0], AccurateRip returned [E9A026E2] (AR v2)
Copy OK

Track 10

Filename H:..................00Rhythm Logic • Rhythm Logic (1999)10 - From The Hip.wav

Pre-gap length 0:00:01.00

Peak level 99.0 %
Extraction speed 6.4 X
Track quality 100.0 %
Test CRC 4F02F8FB
Copy CRC 4F02F8FB
Cannot be verified as accurate (confidence 2) [D2CD981E], AccurateRip returned [20F37D3C] (AR v2)
Copy OK


No tracks could be verified as accurate
You may have a different pressing from the one(s) in the database

No errors occurred

End of status report

==== Log checksum 946A87F4760D265E56B284F34E13C94E8AE819B4321A4EDEAEC62BC40AA3744C ====


Tracklist:
01. Drunk On Love
02. Rhythm Method
03. Midnight Conversation
04. Sweet Talk
05. If Only You Knew
06. Brooklyn Breezes
07. Night Fever
08. Call Me Tonight
09. There For You
10. From The Hip