Goblin - Phenomena: The Complete Original Instrumental Sound Track Album (1985) Expanded CD Issue 1997


Goblin - Phenomena: The Complete Original Instrumental Sound Track Album (1985) Expanded CD Issue 1997
EAC | FLAC | Image (Cue&Log) ~ 323 Mb (incl 5%) | Mp3 (CBR320) ~ 156 Mb (incl 5%) | Scans included
Genre: Soundtrack, Score, Electronic, Prog-Rock | Label: Cinevox | # CD MDF 303 | Time: 00:52:33

1997 CD issue of the Italian Prog Rock band's soundtrack to director Dario Argento's 1985 horror masterpiece including 11 bonus tracks. Best known for their work on horror film soundtracks like 1979's Dawn Of The Dead, Goblin's work on Argento's films are often cited as their best.


This soundtrack to one of Dario Argento's films has always been one of my favorite scores from Goblin (at this point, Claudio Simonetti and Fabio Pignatelli). The title track builds off of the darkly new wave-ish feel in Tenebre utilizing an uncredited female vocal to great effect and also shows a unexpectedly tender side (with "Jennifer" and "Jennifer's Friend") you wouldn't think possible coming from them. And although there are only five original tracks collectively (not counting the alternate takes), not a moment is wasted, not even "The Wind", basically an effects track which reeks of atmosphere. All in all, a fantastic score.

There also is the 1987 Cinevox/Ciak CD of Phenomena, with the additional tracks by Iron Maiden, Simon Boswell, Andi Sex Gang, Bill Wyman/Terry Taylor, and Motorhead which have most (but not all) of the movie's selections. Personally I prefer this "complete Goblin original instrumental sound track album" edition CD over the older one, but if you want to eliminate the alternate takes and have the additional artists' compositions, then I recommend getting the Ciak CD if you can find it. The sound quality is very good, comparable to this release.

Hope I've kept it "real" enough for ya!!!;)
Keep the peace.

Review by John Peterson, Amazon.com









Tracklist:

01. Phenomena (04:26)
02. Jennifer (03:53)
03. The Wind (01:18)
04. Sleepwalking (03:51)
05. Jennifer's Friends (03:29)
06. Phenomena (Film Version 1) (01:25)
07. Phenomena (Film Version 2) (01:55)
08. Phenomena (Piano Solo - Film Version 3) (01:00)
09. Sleepwalking (Alternative Version) (03:55)
10. The Wind (Film Version Suite 1) (02:34)
11. The Wind ('Insects' - Film Version Suite 2) (06:57)
12. Jennifer's Friends (Alternative Version) (03:29)
13. Jennifer (End Titles) (04:50)
14. Monster Child (SPFX Bonus Track 1) (02:07)
15. Phenomena (Video Clip Version - Bonus Track 2) (04:07)
16. Phenomena (Alternative Version - Bonus Track 3) (03:09)


Exact Audio Copy V0.99 prebeta 3 from 28. July 2007

Отчёт EAC об извлечении, выполненном 25. мая 2009, 15:19

Goblin / Phenomena

Дисковод: _NEC DV-5800E Adapter: 1 ID: 0

Режим чтения : Достоверность
Использование точного потока : Да
Отключение кэша аудио : Да
Использование указателей C2 : Нет

Коррекция смещения при чтении : 6
Способность читать области Lead-in и Lead-out : Нет
Заполнение пропущенных сэмплов тишиной : Да
Удаление блоков с тишиной в начале и конце : Нет
При вычислениях CRC использовались нулевые сэмплы : Нет
Интерфейс : Установленный внешний ASPI-интерфейс

Выходной формат : Внутренние WAV-операции
Формат сэмплов : 44.100 Гц; 16 бит; стерео


TOC извлечённого CD

Трек | Старт | Длительность | Начальный сектор | Конечный сектор
---------------------------------------------------------------------
1 | 0:00.00 | 4:26.10 | 0 | 19959
2 | 4:26.10 | 3:53.18 | 19960 | 37452
3 | 8:19.28 | 1:18.01 | 37453 | 43303
4 | 9:37.29 | 3:51.16 | 43304 | 60644
5 | 13:28.45 | 3:29.25 | 60645 | 76344
6 | 16:57.70 | 1:25.16 | 76345 | 82735
7 | 18:23.11 | 1:55.72 | 82736 | 91432
8 | 20:19.08 | 1:00.65 | 91433 | 95997
9 | 21:19.73 | 3:55.66 | 95998 | 113688
10 | 25:15.64 | 2:34.65 | 113689 | 125303
11 | 27:50.54 | 6:57.17 | 125304 | 156595
12 | 34:47.71 | 3:29.41 | 156596 | 172311
13 | 38:17.37 | 4:50.39 | 172312 | 194100
14 | 43:08.01 | 2:07.33 | 194101 | 203658
15 | 45:15.34 | 4:07.61 | 203659 | 222244
16 | 49:23.20 | 3:09.32 | 222245 | 236451


Характеристики диапазона извлечения и сообщения об ошибках

Выбранный диапазон

Имя файла U:Goblin - PhenomenaGoblin - Phenomena.wav

Пиковый уровень 94.8 %
Качество диапазона 100.0 %
CRC копии 707A3CA2
Копирование... OK

Ошибок не произошло


AccurateRip: сводка

Трек 1 точное извлечение (доверие 5) [F149C3C3]
Трек 2 точное извлечение (доверие 5) [54721CAE]
Трек 3 точное извлечение (доверие 5) [25AC7652]
Трек 4 точное извлечение (доверие 5) [B58FD05C]
Трек 5 точное извлечение (доверие 5) [5D983B15]
Трек 6 точное извлечение (доверие 5) [F7F1D02F]
Трек 7 точное извлечение (доверие 5) [3705E9C2]
Трек 8 точное извлечение (доверие 5) [8EF7807D]
Трек 9 точное извлечение (доверие 5) [A257785A]
Трек 10 точное извлечение (доверие 5) [E5923C1E]
Трек 11 точное извлечение (доверие 5) [885F716D]
Трек 12 точное извлечение (доверие 5) [CE13ADD0]
Трек 13 точное извлечение (доверие 5) [7897641B]
Трек 14 точное извлечение (доверие 5) [D89C17FB]
Трек 15 точное извлечение (доверие 5) [0062C3B2]
Трек 16 точное извлечение (доверие 5) [33E42E24]

Все треки извлечены точно

Конец отчёта

[CUETools log; Date: 11.05.2015 0:03:38; Version: 2.1.5]
[CTDB TOCID: qB8nrEfu1XArbwV6qCrC1pJp700-] found.
Track | CTDB Status
1 | (5/5) Accurately ripped
2 | (5/5) Accurately ripped
3 | (5/5) Accurately ripped
4 | (5/5) Accurately ripped
5 | (5/5) Accurately ripped
6 | (5/5) Accurately ripped
7 | (5/5) Accurately ripped
8 | (5/5) Accurately ripped
9 | (5/5) Accurately ripped
10 | (5/5) Accurately ripped
11 | (5/5) Accurately ripped
12 | (5/5) Accurately ripped
13 | (5/5) Accurately ripped
14 | (5/5) Accurately ripped
15 | (5/5) Accurately ripped
16 | (5/5) Accurately ripped
[AccurateRip ID: 001d7bc8-0162abd6-d80c5010] found.
Track [ CRC | V2 ] Status
01 [f149c3c3|36971915] (10+04/14) Accurately ripped
02 [54721cae|b4802faf] (10+04/14) Accurately ripped
03 [25ac7652|c8242ebc] (10+04/14) Accurately ripped
04 [b58fd05c|c84b2d20] (10+04/14) Accurately ripped
05 [5d983b15|2c1afbe7] (10+04/14) Accurately ripped
06 [f7f1d02f|6b7b0533] (10+04/14) Accurately ripped
07 [3705e9c2|a5207e99] (10+04/14) Accurately ripped
08 [8ef7807d|240bddbf] (10+04/14) Accurately ripped
09 [a257785a|096b0902] (10+04/14) Accurately ripped
10 [e5923c1e|cc2e5a90] (10+04/14) Accurately ripped
11 [885f716d|f406366b] (10+04/14) Accurately ripped
12 [ce13add0|45803ff2] (10+04/14) Accurately ripped
13 [7897641b|ea6e3208] (10+04/14) Accurately ripped
14 [d89c17fb|3478fa43] (10+04/14) Accurately ripped
15 [0062c3b2|95963fc8] (10+04/14) Accurately ripped
16 [33e42e24|275fae3a] (10+04/14) Accurately ripped

Track Peak [ CRC32 ] [W/O NULL] [ LOG ]
-- 94,8 [30E2C4A6] [707A3CA2] W/O NULL
01 61,3 [9C273770] [2D99D904]
02 47,0 [DEDD6325] [365B3EAC]
03 45,3 [21B122FA] [DC32E87D]
04 68,7 [086C6F78] [C3755EBE]
05 51,3 [8378A0FD] [B7666A75]
06 55,1 [83E703F9] [9A79F561]
07 70,0 [850BBB2F] [A2A8AAEA]
08 56,2 [BEB5ECAA] [897C776E]
09 79,3 [39A057FB] [2CBBC3E7]
10 76,4 [3D3CBE65] [89A6F135]
11 86,2 [CBD5AC3C] [FA901961]
12 69,2 [239B2A6B] [8442FD20]
13 94,2 [61666B2D] [C684A655]
14 94,8 [9A525D26] [4F5AE707]
15 50,8 [1872A01F] [6F5E6A5B]
16 41,8 [6D98ED36] [BD51C5C9]

foobar2000 1.3.8 / Dynamic Range Meter 1.1.1
log date: 2015-05-11 00:14:39

--------------------------------------------------------------------------------
Analyzed: Goblin / Phenomena
--------------------------------------------------------------------------------

DR Peak RMS Duration Track
--------------------------------------------------------------------------------
DR13 -4.25 dB -21.57 dB 4:26 01-Phenomena
DR12 -6.55 dB -23.21 dB 3:53 02-Jennifer
DR14 -6.88 dB -23.91 dB 1:18 03-The Wind
DR15 -3.25 dB -22.28 dB 3:51 04-Sleepwalking
DR13 -5.80 dB -22.63 dB 3:29 05-Jennifer's Friends
DR10 -5.16 dB -19.24 dB 1:25 06-Phenomena (Film Version 1)
DR9 -3.10 dB -16.89 dB 1:56 07-Phenomena (Film Version 2)
DR15 -5.00 dB -26.08 dB 1:01 08-Phenomena (Piano Solo - Film Version 3)
DR14 -2.01 dB -18.29 dB 3:56 09-Sleepwalking (Alternative Version)
DR13 -2.33 dB -17.53 dB 2:35 10-The Wind (Film Version Suite 1)
DR10 -1.28 dB -16.72 dB 6:57 11-The Wind ('Insects' - Film Version Suite 2)
DR15 -3.20 dB -21.10 dB 3:30 12-Jennifer's Friends (Alternative Version)
DR12 -0.51 dB -15.64 dB 4:51 13-Jennifer (End Titles)
DR13 -0.46 dB -18.66 dB 2:07 14-Monster Child (SPFX Bonus Track 1)
DR12 -5.87 dB -21.03 dB 4:08 15-Phenomena (Video Clip Version - Bonus Track 2)
DR12 -7.56 dB -22.35 dB 3:09 16-Phenomena (Alternative Version - Bonus Track 3)
--------------------------------------------------------------------------------

Number of tracks: 16
Official DR value: DR13

Samplerate: 44100 Hz
Channels: 2
Bits per sample: 16
Bitrate: 742 kbps
Codec: FLAC
================================================================================



All thanks to original releaser - eichentarn





Password: designol