Charles Mingus - Kind of Mingus (2009) 10 CD Box Set


Charles Mingus - Kind of Mingus (2009) 10 CD Box Set
EAC | APE | Image (Cue&Log) ~ 1.96 Gb (incl 5%) | Mp3 (CBR320) ~ 1.15 Gb (incl 5%) | Scans ~ 62 Mb
Genre: Avant-Garde Jazz, Hard Bop, Post Bop | Label: House Of Jazz/T2 Entertainment | # 220120 | Time: 08:03:52

2009 exclusive 53-tracks 10-CD album set, offering a fine selection of recordings from the legendary jazz bassist, spanning the period 1954 to '64; presented in sealed clamshell box.


Most of the discs contain performances and recordings clustered around the mid-to-late 1950s, although the first three discs contain some exceptional live performances from the 1964 European Tour. Personally I think the distribution of material chronicles Mingus' development during the 1950s, using the 1964 performances as both a pivot point and a foreshadowing of his later career. Unlike other musicians whose evolution is usually gradual and subtle, the work in this set shows abrupt spurts of creativity and evolution that are anything but subtle - although in my opinion they are indications of towering genius. I am given to gushing and hyperbole when it comes to Mingus, so factor that in as you read through this review.

How does it compare to 5 Classic Albums? Only Disc Six in this set shares a substantial number of tracks with one of the albums in that set. Still, there are not many shared tracks making both of them valuable to anyone who wants to quickly build a library of some of Mingus' better and lesser known works.

A word about sound quality: in a word it's adequate. By that I mean that it is not some poorly done 'needle drop' from scratchy LPs. On the other hand, no special care seems to have been taken to remaster the discs. To my ears all of the tracks are as good as any decent MP3 track, which by its nature is going to have some loss of fidelity, but still a pleasure to listen. Audiophiles, on the other hand, will not like them.

I have linked to applicable albums that are contained in this set, as well as providing background information that I was able to track down regarding recording dates and personnel. The linked albums will take you to product pages that contain sound samples as well as reviews of the individual albums. I have also provided a complete track list for each disc in a comment to this review so you can see exactly what you will be getting. Here is what is in the set:

DISCs ONE, TWO and THREE contain live recordings from the 1964 European Tour's April 1964 dates in Stuttgart, Germany. You can listen to the tracks on Disc Three on the product page for this album: Live in Stuttgart! 1964. Personnel are Mingus and Dannie Richmond holding down the rhythm section (along with Jaki Byard on Piano), with Eric Dolphy on alto sax, bass clarinet and flute, and Clifford Jordan on tenor sax. Dolphy would be dead in less than two months after these performances - under controversial circumstances - in Berlin. One of the finest video performances of Mingus' line-up during this tour is also from April 1964 on Jazz Icons: Charles Mingus Live in '64

DISC FOUR is the four tracks that comprised the original release of The Clown, plus a bonus track titled Blue Greens. The original tracks were recorded at Atlantic's studios on February 13 and March 12, 1957 and released the same year. Personnel on the original album were Mingus backed by Jimmy Knepper on trombone, Shafi Hadi on tenor sax, Wade Legge on piano and Dannie Richmond on drums. Jean Shepherd narrates on The Clown. The additional track is from a 1957 album titled A Word from Bird that was lead by vibraphonist Teddy Charles who is backed by Mingus as a sideman, Hall Overton on piano and Ed Shaughnessy on drums.

DISC FIVE is a continuation of the previous disc in that the first two tracks are from the Clown sessions with the same personnel, dates and locations. The next three tracks are from the album titled A Word from Bird (again, the same personnel as mentioned for that album above.) This disc also contains tracks from sessions mentioned on Discs Eight and Ten in this set. Specifically, track 6 is from the same sessions that resulted in the tracks on Disc Eight and track 7 is from the Trio recording sessions comprising Disc Ten.

DISC SIX contains most of the tracks from the album titled A Modern Jazz Symposium of Music and Poetry that was recorded in October 1957 for Bethlehem. Mingus on bass and Dannie Richmond on drums are the core rhythm section who are backed by Bob Hammer on piano (except Dukes Choice, which features Horace Parlan), Jimmy Knepper on trombone, Shafi Hadi on tenor and alto saxophones, and Clarence Shaw on Trumpet. Melvin Stewart narrates Scenes in the City.

DISC SEVEN this disc contains the six original tracks released 1955 as Jazzical Moods. The recordings were done in December 1954 for Bethlehem. The reissue album to which I linked has an additional track titled Abstractions. Musicians: Mingus is backed by Thad Jones on trumpet on What is This Thing Called Love, Minor Intrusion, Stormy Weather and Spur of the Moment. John LaPorta is on clarinet and alto sax, Teo Macero on tenor sax, and Clem DeRosa on drums. Jackson Wiley is on cello on What is This Thing Called Love, Minor Intrusion and Stormy Weather. Mingus plays piano on Four Hands, and Thad Jones was listed on the original album as Oliver King (a play on the great King Oliver).

DISC EIGHT is [almost] the seminal 1956 album titled Pithecanthropus Erectus (it is missing Profile of Jackie, but compensates with additional tracks.) The first three tracks are from that four-track album, which was recorded for Atlantic in NY on January 30, 1956. Personnel on those tracks are Mingus backed by Jackie McLean on alto saxophone, J. R. Monterose on tenor saxophone, Mal Waldron on piano and Willie Jones on drums. The remaining tracks are from a 1855 album titled The Charles Mingus Qunitet & Max Roach, which featured both Max Roach and Willie Jones on drums. Willie Jones is the drummer on the tracks on this disc. The rest of the line-up is Mingus on bass, Mal Waldron on piano, Eddie Bert on trombone and George Barrow on tenor saxophone.

DISC NINE contains the five original tracks from the album titled Tijuana Moods, plus an additional track titled A Colloquial Dream that is also known as Scenes in the City. This album is one every Mingus fan should own. It was recorded in NY for RCA on July 18 and August 6, 1957, and released in 1962. Mingus is backed by Jimmy Knepper on trombone, Curtis Porter on alto sax, Clarence Shaw on trumpet, Bill Triglia on piano and Dannie Richmond on drums. Additional percussion by Frankie Dunlop and Ysabel Morel. Melvin Stewart performs the spoken narrative on A Colloquial Dream.

DISC TEN is the 1957 album titled Mingus Three that was originally recorded for Jubilee in NY on July 9, 1957. The line-up is Mingus, Hampton Hawes on piano and Dannie Richmond on drums.

Please see the comment to this review below for the complete track list for each disc.

Review by Mike Tarrani, Amazon.com






Tracklist:

CD 1 - Live In Stuttgart 1964 Vol. 1:

01. So Long Eric (28:08)
02. Orange Was The Colour Of Her Hair (12:49)
03. These Foolish Things (02:53)

CD 2 - Live In Stuttgart 1964 Vol. 2:

01. Peggyis Blue Skylight (19:22)
02. Meditations (29:16)

CD 3 - Live In Stuttgart 1964 Vol. 3:

01. ATFW USA (03:46)
02. Sophisticated Lady (04:04)
03. Fables Of Fabius Pt 1 & 2 (40:54)

CD 4 - Blue Cee, 1956-1957 NYC, USA:

01. The Clown (12:09)
02. Blue Cee (07:53)
03. Reincarnation Of A Lovebird (08:34)
04. Haitian Fight Song (12:03)
05. Blue Greens (11:41)

CD 5 - Passions Of A Woman, 1955-1957:

01. Tonight At Noon (05:59)
02. Passions Of A Woman Loved (04:51)
03. Laura (09:46)
04. When Your Lover Has Gone (09:47)
05. Just One Of Those Things (05:04)
06. Profile Of Jackie (02:30)
07. Yesterday (06:10)
08. All The Things You C# (07:56)

CD 6 - New York Sketchbook, 1957 NYC, USA:

01. New York Sketchbook (08:26)
02. Scenes In The City (11:17)
03. 51st Street Blues (05:48)
04. Conversation (05:27)
05. Duke's Choice (06:22)
06. Celia (07:49)

CD 7 - Thrice Upon A Theme, 1954-1955 NYC, USA:

01. Thrice Upon A Theme (06:35)
02. Minor Intrusions (10:07)
03. Percussion Discussion (08:30)
04. Septemberly (07:01)
05. What Is This Thing Called Love (08:01)
06. Spur Of The Moment (08:31)
07. Four Hands (08:44)

CD 8 - Jump Monk, 1955-1956 NYC, USA:

01. Pithecanthropus Erectus (10:36)
02. Love Chant (14:58)
03. A Foggy Day (05:26)
04. Jump Monk (06:51)
05. Serenade In Blue (06:05)
06. Work Song (06:26)

CD 9 - Dizzy Moods, 1957 NYC, USA:

01. Los Mariachis (10:24)
02. Dizzy Moods (05:52)
03. A Colloquial Dream (10:59)
04. Flamingo (05:35)
05. Tijuana Gift Shop (03:48)
06. Ysabel's Table Dance (10:27)

CD 10 - Trio, 1957 NYC, USA:

01. Laura (06:30)
02. Yesterday's (04:10)
03. Summertime (04:35)
04. I Can't Get Started (06:27)
05. Dizzy Moods (06:49)
06. Hamp's New Blues (03:50)
07. Back Home Blues (05:25)


Exact Audio Copy V0.99 prebeta 4 from 23. January 2008

Отчёт EAC об извлечении, выполненном 21. мая 2010, 21:29

Charles Mingus / Live In Stuttgart 1964 Vol. 1

Дисковод: Optiarc DVD RW AD-7200A Adapter: 3 ID: 1

Режим чтения : Достоверность
Использование точного потока : Да
Отключение кэша аудио : Да
Использование указателей C2 : Нет

Коррекция смещения при чтении : 48
Способность читать области Lead-in и Lead-out : Нет
Заполнение пропущенных сэмплов тишиной : Да
Удаление блоков с тишиной в начале и конце : Нет
При вычислениях CRC использовались нулевые сэмплы : Да
Интерфейс : Установленный внешний ASPI-интерфейс

Выходной формат : Внутренние WAV-операции
Формат сэмплов : 44.100 Гц; 16 бит; стерео


TOC извлечённого CD

Трек | Старт | Длительность | Начальный сектор | Конечный сектор
---------------------------------------------------------------------
1 | 0:00.00 | 28:08.60 | 0 | 126659
2 | 28:08.60 | 12:49.42 | 126660 | 184376
3 | 40:58.27 | 2:53.64 | 184377 | 197415


Характеристики диапазона извлечения и сообщения об ошибках

Выбранный диапазон

Имя файла E:Up-DownCharles Mingus - King of MingusCD 1. Live In Stuttgart 1964 Vol. 1Charles Mingus - Live In Stuttgart 1964 Vol. 1.wav

Пиковый уровень 98.2 %
Качество диапазона 100.0 %
CRC копии 599DFA51
Копирование... OK

Ошибок не произошло


AccurateRip: сводка

Трек 1 точное извлечение (доверие 1) [908CC2B9]
Трек 2 точное извлечение (доверие 1) [B2FD6473]
Трек 3 точное извлечение (доверие 1) [E518F6D0]

Все треки извлечены точно

Конец отчёта

[CUETools log; Date: 14.05.2015 17:57:38; Version: 2.1.5]
[CTDB TOCID: N0KiI25zO7jLKlAbYZRwb.Hw57s-] found.
Track | CTDB Status
1 | (1/1) Accurately ripped
2 | (1/1) Accurately ripped
3 | (1/1) Accurately ripped
[AccurateRip ID: 0007c225-00185ad4-1e0a4803] found.
Track [ CRC | V2 ] Status
01 [908cc2b9|ff2c15bc] (0+3/3) Accurately ripped
02 [b2fd6473|fc28a7ef] (0+3/3) Accurately ripped
03 [e518f6d0|873a52c1] (0+3/3) Accurately ripped

Track Peak [ CRC32 ] [W/O NULL] [ LOG ]
-- 98,2 [599DFA51] [7AAB34CA] CRC32
01 98,2 [ABD9079C] [4508D604]
02 97,5 [895AD44D] [D8985942]
03 70,8 [E252773E] [A9B0DBCC]

foobar2000 1.3.8 / Dynamic Range Meter 1.1.1
log date: 2015-05-14 17:27:05

--------------------------------------------------------------------------------
Analyzed: Charles Mingus / Live In Stuttgart 1964 Vol. 1
--------------------------------------------------------------------------------

DR Peak RMS Duration Track
--------------------------------------------------------------------------------
DR11 -0.15 dB -13.57 dB 28:09 01-So Long Eric
DR13 -0.21 dB -15.90 dB 12:50 02-Orange Was The Colour Of Her Hair
DR8 -3.00 dB -15.81 dB 2:54 03-These Foolish Things
--------------------------------------------------------------------------------

Number of tracks: 3
Official DR value: DR11

Samplerate: 44100 Hz
Channels: 2
Bits per sample: 16
Bitrate: 514 kbps
Codec: Monkey's Audio
================================================================================


Exact Audio Copy V0.99 prebeta 4 from 23. January 2008

Отчёт EAC об извлечении, выполненном 21. мая 2010, 21:09

Charles Mingus / Live In Stuttgart 1964 Vol. 2

Дисковод: Optiarc DVD RW AD-7200A Adapter: 3 ID: 1

Режим чтения : Достоверность
Использование точного потока : Да
Отключение кэша аудио : Да
Использование указателей C2 : Нет

Коррекция смещения при чтении : 48
Способность читать области Lead-in и Lead-out : Нет
Заполнение пропущенных сэмплов тишиной : Да
Удаление блоков с тишиной в начале и конце : Нет
При вычислениях CRC использовались нулевые сэмплы : Да
Интерфейс : Установленный внешний ASPI-интерфейс

Выходной формат : Внутренние WAV-операции
Формат сэмплов : 44.100 Гц; 16 бит; стерео


TOC извлечённого CD

Трек | Старт | Длительность | Начальный сектор | Конечный сектор
---------------------------------------------------------------------
1 | 0:00.00 | 19:22.54 | 0 | 87203
2 | 19:22.54 | 29:16.52 | 87204 | 218955


Характеристики диапазона извлечения и сообщения об ошибках

Выбранный диапазон

Имя файла E:Up-DownCharles Mingus - King of MingusCD 2. Live In Stuttgart 1964 Vol. 2Charles Mingus - Live In Stuttgart 1964 Vol. 2.wav

Пиковый уровень 97.5 %
Качество диапазона 100.0 %
CRC копии 09245F87
Копирование... OK

Ошибок не произошло


AccurateRip: сводка

Трек 1 точное извлечение (доверие 1) [E5CBAB03]
Трек 2 точное извлечение (доверие 1) [71351F3D]

Все треки извлечены точно

Конец отчёта

[CUETools log; Date: 14.05.2015 18:01:37; Version: 2.1.5]
[CTDB TOCID: LqObhjDv.GVxq6yFLgnnQlhE730-] found.
Track | CTDB Status
1 | (1/1) Accurately ripped
2 | (1/1) Accurately ripped
[AccurateRip ID: 0004abf0-000caf2d-0e0b6702] found.
Track [ CRC | V2 ] Status
01 [e5cbab03|d2aa6c8b] (0+4/4) Accurately ripped
02 [71351f3d|ff2977f4] (0+4/4) Accurately ripped

Track Peak [ CRC32 ] [W/O NULL] [ LOG ]
-- 97,5 [09245F87] [748C6473] CRC32
01 97,5 [080DA4A0] [D468A1C4]
02 97,5 [F0C274BD] [802636F9]

foobar2000 1.3.8 / Dynamic Range Meter 1.1.1
log date: 2015-05-14 17:33:09

--------------------------------------------------------------------------------
Analyzed: Charles Mingus / Live In Stuttgart 1964 Vol. 2
--------------------------------------------------------------------------------

DR Peak RMS Duration Track
--------------------------------------------------------------------------------
DR10 -0.21 dB -12.21 dB 19:23 01-Peggyis Blue Skylight
DR10 -0.21 dB -14.54 dB 29:17 02-Meditations
--------------------------------------------------------------------------------

Number of tracks: 2
Official DR value: DR10

Samplerate: 44100 Hz
Channels: 2
Bits per sample: 16
Bitrate: 571 kbps
Codec: Monkey's Audio
================================================================================


Exact Audio Copy V0.99 prebeta 4 from 23. January 2008

Отчёт EAC об извлечении, выполненном 21. мая 2010, 21:46

Charles Mingus / Live In Stuttgart 1964 Vol. 3

Дисковод: Optiarc DVD RW AD-7200A Adapter: 3 ID: 1

Режим чтения : Достоверность
Использование точного потока : Да
Отключение кэша аудио : Да
Использование указателей C2 : Нет

Коррекция смещения при чтении : 48
Способность читать области Lead-in и Lead-out : Нет
Заполнение пропущенных сэмплов тишиной : Да
Удаление блоков с тишиной в начале и конце : Нет
При вычислениях CRC использовались нулевые сэмплы : Да
Интерфейс : Установленный внешний ASPI-интерфейс

Выходной формат : Внутренние WAV-операции
Формат сэмплов : 44.100 Гц; 16 бит; стерео


TOC извлечённого CD

Трек | Старт | Длительность | Начальный сектор | Конечный сектор
---------------------------------------------------------------------
1 | 0:00.00 | 3:46.68 | 0 | 17017
2 | 3:46.68 | 4:04.05 | 17018 | 35322
3 | 7:50.73 | 40:54.27 | 35323 | 219399


Характеристики диапазона извлечения и сообщения об ошибках

Выбранный диапазон

Имя файла E:Up-DownCharles Mingus - King of MingusCD 3. Live In Stuttgart 1964 Vol. 3Charles Mingus - Live In Stuttgart 1964 Vol. 3.wav

Пиковый уровень 97.7 %
Качество диапазона 100.0 %
CRC копии 12114064
Копирование... OK

Ошибок не произошло


AccurateRip: сводка

Трек 1 точное извлечение (доверие 1) [D3F7A598]
Трек 2 точное извлечение (доверие 1) [5FC4D895]
Трек 3 точное извлечение (доверие 1) [F08A0CF9]

Все треки извлечены точно

Конец отчёта

[CUETools log; Date: 14.05.2015 18:05:41; Version: 2.1.5]
[CTDB TOCID: TMg8WNAFwyH0V6Rw4qdxULqW1fA-] found.
Track | CTDB Status
1 | (1/1) Accurately ripped
2 | (1/1) Accurately ripped
3 | (1/1) Accurately ripped
[AccurateRip ID: 0004257d-000f8706-1b0b6d03] found.
Track [ CRC | V2 ] Status
01 [d3f7a598|2c343c7c] (0+4/4) Accurately ripped
02 [5fc4d895|12b117fa] (0+4/4) Accurately ripped
03 [f08a0cf9|ca154cab] (0+4/4) Accurately ripped

Track Peak [ CRC32 ] [W/O NULL] [ LOG ]
-- 97,7 [12114064] [62B91D78] CRC32
01 81,9 [EB9A79B6] [2387D5BC]
02 95,6 [D35980AA] [C9AA23FC]
03 97,7 [7F0D1BF1] [6D0B8F92]

foobar2000 1.3.8 / Dynamic Range Meter 1.1.1
log date: 2015-05-14 17:36:15

--------------------------------------------------------------------------------
Analyzed: Charles Mingus / Live In Stuttgart 1964 Vol. 3
--------------------------------------------------------------------------------

DR Peak RMS Duration Track
--------------------------------------------------------------------------------
DR11 -1.73 dB -15.81 dB 3:47 01-ATFW USA
DR16 -0.39 dB -19.29 dB 4:04 02-Sophisticated Lady
DR9 -0.20 dB -11.86 dB 40:54 03-Fables Of Fabius Pt 1 & 2
--------------------------------------------------------------------------------

Number of tracks: 3
Official DR value: DR12

Samplerate: 44100 Hz
Channels: 2
Bits per sample: 16
Bitrate: 382 kbps
Codec: Monkey's Audio
================================================================================


Exact Audio Copy V0.99 prebeta 4 from 23. January 2008

Отчёт EAC об извлечении, выполненном 21. мая 2010, 22:04

Chales Mingus / Blue Cee

Дисковод: Optiarc DVD RW AD-7200A Adapter: 3 ID: 1

Режим чтения : Достоверность
Использование точного потока : Да
Отключение кэша аудио : Да
Использование указателей C2 : Нет

Коррекция смещения при чтении : 48
Способность читать области Lead-in и Lead-out : Нет
Заполнение пропущенных сэмплов тишиной : Да
Удаление блоков с тишиной в начале и конце : Нет
При вычислениях CRC использовались нулевые сэмплы : Да
Интерфейс : Установленный внешний ASPI-интерфейс

Выходной формат : Внутренние WAV-операции
Формат сэмплов : 44.100 Гц; 16 бит; стерео


TOC извлечённого CD

Трек | Старт | Длительность | Начальный сектор | Конечный сектор
---------------------------------------------------------------------
1 | 0:00.00 | 12:09.30 | 0 | 54704
2 | 12:09.30 | 7:53.63 | 54705 | 90242
3 | 20:03.18 | 8:34.48 | 90243 | 128840
4 | 28:37.66 | 12:03.20 | 128841 | 183085
5 | 40:41.11 | 11:41.49 | 183086 | 235709


Характеристики диапазона извлечения и сообщения об ошибках

Выбранный диапазон

Имя файла E:Up-DownCharles Mingus - King of MingusCD 4. Blue CeeChales Mingus - Blue Cee.wav

Пиковый уровень 100.0 %
Качество диапазона 100.0 %
CRC копии 639E1B2D
Копирование... OK

Ошибок не произошло


AccurateRip: сводка

Трек 1 точное извлечение (доверие 1) [2426A874]
Трек 2 точное извлечение (доверие 1) [D2E1320C]
Трек 3 точное извлечение (доверие 1) [0FFDD66F]
Трек 4 точное извлечение (доверие 1) [63684DE7]
Трек 5 точное извлечение (доверие 1) [2F0810D9]

Все треки извлечены точно

Конец отчёта

[CUETools log; Date: 14.05.2015 18:10:14; Version: 2.1.5]
[CTDB TOCID: hk0EVtzrBe2_NdQAU_wAUgbvVCc-] found.
Track | CTDB Status
1 | (1/1) Accurately ripped
2 | (1/1) Accurately ripped
3 | (1/1) Accurately ripped
4 | (1/1) Accurately ripped
5 | (1/1) Accurately ripped
[AccurateRip ID: 000a9169-0031366a-340c4605] found.
Track [ CRC | V2 ] Status
01 [2426a874|5ae94bdb] (0+4/4) Accurately ripped
02 [d2e1320c|fa6b4c4e] (0+4/4) Accurately ripped
03 [0ffdd66f|a8807ac3] (0+4/4) Accurately ripped
04 [63684de7|da48edc8] (0+4/4) Accurately ripped
05 [2f0810d9|e7514744] (0+4/4) Accurately ripped

Track Peak [ CRC32 ] [W/O NULL] [ LOG ]
-- 100,0 [639E1B2D] [A2B04C58] CRC32
01 93,7 [2E4A67A8] [C37E3B93]
02 99,3 [B98F2D36] [D4F7735A]
03 100,0 [72DA12DF] [37A74040]
04 99,6 [168B9588] [A715CC07]
05 97,8 [FA57E394] [EDD7C161]

foobar2000 1.3.8 / Dynamic Range Meter 1.1.1
log date: 2015-05-14 17:39:53

--------------------------------------------------------------------------------
Analyzed: Chales Mingus / Blue Cee
--------------------------------------------------------------------------------

DR Peak RMS Duration Track
--------------------------------------------------------------------------------
DR13 -0.56 dB -17.07 dB 12:09 01-The Clown
DR11 -0.06 dB -14.68 dB 7:54 02-Blue Cee
DR11 0.00 dB -14.51 dB 8:35 03-Reincarnation Of A Lovebird
DR11 -0.03 dB -14.31 dB 12:03 04-Haitian Fight Song
DR12 -0.19 dB -14.87 dB 11:42 05-Blue Greens
--------------------------------------------------------------------------------

Number of tracks: 5
Official DR value: DR12

Samplerate: 44100 Hz
Channels: 2
Bits per sample: 16
Bitrate: 469 kbps
Codec: Monkey's Audio
================================================================================


Exact Audio Copy V0.99 prebeta 4 from 23. January 2008

Отчёт EAC об извлечении, выполненном 21. мая 2010, 22:21

Charles Mingus / Passions Of A Woman

Дисковод: Optiarc DVD RW AD-7200A Adapter: 3 ID: 1

Режим чтения : Достоверность
Использование точного потока : Да
Отключение кэша аудио : Да
Использование указателей C2 : Нет

Коррекция смещения при чтении : 48
Способность читать области Lead-in и Lead-out : Нет
Заполнение пропущенных сэмплов тишиной : Да
Удаление блоков с тишиной в начале и конце : Нет
При вычислениях CRC использовались нулевые сэмплы : Да
Интерфейс : Установленный внешний ASPI-интерфейс

Выходной формат : Внутренние WAV-операции
Формат сэмплов : 44.100 Гц; 16 бит; стерео


TOC извлечённого CD

Трек | Старт | Длительность | Начальный сектор | Конечный сектор
---------------------------------------------------------------------
1 | 0:00.00 | 5:59.60 | 0 | 26984
2 | 5:59.60 | 4:51.38 | 26985 | 48847
3 | 10:51.23 | 9:46.74 | 48848 | 92871
4 | 20:38.22 | 9:47.70 | 92872 | 136966
5 | 30:26.17 | 5:04.68 | 136967 | 159834
6 | 35:31.10 | 2:30.04 | 159835 | 171088
7 | 38:01.14 | 6:10.15 | 171089 | 198853
8 | 44:11.29 | 7:56.41 | 198854 | 234594


Характеристики диапазона извлечения и сообщения об ошибках

Выбранный диапазон

Имя файла E:Up-DownCharles Mingus - King of MingusCD 5. Passions Of A WomanCharles Mingus - Passions Of A Woman.wav

Пиковый уровень 100.0 %
Качество диапазона 100.0 %
CRC копии D78C208F
Копирование... OK

Ошибок не произошло


AccurateRip: сводка

Трек 1 точное извлечение (доверие 1) [AE991087]
Трек 2 точное извлечение (доверие 1) [2B52C1E4]
Трек 3 точное извлечение (доверие 1) [9656EEBF]
Трек 4 точное извлечение (доверие 1) [88A85A59]
Трек 5 точное извлечение (доверие 1) [1507D80E]
Трек 6 точное извлечение (доверие 1) [09E9D7F8]
Трек 7 точное извлечение (доверие 1) [960D46B6]
Трек 8 точное извлечение (доверие 1) [7A8B7358]

Все треки извлечены точно

Конец отчёта

[CUETools log; Date: 14.05.2015 18:17:07; Version: 2.1.5]
[CTDB TOCID: oaqof50oxA2bT6CSMkwRR0udg_o-] found.
Track | CTDB Status
1 | (1/1) Accurately ripped
2 | (1/1) Accurately ripped
3 | (1/1) Accurately ripped
4 | (1/1) Accurately ripped
5 | (1/1) Accurately ripped
6 | (1/1) Accurately ripped
7 | (1/1) Accurately ripped
8 | (1/1) Accurately ripped
[AccurateRip ID: 001053dd-006c938a-5c0c3708] found.
Track [ CRC | V2 ] Status
01 [ae991087|9a54bba7] (0+4/4) Accurately ripped
02 [2b52c1e4|007df807] (0+4/4) Accurately ripped
03 [9656eebf|26806ebf] (0+4/4) Accurately ripped
04 [88a85a59|15b68406] (0+4/4) Accurately ripped
05 [1507d80e|689e0b12] (0+4/4) Accurately ripped
06 [09e9d7f8|d5079099] (0+4/4) Accurately ripped
07 [960d46b6|998710f1] (0+4/4) Accurately ripped
08 [7a8b7358|83f8f272] (0+4/4) Accurately ripped

Track Peak [ CRC32 ] [W/O NULL] [ LOG ]
-- 100,0 [D78C208F] [4FAE8216] CRC32
01 100,0 [28E46485] [A89A6461]
02 91,8 [508D9273] [267267DE]
03 90,2 [54FBAC89] [B02131BA]
04 88,2 [D5BE5A80] [120DE8FC]
05 98,1 [E4428B5A] [86A8BEF5]
06 97,0 [E6820E8E] [45FF11CB]
07 97,5 [04D1AD27] [FADEEF53]
08 100,0 [509C108D] [8E9321DF]

foobar2000 1.3.8 / Dynamic Range Meter 1.1.1
log date: 2015-05-14 17:43:24

--------------------------------------------------------------------------------
Analyzed: Charles Mingus / Passions Of A Woman
--------------------------------------------------------------------------------

DR Peak RMS Duration Track
--------------------------------------------------------------------------------
DR10 0.00 dB -12.98 dB 6:00 01-Tonight At Noon
DR12 -0.74 dB -16.78 dB 4:52 02-Passions Of A Woman Loved
DR10 -0.89 dB -16.07 dB 9:47 03-Laura
DR12 -1.09 dB -16.34 dB 9:48 04-When Your Lover Has Gone
DR13 -0.17 dB -16.48 dB 5:05 05-Just One Of Those Things
DR10 -0.26 dB -14.88 dB 2:30 06-Profile Of Jackie
DR11 -0.22 dB -13.85 dB 6:10 07-Yesterday
DR10 0.00 dB -15.28 dB 7:57 08-All The Things You C#
--------------------------------------------------------------------------------

Number of tracks: 8
Official DR value: DR11

Samplerate: 44100 Hz
Channels: 2
Bits per sample: 16
Bitrate: 601 kbps
Codec: Monkey's Audio
================================================================================


Exact Audio Copy V0.99 prebeta 4 from 23. January 2008

Отчёт EAC об извлечении, выполненном 21. мая 2010, 23:55

Charles Mingus / New York Sketchbook

Дисковод: Optiarc DVD RW AD-7200A Adapter: 3 ID: 1

Режим чтения : Достоверность
Использование точного потока : Да
Отключение кэша аудио : Да
Использование указателей C2 : Нет

Коррекция смещения при чтении : 48
Способность читать области Lead-in и Lead-out : Нет
Заполнение пропущенных сэмплов тишиной : Да
Удаление блоков с тишиной в начале и конце : Нет
При вычислениях CRC использовались нулевые сэмплы : Да
Интерфейс : Установленный внешний ASPI-интерфейс

Выходной формат : Внутренние WAV-операции
Формат сэмплов : 44.100 Гц; 16 бит; стерео


TOC извлечённого CD

Трек | Старт | Длительность | Начальный сектор | Конечный сектор
---------------------------------------------------------------------
1 | 0:00.00 | 8:26.41 | 0 | 37990
2 | 8:26.41 | 11:17.13 | 37991 | 88778
3 | 19:43.54 | 5:48.16 | 88779 | 114894
4 | 25:31.70 | 5:27.68 | 114895 | 139487
5 | 30:59.63 | 6:22.02 | 139488 | 168139
6 | 37:21.65 | 7:49.04 | 168140 | 203318


Характеристики диапазона извлечения и сообщения об ошибках

Выбранный диапазон

Имя файла E:Up-DownCharles Mingus - King of MingusCD 6. New York SketchbookCharles Mingus - New York Sketchbook.wav

Пиковый уровень 78.4 %
Качество диапазона 100.0 %
CRC копии 87355070
Копирование... OK

Ошибок не произошло


AccurateRip: сводка

Трек 1 точное извлечение (доверие 1) [CA3D75E7]
Трек 2 точное извлечение (доверие 1) [78A4CF47]
Трек 3 точное извлечение (доверие 1) [7E452550]
Трек 4 точное извлечение (доверие 1) [F8D99EC0]
Трек 5 точное извлечение (доверие 1) [B332425A]
Трек 6 точное извлечение (доверие 1) [9653DA07]

Все треки извлечены точно

Конец отчёта

[CUETools log; Date: 14.05.2015 18:23:08; Version: 2.1.5]
[CTDB TOCID: piYHsZlprgk_Tb0QsIv3CNY3Fgg-] found.
Track | CTDB Status
1 | (1/1) Accurately ripped
2 | (1/1) Accurately ripped
3 | (1/1) Accurately ripped
4 | (1/1) Accurately ripped
5 | (1/1) Accurately ripped
6 | (1/1) Accurately ripped
[AccurateRip ID: 000b7be4-003bfd15-450a9606] found.
Track [ CRC | V2 ] Status
01 [ca3d75e7|dc3aa43a] (0+4/4) Accurately ripped
02 [78a4cf47|7c8b1935] (0+4/4) Accurately ripped
03 [7e452550|c7b54099] (0+4/4) Accurately ripped
04 [f8d99ec0|0ceb093d] (0+4/4) Accurately ripped
05 [b332425a|5798cddf] (0+4/4) Accurately ripped
06 [9653da07|0539399d] (0+4/4) Accurately ripped

Track Peak [ CRC32 ] [W/O NULL] [ LOG ]
-- 78,4 [87355070] [1A9C707F] CRC32
01 73,8 [7DED3AAE] [9B10E53B]
02 75,6 [63D78870] [728E459B]
03 78,4 [91A67D72] [7E80994F]
04 69,2 [18ECE57C] [FC598BCD]
05 73,2 [7CE5D2BF] [7626ADAD]
06 68,2 [C34A5FE2] [F0101599]

foobar2000 1.3.8 / Dynamic Range Meter 1.1.1
log date: 2015-05-14 17:45:53

--------------------------------------------------------------------------------
Analyzed: Charles Mingus / New York Sketchbook
--------------------------------------------------------------------------------

DR Peak RMS Duration Track
--------------------------------------------------------------------------------
DR14 -2.64 dB -21.34 dB 8:27 01-New York Sketchbook
DR16 -2.42 dB -23.54 dB 11:17 02-Scenes In The City
DR16 -2.11 dB -22.80 dB 5:48 03-51st Street Blues
DR15 -3.19 dB -21.74 dB 5:28 04-Conversation
DR15 -2.70 dB -22.31 dB 6:22 05-Duke's Choice
DR14 -3.32 dB -20.88 dB 7:49 06-Celia
--------------------------------------------------------------------------------

Number of tracks: 6
Official DR value: DR15

Samplerate: 44100 Hz
Channels: 2
Bits per sample: 16
Bitrate: 462 kbps
Codec: Monkey's Audio
================================================================================


Exact Audio Copy V0.99 prebeta 4 from 23. January 2008

Отчёт EAC об извлечении, выполненном 21. мая 2010, 23:20

Charles Mingus / Thrice Upon A Theme

Дисковод: Optiarc DVD RW AD-7200A Adapter: 3 ID: 1

Режим чтения : Достоверность
Использование точного потока : Да
Отключение кэша аудио : Да
Использование указателей C2 : Нет

Коррекция смещения при чтении : 48
Способность читать области Lead-in и Lead-out : Нет
Заполнение пропущенных сэмплов тишиной : Да
Удаление блоков с тишиной в начале и конце : Нет
При вычислениях CRC использовались нулевые сэмплы : Да
Интерфейс : Установленный внешний ASPI-интерфейс

Выходной формат : Внутренние WAV-операции
Формат сэмплов : 44.100 Гц; 16 бит; стерео


TOC извлечённого CD

Трек | Старт | Длительность | Начальный сектор | Конечный сектор
---------------------------------------------------------------------
1 | 0:00.00 | 6:35.07 | 0 | 29631
2 | 6:35.07 | 10:07.36 | 29632 | 75192
3 | 16:42.43 | 8:30.74 | 75193 | 113516
4 | 25:13.42 | 7:01.32 | 113517 | 145123
5 | 32:14.74 | 8:01.47 | 145124 | 181245
6 | 40:16.46 | 8:31.61 | 181246 | 219631
7 | 48:48.32 | 8:44.36 | 219632 | 258967


Характеристики диапазона извлечения и сообщения об ошибках

Выбранный диапазон

Имя файла E:Up-DownCharles Mingus - King of MingusCD 7. Thrice Upon A ThemeCharles Mingus - Thrice Upon A Theme.wav

Пиковый уровень 100.0 %
Качество диапазона 100.0 %
CRC копии 06CFCD04
Копирование... OK

Ошибок не произошло


AccurateRip: сводка

Трек 1 точное извлечение (доверие 1) [46D8C6F4]
Трек 2 точное извлечение (доверие 1) [B3EAB165]
Трек 3 точное извлечение (доверие 1) [87737D69]
Трек 4 точное извлечение (доверие 1) [AA90FB3E]
Трек 5 точное извлечение (доверие 1) [4114948F]
Трек 6 точное извлечение (доверие 1) [EAB0D64B]
Трек 7 точное извлечение (доверие 1) [98E917F9]

Все треки извлечены точно

Конец отчёта

[CUETools log; Date: 14.05.2015 18:29:23; Version: 2.1.5]
[CTDB TOCID: qQNOBN4ghdAdHnz14miDKQeLCMA-] found.
Track | CTDB Status
1 | (1/1) Accurately ripped
2 | (1/1) Accurately ripped
3 | (1/1) Accurately ripped
4 | (1/1) Accurately ripped
5 | (1/1) Accurately ripped
6 | (1/1) Accurately ripped
7 | (1/1) Accurately ripped
[AccurateRip ID: 000f9d50-005e0318-560d7c07] found.
Track [ CRC | V2 ] Status
01 [46d8c6f4|4bef01be] (0+4/4) Accurately ripped
02 [b3eab165|50fb9076] (0+4/4) Accurately ripped
03 [87737d69|23adcaa4] (0+5/5) Accurately ripped
04 [aa90fb3e|b55b22c3] (0+4/4) Accurately ripped
05 [4114948f|0540633c] (0+4/4) Accurately ripped
06 [eab0d64b|0a784c20] (0+4/4) Accurately ripped
07 [98e917f9|98c04eba] (0+4/4) Accurately ripped

Track Peak [ CRC32 ] [W/O NULL] [ LOG ]
-- 100,0 [06CFCD04] [C751279F] CRC32
01 94,0 [EF5DD311] [EA0CD569]
02 97,2 [2662C9D8] [7D8902C9]
03 52,2 [0E77AC40] [129FC6EA]
04 31,0 [7F15202B] [81F82C23]
05 100,0 [F345CFCE] [27BE5EA1]
06 99,7 [7B2AD643] [B65DFD1A]
07 98,1 [F420A6D5] [BF3FFF22]

foobar2000 1.3.8 / Dynamic Range Meter 1.1.1
log date: 2015-05-14 17:49:46

--------------------------------------------------------------------------------
Analyzed: Charles Mingus / Thrice Upon A Theme
--------------------------------------------------------------------------------

DR Peak RMS Duration Track
--------------------------------------------------------------------------------
DR12 -0.53 dB -15.22 dB 6:35 01-Thrice Upon A Theme
DR11 -0.24 dB -13.93 dB 10:07 02-Minor Intrusions
DR18 -5.64 dB -29.20 dB 8:31 03-Percussion Discussion
DR13 -10.17 dB -26.71 dB 7:01 04-Septemberly
DR12 0.00 dB -14.84 dB 8:02 05-What Is This Thing Called Love
DR13 -0.02 dB -15.83 dB 8:32 06-Spur Of The Moment
DR12 -0.16 dB -14.27 dB 8:44 07-Four Hands
--------------------------------------------------------------------------------

Number of tracks: 7
Official DR value: DR13

Samplerate: 44100 Hz
Channels: 2
Bits per sample: 16
Bitrate: 515 kbps
Codec: Monkey's Audio
================================================================================


Exact Audio Copy V0.99 prebeta 4 from 23. January 2008

Отчёт EAC об извлечении, выполненном 21. мая 2010, 23:37

Charles Mingus / Jump Monk

Дисковод: Optiarc DVD RW AD-7200A Adapter: 3 ID: 1

Режим чтения : Достоверность
Использование точного потока : Да
Отключение кэша аудио : Да
Использование указателей C2 : Нет

Коррекция смещения при чтении : 48
Способность читать области Lead-in и Lead-out : Нет
Заполнение пропущенных сэмплов тишиной : Да
Удаление блоков с тишиной в начале и конце : Нет
При вычислениях CRC использовались нулевые сэмплы : Да
Интерфейс : Установленный внешний ASPI-интерфейс

Выходной формат : Внутренние WAV-операции
Формат сэмплов : 44.100 Гц; 16 бит; стерео


TOC извлечённого CD

Трек | Старт | Длительность | Начальный сектор | Конечный сектор
---------------------------------------------------------------------
1 | 0:00.00 | 10:36.37 | 0 | 47736
2 | 10:36.37 | 14:58.28 | 47737 | 115114
3 | 25:34.65 | 5:26.39 | 115115 | 139603
4 | 31:01.29 | 6:51.11 | 139604 | 170439
5 | 37:52.40 | 6:05.52 | 170440 | 197866
6 | 43:58.17 | 6:26.25 | 197867 | 226841


Характеристики диапазона извлечения и сообщения об ошибках

Выбранный диапазон

Имя файла E:Up-DownCharles Mingus - King of MingusCD 8. Jump MonkCharles Mingus - Jump Monk.wav

Пиковый уровень 88.7 %
Качество диапазона 100.0 %
CRC копии 3C2C944F
Копирование... OK

Ошибок не произошло


AccurateRip: сводка

Трек 1 точное извлечение (доверие 1) [E91BC369]
Трек 2 точное извлечение (доверие 1) [EE85DB70]
Трек 3 точное извлечение (доверие 1) [81FB5658]
Трек 4 точное извлечение (доверие 1) [FB4323B9]
Трек 5 точное извлечение (доверие 1) [B63C419B]
Трек 6 точное извлечение (доверие 1) [2A15EA17]

Все треки извлечены точно

Конец отчёта

[CUETools log; Date: 14.05.2015 18:35:26; Version: 2.1.5]
[CTDB TOCID: Lx2ZYotopciXNfCHnC7d3MT2Z5I-] found.
Track | CTDB Status
1 | (1/1) Accurately ripped
2 | (1/1) Accurately ripped
3 | (1/1) Accurately ripped
4 | (1/1) Accurately ripped
5 | (1/1) Accurately ripped
6 | (1/1) Accurately ripped
[AccurateRip ID: 000db245-00469864-4f0bd006] found.
Track [ CRC | V2 ] Status
01 [e91bc369|2ab11208] (0+5/5) Accurately ripped
02 [ee85db70|2fb4a373] (0+5/5) Accurately ripped
03 [81fb5658|bc50349b] (0+5/5) Accurately ripped
04 [fb4323b9|79ac2ccf] (0+5/5) Accurately ripped
05 [b63c419b|2d3564fc] (0+5/5) Accurately ripped
06 [2a15ea17|0cab44cc] (0+5/5) Accurately ripped

Track Peak [ CRC32 ] [W/O NULL] [ LOG ]
-- 88,7 [3C2C944F] [1782F28D] CRC32
01 87,1 [6DB508B5] [A8369DF5]
02 88,7 [1493DFBA] [5B740B0A]
03 72,1 [34230D45] [8CD75348]
04 88,3 [2053F30E] [438D9F54]
05 72,1 [FE300413] [9C51CD59]
06 78,2 [8266175A] [E8F12CC9]

foobar2000 1.3.8 / Dynamic Range Meter 1.1.1
log date: 2015-05-14 17:52:54

--------------------------------------------------------------------------------
Analyzed: Charles Mingus / Jump Monk
--------------------------------------------------------------------------------

DR Peak RMS Duration Track
--------------------------------------------------------------------------------
DR16 -1.20 dB -20.06 dB 10:36 01-Pithecanthropus Erectus
DR13 -1.03 dB -17.52 dB 14:58 02-Love Chant
DR13 -2.84 dB -20.39 dB 5:27 03-A Foggy Day
DR12 -1.08 dB -16.05 dB 6:51 04-Jump Monk
DR11 -2.83 dB -17.00 dB 6:06 05-Serenade In Blue
DR13 -2.13 dB -18.45 dB 6:26 06-Work Song
--------------------------------------------------------------------------------

Number of tracks: 6
Official DR value: DR13

Samplerate: 44100 Hz
Channels: 2
Bits per sample: 16
Bitrate: 629 kbps
Codec: Monkey's Audio
================================================================================


Exact Audio Copy V0.99 prebeta 4 from 23. January 2008

Отчёт EAC об извлечении, выполненном 21. мая 2010, 22:40

Charles Mingus / Dizzy Moods

Дисковод: Optiarc DVD RW AD-7200A Adapter: 3 ID: 1

Режим чтения : Достоверность
Использование точного потока : Да
Отключение кэша аудио : Да
Использование указателей C2 : Нет

Коррекция смещения при чтении : 48
Способность читать области Lead-in и Lead-out : Нет
Заполнение пропущенных сэмплов тишиной : Да
Удаление блоков с тишиной в начале и конце : Нет
При вычислениях CRC использовались нулевые сэмплы : Да
Интерфейс : Установленный внешний ASPI-интерфейс

Выходной формат : Внутренние WAV-операции
Формат сэмплов : 44.100 Гц; 16 бит; стерео


TOC извлечённого CD

Трек | Старт | Длительность | Начальный сектор | Конечный сектор
---------------------------------------------------------------------
1 | 0:00.00 | 10:24.09 | 0 | 46808
2 | 10:24.09 | 5:52.17 | 46809 | 73225
3 | 16:16.26 | 10:59.05 | 73226 | 122655
4 | 27:15.31 | 5:35.35 | 122656 | 147815
5 | 32:50.66 | 3:48.30 | 147816 | 164945
6 | 36:39.21 | 10:27.67 | 164946 | 212037


Характеристики диапазона извлечения и сообщения об ошибках

Выбранный диапазон

Имя файла E:Up-DownCharles Mingus - King of MingusCD 9. Dizzy MoodsCharles Mingus - Dizzy Moods.wav

Пиковый уровень 100.0 %
Качество диапазона 99.9 %
CRC копии 06F4F6AE
Копирование... OK

Ошибок не произошло


AccurateRip: сводка

Трек 1 точное извлечение (доверие 1) [F2DB4C1C]
Трек 2 точное извлечение (доверие 1) [5F677E92]
Трек 3 точное извлечение (доверие 1) [0C0494AF]
Трек 4 точное извлечение (доверие 1) [22C8A5A2]
Трек 5 точное извлечение (доверие 1) [DEF3394F]
Трек 6 точное извлечение (доверие 1) [78D9B793]

Все треки извлечены точно

Конец отчёта

[CUETools log; Date: 14.05.2015 18:41:15; Version: 2.1.5]
[CTDB TOCID: BjIHlhr8rmZPUQtzXGTV5_zKfdQ-] found.
Track | CTDB Status
1 | (1/1) Accurately ripped
2 | (1/1) Accurately ripped
3 | (1/1) Accurately ripped
4 | (1/1) Accurately ripped
5 | (1/1) Accurately ripped
6 | (1/1) Accurately ripped
[AccurateRip ID: 000bb603-003d4b2f-510b0b06] found.
Track [ CRC | V2 ] Status
01 [f2db4c1c|01d5f1f0] (0+5/5) Accurately ripped
02 [5f677e92|ed6d9d4a] (0+5/5) Accurately ripped
03 [0c0494af|bf5aa20d] (0+5/5) Accurately ripped
04 [22c8a5a2|47c23939] (0+5/5) Accurately ripped
05 [def3394f|51ffc036] (0+5/5) Accurately ripped
06 [78d9b793|035db04a] (0+5/5) Accurately ripped

Track Peak [ CRC32 ] [W/O NULL] [ LOG ]
-- 100,0 [06F4F6AE] [592B4DD0] CRC32
01 91,5 [33869B6C] [40A2A559]
02 98,0 [D7030679] [7BEA56FD]
03 100,0 [10AF35C2] [94B7A9EC]
04 99,9 [C680FBB8] [B2F65974]
05 99,7 [3FC53841] [12BAD461]
06 100,0 [88BA939A] [D17B3816]

foobar2000 1.3.8 / Dynamic Range Meter 1.1.1
log date: 2015-05-14 17:55:22

--------------------------------------------------------------------------------
Analyzed: Charles Mingus / Dizzy Moods
--------------------------------------------------------------------------------

DR Peak RMS Duration Track
--------------------------------------------------------------------------------
DR12 -0.76 dB -15.64 dB 10:24 01-Los Mariachis
DR11 -0.17 dB -14.30 dB 5:52 02-Dizzy Moods
DR14 0.00 dB -19.03 dB 10:59 03-A Colloquial Dream
DR13 0.00 dB -16.69 dB 5:35 04-Flamingo
DR11 -0.02 dB -14.12 dB 3:48 05-Tijuana Gift Shop
DR12 0.00 dB -15.15 dB 10:28 06-Ysabel's Table Dance
--------------------------------------------------------------------------------

Number of tracks: 6
Official DR value: DR12

Samplerate: 44100 Hz
Channels: 2
Bits per sample: 16
Bitrate: 719 kbps
Codec: Monkey's Audio
================================================================================


Exact Audio Copy V0.99 prebeta 4 from 23. January 2008

Отчёт EAC об извлечении, выполненном 21. мая 2010, 23:02

Charles Mingus / Trio

Дисковод: Optiarc DVD RW AD-7200A Adapter: 3 ID: 1

Режим чтения : Достоверность
Использование точного потока : Да
Отключение кэша аудио : Да
Использование указателей C2 : Нет

Коррекция смещения при чтении : 48
Способность читать области Lead-in и Lead-out : Нет
Заполнение пропущенных сэмплов тишиной : Да
Удаление блоков с тишиной в начале и конце : Нет
При вычислениях CRC использовались нулевые сэмплы : Да
Интерфейс : Установленный внешний ASPI-интерфейс

Выходной формат : Внутренние WAV-операции
Формат сэмплов : 44.100 Гц; 16 бит; стерео


TOC извлечённого CD

Трек | Старт | Длительность | Начальный сектор | Конечный сектор
---------------------------------------------------------------------
1 | 0:00.00 | 6:30.57 | 0 | 29306
2 | 6:30.57 | 4:10.47 | 29307 | 48103
3 | 10:41.29 | 4:35.24 | 48104 | 68752
4 | 15:16.53 | 6:27.01 | 68753 | 97778
5 | 21:43.54 | 6:49.20 | 97779 | 128473
6 | 28:32.74 | 3:50.68 | 128474 | 145791
7 | 32:23.67 | 5:25.31 | 145792 | 170197


Характеристики диапазона извлечения и сообщения об ошибках

Выбранный диапазон

Имя файла E:Up-DownCharles Mingus - King of MingusCD 10. TrioCharles Mingus - Trio.wav

Пиковый уровень 100.0 %
Качество диапазона 99.9 %
CRC копии E5D4F027
Копирование... OK

Ошибок не произошло


AccurateRip: сводка

Трек 1 точное извлечение (доверие 1) [3B9F2069]
Трек 2 точное извлечение (доверие 1) [695F38C2]
Трек 3 точное извлечение (доверие 1) [63495902]
Трек 4 точное извлечение (доверие 1) [6CDE1562]
Трек 5 точное извлечение (доверие 1) [9E5A721F]
Трек 6 точное извлечение (доверие 1) [F918FF3E]
Трек 7 точное извлечение (доверие 1) [CD9A703D]

Все треки извлечены точно

Конец отчёта

[CUETools log; Date: 14.05.2015 18:49:26; Version: 2.1.5]
[CTDB TOCID: 2e8PL2ehLnv2ZI_11TbI.Pml8Zg-] found.
Track | CTDB Status
1 | (1/1) Accurately ripped
2 | (1/1) Accurately ripped
3 | (1/1) Accurately ripped
4 | (1/1) Accurately ripped
5 | (1/1) Accurately ripped
6 | (1/1) Accurately ripped
7 | (1/1) Accurately ripped
[AccurateRip ID: 000a8117-003edcfe-5808dd07] found.
Track [ CRC | V2 ] Status
01 [3b9f2069|52b84fc2] (0+4/4) Accurately ripped
02 [695f38c2|1a35f697] (0+4/4) Accurately ripped
03 [63495902|45006bb9] (0+4/4) Accurately ripped
04 [6cde1562|3c7eb907] (0+4/4) Accurately ripped
05 [9e5a721f|7ada61c1] (0+4/4) Accurately ripped
06 [f918ff3e|7ca0dd6d] (0+4/4) Accurately ripped
07 [cd9a703d|8f030ade] (0+4/4) Accurately ripped

Track Peak [ CRC32 ] [W/O NULL] [ LOG ]
-- 100,0 [E5D4F027] [B4053434] CRC32
01 100,0 [5D750A35] [D60DD35F]
02 100,0 [EE84B181] [604A1724]
03 100,0 [134E8119] [041F1081]
04 100,0 [4E44212A] [39D101EC]
05 100,0 [064E86E2] [D3357F0A]
06 100,0 [4B1FE49B] [2E0BE6EC]
07 100,0 [41F5FD19] [5EFEC8B8]

foobar2000 1.3.8 / Dynamic Range Meter 1.1.1
log date: 2015-05-14 17:57:21

--------------------------------------------------------------------------------
Analyzed: Charles Mingus / Trio
--------------------------------------------------------------------------------

DR Peak RMS Duration Track
--------------------------------------------------------------------------------
DR13 0.00 dB -16.24 dB 6:31 01-Laura
DR11 0.00 dB -14.05 dB 4:11 02-Yesterday's
DR11 0.00 dB -14.49 dB 4:35 03-Summertime
DR12 0.00 dB -15.91 dB 6:27 04-I Can't Get Started
DR12 0.00 dB -14.76 dB 6:49 05-Dizzy Moods
DR11 0.00 dB -12.62 dB 3:51 06-Hamp's New Blues
DR13 0.00 dB -16.32 dB