Art Farmer & Jim Hall Quartet - Complete Live Recordings (2008)


Art Farmer & Jim Hall Quartet - Complete Live Recordings (2008)
EAC | FLAC | Image (Cue&Log) ~ 374 Mb (incl 5%) | Mp3 (CBR320) ~ 190 Mb (incl 5%) | Scans included
Genre: Jazz, Bop, Cool | Label: Gambit Records | # 69288 | Time: 01:08:56

2008 release compiles all of Art Farmer and Jim Hall's live quartet recordings in their entirety including the 1963 Half Note performances and the extremely rare 1964 London concert. Features musical assistance from Steve Swallow, Walter Perkins and Pete La Roca. This material is presented here for the first time ever in one package.


The Art Farmer-Jim Hall Quartet recorded only a handful of times in the early 1960s, making this reissue of two separate live performances all the more valuable. By the time Farmer recruited Hall for his new group, he had made the switch from trumpet to the richer sound of the flugelhorn, while the guitarist's style of playing complemented the leader perfectly. The first date originally was issued by Atlantic, though both the album and the subsequent CD reissue have long been unavailable; the rhythm section consists of Steve Swallow (who had not yet made the switch to electric bass) and drummer Walter Perkins. Except for Miles Davis' "Swing Spring," all of the songs are from the swing era. The extended workout of "Stompin' at the Savoy" is illustrative of the group's abilities, while Hall is featured in a lush setting of "I'm Getting Sentimental Over You." The last five tracks first appeared on the Moon bootleg CD Meets Mulligan & Hall, though it too has been out of print for some time, with Pete La Roca (aka Pete Sims) taking over on drums. The sound of these performances is a bit muddy, as if taken from a second or third generation of a broadcast taping, though the music is excellent throughout the set. This Gambit reissue repeats the earlier CD's sloppy composer credits, which attribute the lilting take of "Sometime Ago" to Chick Corea instead of Sergio Mihanovich, though the addition of detailed liner notes is welcome. The heartfelt arrangement of "'Darn That Dream" and burning take of Sonny Rollins' unusual jazz waltz "Valse Hot" are also highlights.

Review by Ken Dryden, Allmusic.com











Tracklist:

01. Stompin' At The Savoy (12:25)
02. Swing Spring (05:56)
03. What's New (04:28)
04. I Want To Be Happy (09:43)
05. I'm Getting Sentimental Over You (05:07)
06. Sometime Ago (07:49)
07. Bilbao Song (06:10)
08. Darn That Dream (04:55)
09. Valse Hot (11:21)
10. Theme (00:58)


Exact Audio Copy V1.0 beta 3 from 29. August 2011

Отчёт EAC об извлечении, выполненном 20. января 2013, 15:25

Art Farmer & Jim Hall Quartet / Complete Live Recordings

Дисковод: HL-DT-STDVDRAM GH22NS70 Adapter: 1 ID: 0

Режим чтения : Достоверность
Использование точного потока : Да
Отключение кэша аудио : Да
Использование указателей C2 : Нет

Коррекция смещения при чтении : 667
Способность читать области Lead-in и Lead-out : Нет
Заполнение пропущенных сэмплов тишиной : Да
Удаление блоков с тишиной в начале и конце : Нет
При вычислениях CRC использовались нулевые сэмплы : Да
Интерфейс : Встроенный Win32-интерфейс для Win NT/2000

Выходной формат : Пользовательский кодировщик
Выбранный битрейт : 128 kBit/s
Качество : Высокий
Добавление ID3-тега : Нет
Утилита сжатия : C:Program FilesExact Audio CopyFLACFLAC.EXE
Дополнительные параметры : -V -8 -T "Date=%year%" -T "Genre=%genre%" %source%


TOC извлечённого CD

Трек | Старт | Длительность | Начальный сектор | Конечный сектор
---------------------------------------------------------------------
1 | 0:00.00 | 12:25.06 | 0 | 55880
2 | 12:25.06 | 5:56.10 | 55881 | 82590
3 | 18:21.16 | 4:28.19 | 82591 | 102709
4 | 22:49.35 | 9:43.74 | 102710 | 146508
5 | 32:33.34 | 5:07.65 | 146509 | 169598
6 | 37:41.24 | 7:49.52 | 169599 | 204825
7 | 45:31.01 | 6:10.17 | 204826 | 232592
8 | 51:41.18 | 4:55.32 | 232593 | 254749
9 | 56:36.50 | 11:21.60 | 254750 | 305884
10 | 67:58.35 | 0:58.01 | 305885 | 310235


Характеристики диапазона извлечения и сообщения об ошибках

Выбранный диапазон

Имя файла D:Up-DownArt Farmer & Jim Hall Quartet - Complete Live RecordingsArt Farmer & Jim Hall Quartet - Complete Live Recordings.wav

Пиковый уровень 96.2 %
Скорость извлечения 1.9 X
Качество диапазона 100.0 %
CRC теста EE431DF3
CRC копии EE431DF3
Копирование... OK

Ошибок не произошло


AccurateRip: сводка

Трек 1 : извлечено точно (доверие 1) [E365333B] (AR v1)
Трек 2 : извлечено точно (доверие 1) [BA6059A9] (AR v1)
Трек 3 : извлечено точно (доверие 1) [9523B25E] (AR v1)
Трек 4 : извлечено точно (доверие 1) [971B5CFC] (AR v1)
Трек 5 : извлечено точно (доверие 1) [4B0902F1] (AR v1)
Трек 6 : извлечено точно (доверие 1) [3DDDA192] (AR v1)
Трек 7 : извлечено точно (доверие 1) [C1EE6176] (AR v1)
Трек 8 : извлечено точно (доверие 1) [8564EFE4] (AR v1)
Трек 9 : извлечено точно (доверие 1) [8FBC6696] (AR v1)
Трек 10 : извлечено точно (доверие 1) [05C33E92] (AR v1)

Все треки извлечены точно

Конец отчёта

==== Контрольная сумма отчёта F9525783C5DB7C666F73148C6073BC93C57F4B70D0CB14B91EBB30732A1B6C83 ====

foobar2000 1.3.8 / Dynamic Range Meter 1.1.1
log date: 2015-05-12 16:45:47

--------------------------------------------------------------------------------
Analyzed: Art Farmer & Jim Hall Quartet / Complete Live Recordings
--------------------------------------------------------------------------------

DR Peak RMS Duration Track
--------------------------------------------------------------------------------
DR9 -1.99 dB -15.04 dB 12:25 01-Stompin' At The Savoy
DR11 -0.92 dB -14.99 dB 5:56 02-Swing Spring
DR10 -0.84 dB -14.65 dB 4:28 03-What's New
DR11 -0.33 dB -15.64 dB 9:44 04-I Want To Be Happy
DR13 -0.42 dB -18.42 dB 5:08 05-I'm Getting Sentimental Over You
DR7 -2.47 dB -12.59 dB 7:50 06-Sometime Ago
DR7 -2.20 dB -10.62 dB 6:10 07-Bilbao Song
DR7 -2.08 dB -10.99 dB 4:55 08-Darn That Dream
DR8 -2.18 dB -11.97 dB 11:22 09-Valse Hot
DR8 -1.41 dB -11.38 dB 0:58 10-Theme
--------------------------------------------------------------------------------

Number of tracks: 10
Official DR value: DR9

Samplerate: 44100 Hz
Channels: 2
Bits per sample: 16
Bitrate: 676 kbps
Codec: FLAC
================================================================================



All thanks to original releaser - strizh64





Password: designol