Various Artists – Country Fiddle: Fine Early String Band Music 1924-1937 (2013)


Various Artists – Country Fiddle: Fine Early String Band Music 1924-1937 (2013)
Country | FLAC lossless/4cd | cuesheets+logs | covers+booklets | 5h0m8s | 628mb
Label: JSP | cat. no. 77171A/B/C/D


Kick up a lot of dust with these boot stomping fiddle groups from the early 20th century. Loaded with 4 CDs, this collection delivers roughly 25 songs each from 4 long-forgotten but decidedly talented outfits: Earl Johnson & His Clodhoppers, Leake County Revelers, East Texas Serenaders and the Aiken County String Band.




Tracks:

cdA
01. Earl Johnson & His Clodhoppers / I've got a woman on Sourwood Mountain [0:02:54.57]
02. Earl Johnson & His Clodhoppers / Leather Breeches [0:02:49.58]
03. Earl Johnson & His Clodhoppers / The little grave in Georgia [0:03:02.76]
04. Earl Johnson & His Clodhoppers / Red hot breakdown [0:03:01.05]
05. Earl Johnson & His Clodhoppers / I get my whisky from Rockingham [0:03:00.68]
06. Earl Johnson & His Clodhoppers / Earl Johnson's Arkansas Traveller [0:03:09.46]
07. Earl Johnson & His Clodhoppers / Poor little Joe [0:02:54.74]
08. Earl Johnson & His Clodhoppers / Old grey mare kicking out of the wilderness [0:02:56.12]
09. Earl Johnson & His Clodhoppers / All night long [0:03:14.60]
10. Earl Johnson & His Clodhoppers / Mississippi jubilee [0:03:01.46]
11. Earl Johnson & His Clodhoppers / Johnnie get your gun [0:02:48.66]
12. Earl Johnson & His Clodhoppers / Laughin' Rufus [0:02:55.78]
13. Earl Johnson & His Clodhoppers / Twinkle little star [0:02:44.28]
14. Earl Johnson & His Clodhoppers / In the shadow of the pine [0:02:53.38]
15. Earl Johnson & His Clodhoppers / Wire grass drag [0:02:48.02]
16. Earl Johnson & His Dixie Entertainers / Three nights experience [0:02:47.41]
17. Earl Johnson & His Dixie Entertainers / Dixie [0:03:01.16]
18. Earl Johnson & His Dixie Entertainers / Ain't nobody's business [0:02:57.06]
19. Earl Johnson & His Dixie Entertainers / John Henry blues [0:03:11.66]
20. Earl Johnson & His Dixie Entertainers / I don't love nobody [0:03:05.68]
21. Earl Johnson & His Dixie Entertainers / I'm satisfied [0:02:50.34]
22. Earl Johnson & His Dixie Entertainers / Johnson's old grey mule [0:03:04.65]
23. Earl Johnson & His Dixie Entertainers / Shortenin' bread [0:02:58.88]
24. Earl Johnson & His Dixie Entertainers / Hen cackle [0:03:03.94]
25. Earl Johnson & His Dixie Entertainers / Mississippi Sawyer [0:02:51.72]

Performers:

Various artists; see tracklist

Exact Audio Copy V1.0 beta 3 from 29. August 2011

EAC extraction logfile from 2. May 2015, 23:02

Earl Johnson / Country Fiddle - Fine Early String Band Music 1924-1937 cd1

Used drive : TSSTcorpCDDVDW SH-216AB Adapter: 1 ID: 0

Read mode : Secure
Utilize accurate stream : Yes
Defeat audio cache : Yes
Make use of C2 pointers : No

Read offset correction : 6
Overread into Lead-In and Lead-Out : No
Fill up missing offset samples with silence : Yes
Delete leading and trailing silent blocks : No
Null samples used in CRC calculations : Yes
Used interface : Installed external ASPI interface
Gap handling : Appended to previous track

Used output format : User Defined Encoder
Selected bitrate : 768 kBit/s
Quality : High
Add ID3 tag : No
Command line compressor : C:Program Files (x86)Exact Audio CopyFLACFLAC.EXE
Additional command line options : -6 -V -T "ARTIST=%artist%" -T "TITLE=%title%" -T "ALBUM=%albumtitle%" -T "DATE=%year%" -T "TRACKNUMBER=%tracknr%" -T "GENRE=%genre%" -T "COMMENT=%comment%" -T "BAND=%albuminterpret%" -T "ALBUMARTIST=%albuminterpret%" -T "COMPOSER=%composer%" %haslyrics%--tag-from-file=LYRICS="%lyricsfile%"%haslyrics% -T "DISCNUMBER=%cdnumber%" -T "TOTALDISCS=%totalcds%" -T "TOTALTRACKS=%numtracks%" %hascover%--picture="%coverfile%"%hascover% %source% -o %dest%


TOC of the extracted CD

Track | Start | Length | Start sector | End sector
---------------------------------------------------------
1 | 0:00.00 | 2:54.43 | 0 | 13092
2 | 2:54.43 | 2:49.44 | 13093 | 25811
3 | 5:44.12 | 3:02.57 | 25812 | 39518
4 | 8:46.69 | 3:01.04 | 39519 | 53097
5 | 11:47.73 | 3:00.51 | 53098 | 66648
6 | 14:48.49 | 3:09.35 | 66649 | 80858
7 | 17:58.09 | 2:54.56 | 80859 | 93964
8 | 20:52.65 | 2:56.09 | 93965 | 107173
9 | 23:48.74 | 3:14.45 | 107174 | 121768
10 | 27:03.44 | 3:01.35 | 121769 | 135378
11 | 30:05.04 | 2:48.50 | 135379 | 148028
12 | 32:53.54 | 2:55.59 | 148029 | 161212
13 | 35:49.38 | 2:44.21 | 161213 | 173533
14 | 38:33.59 | 2:53.29 | 173534 | 186537
15 | 41:27.13 | 2:48.02 | 186538 | 199139
16 | 44:15.15 | 2:47.31 | 199140 | 211695
17 | 47:02.46 | 3:01.12 | 211696 | 225282
18 | 50:03.58 | 2:57.05 | 225283 | 238562
19 | 53:00.63 | 3:11.50 | 238563 | 252937
20 | 56:12.38 | 3:05.51 | 252938 | 266863
21 | 59:18.14 | 2:50.26 | 266864 | 279639
22 | 62:08.40 | 3:04.49 | 279640 | 293488
23 | 65:13.14 | 2:58.66 | 293489 | 306904
24 | 68:12.05 | 3:03.71 | 306905 | 320700
25 | 71:16.01 | 2:51.54 | 320701 | 333579


Track 1

Filename C:Usersastarte3. POSTVarious Artists - Country FiddleA1 I've got a woman on Sourwood Mountain.wav

Pre-gap length 0:00:02.00

Peak level 89.0 %
Extraction speed 4.6 X
Track quality 100.0 %
Copy CRC 4662D5E5
Accurately ripped (confidence 1) [DF9A71DF] (AR v2)
Copy OK

Track 2

Filename C:Usersastarte3. POSTVarious Artists - Country FiddleA2 Leather Breeches.wav

Pre-gap length 0:00:02.54

Peak level 90.8 %
Extraction speed 4.9 X
Track quality 100.0 %
Copy CRC 55A3576A
Accurately ripped (confidence 1) [B0D1A088] (AR v2)
Copy OK

Track 3

Filename C:Usersastarte3. POSTVarious Artists - Country FiddleA3 The little grave in Georgia.wav

Pre-gap length 0:00:02.54

Peak level 94.3 %
Extraction speed 5.3 X
Track quality 100.0 %
Copy CRC 4878162D
Accurately ripped (confidence 1) [2ACFB2CD] (AR v2)
Copy OK

Track 4

Filename C:Usersastarte3. POSTVarious Artists - Country FiddleA4 Red hot breakdown.wav

Pre-gap length 0:00:02.54

Peak level 94.3 %
Extraction speed 5.6 X
Track quality 100.0 %
Copy CRC 0C87E6E2
Accurately ripped (confidence 1) [A7E2C323] (AR v2)
Copy OK

Track 5

Filename C:Usersastarte3. POSTVarious Artists - Country FiddleA5 I get my whisky from Rockingham.wav

Pre-gap length 0:00:02.54

Peak level 89.0 %
Extraction speed 5.8 X
Track quality 100.0 %
Copy CRC 0175A310
Accurately ripped (confidence 1) [D31B027A] (AR v2)
Copy OK

Track 6

Filename C:Usersastarte3. POSTVarious Artists - Country FiddleA6 Earl Johnson's Arkansas Traveller.wav

Pre-gap length 0:00:02.54

Peak level 79.3 %
Extraction speed 6.2 X
Track quality 100.0 %
Copy CRC CC71FD8E
Accurately ripped (confidence 1) [4BFB8FC8] (AR v2)
Copy OK

Track 7

Filename C:Usersastarte3. POSTVarious Artists - Country FiddleA7 Poor little Joe.wav

Pre-gap length 0:00:02.54

Peak level 94.3 %
Extraction speed 6.3 X
Track quality 100.0 %
Copy CRC 21CEC949
Accurately ripped (confidence 1) [87B2B7F2] (AR v2)
Copy OK

Track 8

Filename C:Usersastarte3. POSTVarious Artists - Country FiddleA8 Old grey mare kicking out of the wilderness.wav

Pre-gap length 0:00:02.54

Peak level 76.7 %
Extraction speed 6.5 X
Track quality 100.0 %
Copy CRC B92A1FCB
Accurately ripped (confidence 1) [3960F8E8] (AR v2)
Copy OK

Track 9

Filename C:Usersastarte3. POSTVarious Artists - Country FiddleA9 All night long.wav

Pre-gap length 0:00:02.54

Peak level 94.2 %
Extraction speed 6.9 X
Track quality 100.0 %
Copy CRC 41A1FA85
Accurately ripped (confidence 1) [C3914BD5] (AR v2)
Copy OK

Track 10

Filename C:Usersastarte3. POSTVarious Artists - Country FiddleA10 Mississippi jubilee.wav

Pre-gap length 0:00:02.54

Peak level 89.0 %
Extraction speed 7.1 X
Track quality 100.0 %
Copy CRC A6B89F51
Accurately ripped (confidence 1) [CE49A870] (AR v2)
Copy OK

Track 11

Filename C:Usersastarte3. POSTVarious Artists - Country FiddleA11 Johnnie get your gun.wav

Pre-gap length 0:00:02.54

Peak level 94.2 %
Extraction speed 5.5 X
Track quality 99.9 %
Copy CRC EDA67B0D
Accurately ripped (confidence 1) [C6240179] (AR v2)
Copy OK

Track 12

Filename C:Usersastarte3. POSTVarious Artists - Country FiddleA12 Laughin' Rufus.wav

Pre-gap length 0:00:02.54

Peak level 94.2 %
Extraction speed 7.1 X
Track quality 100.0 %
Copy CRC B660A21F
Accurately ripped (confidence 1) [0D27E292] (AR v2)
Copy OK

Track 13

Filename C:Usersastarte3. POSTVarious Artists - Country FiddleA13 Twinkle little star.wav

Pre-gap length 0:00:02.54

Peak level 84.0 %
Extraction speed 7.6 X
Track quality 100.0 %
Copy CRC 2F192D53
Accurately ripped (confidence 1) [D4369171] (AR v2)
Copy OK

Track 14

Filename C:Usersastarte3. POSTVarious Artists - Country FiddleA14 In the shadow of the pine.wav

Pre-gap length 0:00:02.54

Peak level 94.2 %
Extraction speed 7.6 X
Track quality 100.0 %
Copy CRC ED02619D
Accurately ripped (confidence 1) [042BA823] (AR v2)
Copy OK

Track 15

Filename C:Usersastarte3. POSTVarious Artists - Country FiddleA15 Wire grass drag.wav

Pre-gap length 0:00:02.54

Peak level 70.1 %
Extraction speed 7.9 X
Track quality 100.0 %
Copy CRC C8707991
Accurately ripped (confidence 1) [24A4A3C6] (AR v2)
Copy OK

Track 16

Filename C:Usersastarte3. POSTVarious Artists - Country FiddleA16 Three nights experience.wav

Pre-gap length 0:00:02.54

Peak level 94.3 %
Extraction speed 8.0 X
Track quality 100.0 %
Copy CRC D807BFC2
Accurately ripped (confidence 1) [B2FC550B] (AR v2)
Copy OK

Track 17

Filename C:Usersastarte3. POSTVarious Artists - Country FiddleA17 Dixie.wav

Pre-gap length 0:00:02.54

Peak level 89.0 %
Extraction speed 8.3 X
Track quality 100.0 %
Copy CRC 7590917A
Accurately ripped (confidence 1) [1CE9290B] (AR v2)
Copy OK

Track 18

Filename C:Usersastarte3. POSTVarious Artists - Country FiddleA18 Ain't nobody's business.wav

Pre-gap length 0:00:02.54

Peak level 85.4 %
Extraction speed 8.5 X
Track quality 100.0 %
Copy CRC 0A05886C
Accurately ripped (confidence 1) [AEAA1EB2] (AR v2)
Copy OK

Track 19

Filename C:Usersastarte3. POSTVarious Artists - Country FiddleA19 John Henry blues.wav

Pre-gap length 0:00:02.54

Peak level 84.0 %
Extraction speed 8.7 X
Track quality 100.0 %
Copy CRC D09B163E
Accurately ripped (confidence 1) [FC278D77] (AR v2)
Copy OK

Track 20

Filename C:Usersastarte3. POSTVarious Artists - Country FiddleA20 I don't love nobody.wav

Pre-gap length 0:00:02.54

Peak level 85.9 %
Extraction speed 8.9 X
Track quality 100.0 %
Copy CRC F4AEA1F1
Accurately ripped (confidence 1) [D0EC533D] (AR v2)
Copy OK

Track 21

Filename C:Usersastarte3. POSTVarious Artists - Country FiddleA21 I'm satisfied.wav

Pre-gap length 0:00:02.54

Peak level 94.2 %
Extraction speed 8.8 X
Track quality 100.0 %
Copy CRC 0AEB9F75
Accurately ripped (confidence 1) [1FE2D50A] (AR v2)
Copy OK

Track 22

Filename C:Usersastarte3. POSTVarious Artists - Country FiddleA22 Johnson's old grey mule.wav

Pre-gap length 0:00:02.54

Peak level 93.9 %
Extraction speed 9.2 X
Track quality 100.0 %
Copy CRC 54E44FA8
Accurately ripped (confidence 1) [84F86F4D] (AR v2)
Copy OK

Track 23

Filename C:Usersastarte3. POSTVarious Artists - Country FiddleA23 Shortenin' bread.wav

Pre-gap length 0:00:02.54

Peak level 89.0 %
Extraction speed 9.3 X
Track quality 100.0 %
Copy CRC 08AB88DC
Accurately ripped (confidence 1) [28A9EF0F] (AR v2)
Copy OK

Track 24

Filename C:Usersastarte3. POSTVarious Artists - Country FiddleA24 Hen cackle.wav

Pre-gap length 0:00:02.54

Peak level 79.3 %
Extraction speed 7.2 X
Track quality 99.9 %
Copy CRC E392A303
Accurately ripped (confidence 1) [9398B002] (AR v2)
Copy OK

Track 25

Filename C:Usersastarte3. POSTVarious Artists - Country FiddleA25 Mississippi Sawyer.wav

Pre-gap length 0:00:02.54

Peak level 79.3 %
Extraction speed 9.0 X
Track quality 100.0 %
Copy CRC 9125A8F0
Accurately ripped (confidence 1) [2ECF49CF] (AR v2)
Copy OK


All tracks accurately ripped

No errors occurred

End of status report

==== Log checksum 4F72B0B684DB20764044E20E5C8F131B9217D20F3358A0B7ED7AD8AEA24BF9F4 ====




Tracks:

cdB
01. Leake County Revelers / Saturday night breakdown [0:02:54.66]
02. Leake County Revelers / Georgia camp meeting [0:02:55.29]
03. Leake County Revelers / Johnson Gal [0:02:57.06]
04. Leake County Revelers / Leather breeches [0:03:09.60]
05. Leake County Revelers / The old hat [0:03:11.30]
06. Leake County Revelers / Monkey in th dog cart [0:03:05.32]
07. Leake County Revelers / Wednesday night waltz [0:03:00.68]
08. Leake County Revelers / I'm gwine back to dixie [0:02:55.69]
09. Leake County Revelers / Uncle Ned [0:02:57.64]
10. Leake County Revelers / Lonesome blues [0:03:10.61]
11. Leake County Revelers / Good fellow [0:02:59.74]
12. Leake County Revelers / Dry town blues [0:02:53.72]
13. Leake County Revelers / Mississippi breakdown [0:03:13.41]
14. Leake County Revelers / Sweet rose of heaven [0:03:06.93]
15. Leake County Revelers / Leake county blues [0:03:06.37]
16. Leake County Revelers / Been to the east / been to the west [0:03:12.34]
17. Leake County Revelers / Molly put the kettle on [0:02:59.64]
18. Leake County Revelers / Thirty first street blues [0:03:01.84]
19. Leake County Revelers / Julia waltz [0:03:12.34]
20. Leake County Revelers / In the good old summertime [0:02:56.66]
21. Leake County Revelers / Rockin' yodel [0:02:58.96]
22. Leake County Revelers / Birds in the brook [0:03:28.72]
23. Leake County Revelers / They go wild, simply wild over me [0:02:55.06]
24. Leake County Revelers / Crow black chicken [0:03:08.96]
25. Leake County Revelers / Lazy Kate [0:03:07.14]

Performers:

Leake County Revelers

Exact Audio Copy V1.0 beta 3 from 29. August 2011

EAC extraction logfile from 2. May 2015, 23:21

Leake County Revelers / Country Fiddle - Fine Early String Band Music 1924-1937 cd2

Used drive : TSSTcorpCDDVDW SH-216AB Adapter: 1 ID: 0

Read mode : Secure
Utilize accurate stream : Yes
Defeat audio cache : Yes
Make use of C2 pointers : No

Read offset correction : 6
Overread into Lead-In and Lead-Out : No
Fill up missing offset samples with silence : Yes
Delete leading and trailing silent blocks : No
Null samples used in CRC calculations : Yes
Used interface : Installed external ASPI interface
Gap handling : Appended to previous track

Used output format : User Defined Encoder
Selected bitrate : 768 kBit/s
Quality : High
Add ID3 tag : No
Command line compressor : C:Program Files (x86)Exact Audio CopyFLACFLAC.EXE
Additional command line options : -6 -V -T "ARTIST=%artist%" -T "TITLE=%title%" -T "ALBUM=%albumtitle%" -T "DATE=%year%" -T "TRACKNUMBER=%tracknr%" -T "GENRE=%genre%" -T "COMMENT=%comment%" -T "BAND=%albuminterpret%" -T "ALBUMARTIST=%albuminterpret%" -T "COMPOSER=%composer%" %haslyrics%--tag-from-file=LYRICS="%lyricsfile%"%haslyrics% -T "DISCNUMBER=%cdnumber%" -T "TOTALDISCS=%totalcds%" -T "TOTALTRACKS=%numtracks%" %hascover%--picture="%coverfile%"%hascover% %source% -o %dest%


TOC of the extracted CD

Track | Start | Length | Start sector | End sector
---------------------------------------------------------
1 | 0:00.00 | 2:54.50 | 0 | 13099
2 | 2:54.50 | 2:55.22 | 13100 | 26246
3 | 5:49.72 | 2:57.05 | 26247 | 39526
4 | 8:47.02 | 3:09.45 | 39527 | 53746
5 | 11:56.47 | 3:11.23 | 53747 | 68094
6 | 15:07.70 | 3:05.24 | 68095 | 81993
7 | 18:13.19 | 3:00.51 | 81994 | 95544
8 | 21:13.70 | 2:55.52 | 95545 | 108721
9 | 24:09.47 | 2:57.48 | 108722 | 122044
10 | 27:07.20 | 3:10.46 | 122045 | 136340
11 | 30:17.66 | 2:59.56 | 136341 | 149821
12 | 33:17.47 | 2:53.54 | 149822 | 162850
13 | 36:11.26 | 3:13.31 | 162851 | 177356
14 | 39:24.57 | 3:06.70 | 177357 | 191376
15 | 42:31.52 | 3:06.28 | 191377 | 205354
16 | 45:38.05 | 3:12.26 | 205355 | 219780
17 | 48:50.31 | 2:59.48 | 219781 | 233253
18 | 51:50.04 | 3:01.63 | 233254 | 246891
19 | 54:51.67 | 3:12.26 | 246892 | 261317
20 | 58:04.18 | 2:56.50 | 261318 | 274567
21 | 61:00.68 | 2:58.72 | 274568 | 287989
22 | 63:59.65 | 3:28.54 | 287990 | 303643
23 | 67:28.44 | 2:55.05 | 303644 | 316773
24 | 70:23.49 | 3:08.72 | 316774 | 330945
25 | 73:32.46 | 3:07.11 | 330946 | 344981


Track 1

Filename C:Usersastarte3. POSTVarious Artists - Country FiddleB1. Saturday night breakdown.wav

Pre-gap length 0:00:02.00

Peak level 84.0 %
Extraction speed 4.6 X
Track quality 100.0 %
Copy CRC 5EB55A55
Accurately ripped (confidence 1) [2A57AC1A] (AR v2)
Copy OK

Track 2

Filename C:Usersastarte3. POSTVarious Artists - Country FiddleB2. Georgia camp meeting.wav

Pre-gap length 0:00:02.54

Peak level 84.0 %
Extraction speed 3.8 X
Track quality 99.9 %
Copy CRC 0CFC44F6
Accurately ripped (confidence 1) [1FC735CE] (AR v2)
Copy OK

Track 3

Filename C:Usersastarte3. POSTVarious Artists - Country FiddleB3. Johnson Gal.wav

Pre-gap length 0:00:02.54

Peak level 79.3 %
Extraction speed 5.1 X
Track quality 100.0 %
Copy CRC E22CA324
Accurately ripped (confidence 1) [C0DE2320] (AR v2)
Copy OK

Track 4

Filename C:Usersastarte3. POSTVarious Artists - Country FiddleB4. Leather breeches.wav

Pre-gap length 0:00:02.54

Peak level 88.9 %
Extraction speed 5.6 X
Track quality 100.0 %
Copy CRC 791EB24B
Accurately ripped (confidence 1) [BB00DE8A] (AR v2)
Copy OK

Track 5

Filename C:Usersastarte3. POSTVarious Artists - Country FiddleB5. The old hat.wav

Pre-gap length 0:00:02.54

Peak level 84.0 %
Extraction speed 5.9 X
Track quality 100.0 %
Copy CRC 513051AD
Accurately ripped (confidence 1) [947244FE] (AR v2)
Copy OK

Track 6

Filename C:Usersastarte3. POSTVarious Artists - Country FiddleB6. Monkey in th dog cart.wav

Pre-gap length 0:00:02.54

Peak level 89.0 %
Extraction speed 6.2 X
Track quality 100.0 %
Copy CRC 28C28DDC
Accurately ripped (confidence 1) [A4BF449B] (AR v2)
Copy OK

Track 7

Filename C:Usersastarte3. POSTVarious Artists - Country FiddleB7. Wednesday night waltz.wav

Pre-gap length 0:00:02.54

Peak level 84.0 %
Extraction speed 6.3 X
Track quality 100.0 %
Copy CRC EF3FAD07
Accurately ripped (confidence 1) [103749A4] (AR v2)
Copy OK

Track 8

Filename C:Usersastarte3. POSTVarious Artists - Country FiddleB8. I'm gwine back to dixie.wav

Pre-gap length 0:00:02.54

Peak level 88.9 %
Extraction speed 6.5 X
Track quality 100.0 %
Copy CRC 7A980026
Accurately ripped (confidence 1) [B040A0DA] (AR v2)
Copy OK

Track 9

Filename C:Usersastarte3. POSTVarious Artists - Country FiddleB9. Uncle Ned.wav

Pre-gap length 0:00:02.54

Peak level 94.2 %
Extraction speed 5.2 X
Track quality 99.9 %
Copy CRC 80C3BA90
Accurately ripped (confidence 1) [3A2281D5] (AR v2)
Copy OK

Track 10

Filename C:Usersastarte3. POSTVarious Artists - Country FiddleB10. Lonesome blues.wav

Pre-gap length 0:00:02.54

Peak level 88.9 %
Extraction speed 6.8 X
Track quality 100.0 %
Copy CRC D5106CFC
Accurately ripped (confidence 1) [BC909CEA] (AR v2)
Copy OK

Track 11

Filename C:Usersastarte3. POSTVarious Artists - Country FiddleB11. Good fellow.wav

Pre-gap length 0:00:02.54

Peak level 83.9 %
Extraction speed 7.1 X
Track quality 100.0 %
Copy CRC 42B601C8
Accurately ripped (confidence 1) [ECDF7867] (AR v2)
Copy OK

Track 12

Filename C:Usersastarte3. POSTVarious Artists - Country FiddleB12. Dry town blues.wav

Pre-gap length 0:00:02.54

Peak level 84.0 %
Extraction speed 7.3 X
Track quality 100.0 %
Copy CRC 9C477492
Accurately ripped (confidence 1) [BD1E3DAB] (AR v2)
Copy OK

Track 13

Filename C:Usersastarte3. POSTVarious Artists - Country FiddleB13. Mississippi breakdown.wav

Pre-gap length 0:00:02.54

Peak level 89.0 %
Extraction speed 7.5 X
Track quality 100.0 %
Copy CRC 336F1489
Accurately ripped (confidence 1) [0766F9CD] (AR v2)
Copy OK

Track 14

Filename C:Usersastarte3. POSTVarious Artists - Country FiddleB14. Sweet rose of heaven.wav

Pre-gap length 0:00:02.54

Peak level 84.0 %
Extraction speed 7.7 X
Track quality 100.0 %
Copy CRC 56A6DB67
Accurately ripped (confidence 1) [C547D59A] (AR v2)
Copy OK

Track 15

Filename C:Usersastarte3. POSTVarious Artists - Country FiddleB15. Leake county blues.wav

Pre-gap length 0:00:02.54

Peak level 89.0 %
Extraction speed 8.0 X
Track quality 100.0 %
Copy CRC 765D8988
Accurately ripped (confidence 1) [30457110] (AR v2)
Copy OK

Track 16

Filename C:Usersastarte3. POSTVarious Artists - Country FiddleB16. Been to the east - been to the west.wav

Pre-gap length 0:00:02.54

Peak level 74.9 %
Extraction speed 8.2 X
Track quality 100.0 %
Copy CRC 9E5F6A52
Accurately ripped (confidence 1) [4F5994CF] (AR v2)
Copy OK

Track 17

Filename C:Usersastarte3. POSTVarious Artists - Country FiddleB17. Molly put the kettle on.wav

Pre-gap length 0:00:02.54

Peak level 89.0 %
Extraction speed 6.4 X
Track quality 99.9 %
Copy CRC 1BCA9E27
Accurately ripped (confidence 1) [85F71732] (AR v2)
Copy OK

Track 18

Filename C:Usersastarte3. POSTVarious Artists - Country FiddleB18. Thirty first street blues.wav

Pre-gap length 0:00:02.54

Peak level 94.3 %
Extraction speed 8.0 X
Track quality 100.0 %
Copy CRC 23D624B7
Accurately ripped (confidence 1) [6CE84AC3] (AR v2)
Copy OK

Track 19

Filename C:Usersastarte3. POSTVarious Artists - Country FiddleB19. Julia waltz.wav

Pre-gap length 0:00:02.54

Peak level 79.3 %
Extraction speed 8.7 X
Track quality 100.0 %
Copy CRC B6383B08
Accurately ripped (confidence 1) [A837FF0E] (AR v2)
Copy OK

Track 20

Filename C:Usersastarte3. POSTVarious Artists - Country FiddleB20. In the good old summertime.wav

Pre-gap length 0:00:02.54

Peak level 94.3 %
Extraction speed 8.8 X
Track quality 100.0 %
Copy CRC B25D8E03
Accurately ripped (confidence 1) [EB837A30] (AR v2)
Copy OK

Track 21

Filename C:Usersastarte3. POSTVarious Artists - Country FiddleB21. Rockin' yodel.wav

Pre-gap length 0:00:02.54

Peak level 84.0 %
Extraction speed 6.9 X
Track quality 99.9 %
Copy CRC B55F153F
Accurately ripped (confidence 1) [235BF8D3] (AR v2)
Copy OK

Track 22

Filename C:Usersastarte3. POSTVarious Artists - Country FiddleB22. Birds in the brook.wav

Pre-gap length 0:00:02.54

Peak level 84.0 %
Extraction speed 8.9 X
Track quality 100.0 %
Copy CRC 10FED15A
Accurately ripped (confidence 1) [38D800EF] (AR v2)
Copy OK

Track 23

Filename C:Usersastarte3. POSTVarious Artists - Country FiddleB23. They go wild, simply wild over me.wav

Pre-gap length 0:00:02.54

Peak level 79.3 %
Extraction speed 9.2 X
Track quality 100.0 %
Copy CRC 7974DB20
Accurately ripped (confidence 1) [A272BB41] (AR v2)
Copy OK

Track 24

Filename C:Usersastarte3. POSTVarious Artists - Country FiddleB24. Crow black chicken.wav

Pre-gap length 0:00:02.54

Peak level 84.0 %
Extraction speed 9.4 X
Track quality 100.0 %
Copy CRC 564F7686
Accurately ripped (confidence 1) [E6764E6C] (AR v2)
Copy OK

Track 25

Filename C:Usersastarte3. POSTVarious Artists - Country FiddleB25. Lazy Kate.wav

Pre-gap length 0:00:02.54

Peak level 73.9 %
Extraction speed 9.5 X
Track quality 100.0 %
Copy CRC 150478CE
Accurately ripped (confidence 1) [BC039CC0] (AR v2)
Copy OK


All tracks accurately ripped

No errors occurred

End of status report

==== Log checksum DE4F3C60B24B8FD18E0C7BD3C55D55E19F7FDD5860DDF08EBE2DEC50EF5D1A32 ====




Tracks:

cdC
01. East Texas Serenaders / Acorn stomp [0:02:56.14]
02. East Texas Serenaders / Combination rag [0:03:03.50]
03. East Texas Serenaders / Sweetest flower [0:03:16.64]
04. East Texas Serenaders / Babe [0:03:21.16]
05. East Texas Serenaders / Three in one two-step [0:02:48.30]
06. East Texas Serenaders / Dream shadows [0:03:15.29]
07. East Texas Serenaders / Beaumont rag [0:02:37.92]
08. East Texas Serenaders / Arizona stomp [0:02:30.77]
09. East Texas Serenaders / Shannon waltz (Brunswick version) [0:03:09.78]
10. East Texas Serenaders / Del Rio waltz [0:02:26.77]
11. East Texas Serenaders / Say a little prayer for me [0:02:54.20]
12. East Texas Serenaders / East Texas drag [0:02:37.01]
13. East Texas Serenaders / Gulf breeze waltz [0:03:00.72]
14. East Texas Serenaders / Aldeline waltz [0:02:54.00]
15. East Texas Serenaders / Ozark rag [0:03:10.44]
16. East Texas Serenaders / Before I grew up to love you [0:02:48.26]
17. East Texas Serenaders / Shannon waltz (Decca version) [0:02:22.18]
18. East Texas Serenaders / Mineola rag [0:02:47.06]
19. East Texas Serenaders / Serenader's waltz [0:02:47.97]
20. East Texas Serenaders / Deacon Jones [0:03:12.34]
21. East Texas Serenaders / Meadow brook waltz [0:03:13.65]
22. Dixie Ramblers / Ridin' in an old model T [0:02:47.61]
23. Freeny Harmonisers / Podunk toddle [0:02:38.05]
24. Walkers Corbin Ramblers / Stone mountain toddle [0:03:01.77]
25. Grinnell Giggers / Duck shoes rag [0:02:58.49]
26. Grinnell Giggers / Plow boy hop [0:02:51.25]

Performers:

Various artists; see tracklist

Exact Audio Copy V1.0 beta 3 from 29. August 2011

EAC extraction logfile from 2. May 2015, 23:55

Various Artists / Country Fiddle - Fine Early String Band Music 1924-1937 cd3

Used drive : TSSTcorpCDDVDW SH-216AB Adapter: 1 ID: 0

Read mode : Secure
Utilize accurate stream : Yes
Defeat audio cache : Yes
Make use of C2 pointers : No

Read offset correction : 6
Overread into Lead-In and Lead-Out : No
Fill up missing offset samples with silence : Yes
Delete leading and trailing silent blocks : No
Null samples used in CRC calculations : Yes
Used interface : Installed external ASPI interface
Gap handling : Appended to previous track

Used output format : User Defined Encoder
Selected bitrate : 768 kBit/s
Quality : High
Add ID3 tag : No
Command line compressor : C:Program Files (x86)Exact Audio CopyFLACFLAC.EXE
Additional command line options : -6 -V -T "ARTIST=%artist%" -T "TITLE=%title%" -T "ALBUM=%albumtitle%" -T "DATE=%year%" -T "TRACKNUMBER=%tracknr%" -T "GENRE=%genre%" -T "COMMENT=%comment%" -T "BAND=%albuminterpret%" -T "ALBUMARTIST=%albuminterpret%" -T "COMPOSER=%composer%" %haslyrics%--tag-from-file=LYRICS="%lyricsfile%"%haslyrics% -T "DISCNUMBER=%cdnumber%" -T "TOTALDISCS=%totalcds%" -T "TOTALTRACKS=%numtracks%" %hascover%--picture="%coverfile%"%hascover% %source% -o %dest%


TOC of the extracted CD

Track | Start | Length | Start sector | End sector
---------------------------------------------------------
1 | 0:00.00 | 2:56.11 | 0 | 13210
2 | 2:56.11 | 3:03.38 | 13211 | 26973
3 | 5:59.49 | 3:16.48 | 26974 | 41721
4 | 9:16.22 | 3:21.12 | 41722 | 56808
5 | 12:37.34 | 2:48.23 | 56809 | 69431
6 | 15:25.57 | 3:15.22 | 69432 | 84078
7 | 18:41.04 | 2:37.69 | 84079 | 95922
8 | 21:18.73 | 2:30.58 | 95923 | 107230
9 | 23:49.56 | 3:09.59 | 107231 | 121464
10 | 26:59.40 | 2:26.58 | 121465 | 132472
11 | 29:26.23 | 2:54.15 | 132473 | 145537
12 | 32:20.38 | 2:37.01 | 145538 | 157313
13 | 34:57.39 | 3:00.54 | 157314 | 170867
14 | 37:58.18 | 2:54.00 | 170868 | 183917
15 | 40:52.18 | 3:10.33 | 183918 | 198200
16 | 44:02.51 | 2:48.20 | 198201 | 210820
17 | 46:50.71 | 2:22.14 | 210821 | 221484
18 | 49:13.10 | 2:47.05 | 221485 | 234014
19 | 52:00.15 | 2:47.73 | 234015 | 246612
20 | 54:48.13 | 3:12.26 | 246613 | 261038
21 | 58:00.39 | 3:13.49 | 261039 | 275562
22 | 61:14.13 | 2:47.46 | 275563 | 288133
23 | 64:01.59 | 2:38.04 | 288134 | 299987
24 | 66:39.63 | 3:01.58 | 299988 | 313620
25 | 69:41.46 | 2:58.37 | 313621 | 327007
26 | 72:40.08 | 2:51.19 | 327008 | 339851


Track 1

Filename C:Usersastarte3. POSTVarious Artists - Country FiddleC1 Acorn stomp.wav

Pre-gap length 0:00:02.00

Peak level 84.0 %
Extraction speed 4.6 X
Track quality 100.0 %
Copy CRC FCCC2F37
Accurately ripped (confidence 1) [55A23E27] (AR v2)
Copy OK

Track 2

Filename C:Usersastarte3. POSTVarious Artists - Country FiddleC2 Combination rag.wav

Pre-gap length 0:00:02.54

Peak level 89.0 %
Extraction speed 5.0 X
Track quality 100.0 %
Copy CRC AC1757B1
Accurately ripped (confidence 1) [D248F6FC] (AR v2)
Copy OK

Track 3

Filename C:Usersastarte3. POSTVarious Artists - Country FiddleC3 Sweetest flower.wav

Pre-gap length 0:00:02.54

Peak level 94.2 %
Extraction speed 5.4 X
Track quality 100.0 %
Copy CRC 732EB4E8
Accurately ripped (confidence 1) [0DE7CA59] (AR v2)
Copy OK

Track 4

Filename C:Usersastarte3. POSTVarious Artists - Country FiddleC4 Babe.wav

Pre-gap length 0:00:02.54

Peak level 75.4 %
Extraction speed 4.6 X
Track quality 99.9 %
Copy CRC 7AEB3A08
Accurately ripped (confidence 1) [1C284EB5] (AR v2)
Copy OK

Track 5

Filename C:Usersastarte3. POSTVarious Artists - Country FiddleC5 Three in one two-step.wav

Pre-gap length 0:00:02.54

Peak level 84.0 %
Extraction speed 4.3 X
Track quality 99.9 %
Copy CRC EE06BF06
Accurately ripped (confidence 1) [BD02FF05] (AR v2)
Copy OK

Track 6

Filename C:Usersastarte3. POSTVarious Artists - Country FiddleC6 Dream shadows.wav

Pre-gap length 0:00:02.54

Peak level 94.2 %
Extraction speed 6.0 X
Track quality 100.0 %
Copy CRC CC3CDE8E
Accurately ripped (confidence 1) [FF842AF2] (AR v2)
Copy OK

Track 7

Filename C:Usersastarte3. POSTVarious Artists - Country FiddleC7 Beaumont rag.wav

Pre-gap length 0:00:02.54

Peak level 76.6 %
Extraction speed 6.2 X
Track quality 100.0 %
Copy CRC E675E98C
Accurately ripped (confidence 1) [F6CDBACD] (AR v2)
Copy OK

Track 8

Filename C:Usersastarte3. POSTVarious Artists - Country FiddleC8 Arizona stomp.wav

Pre-gap length 0:00:02.54

Peak level 79.3 %
Extraction speed 6.4 X
Track quality 100.0 %
Copy CRC C31C54EE
Accurately ripped (confidence 1) [B918E451] (AR v2)
Copy OK

Track 9

Filename C:Usersastarte3. POSTVarious Artists - Country FiddleC9 Shannon waltz (Brunswick version).wav

Pre-gap length 0:00:02.54

Peak level 74.8 %
Extraction speed 6.9 X
Track quality 100.0 %
Copy CRC DB79FFDC
Accurately ripped (confidence 1) [436C5137] (AR v2)
Copy OK

Track 10

Filename C:Usersastarte3. POSTVarious Artists - Country FiddleC10 Del Rio waltz.wav

Pre-gap length 0:00:02.54

Peak level 89.0 %
Extraction speed 6.6 X
Track quality 100.0 %
Copy CRC CC6D5C57
Accurately ripped (confidence 1) [395ABFC2] (AR v2)
Copy OK

Track 11

Filename C:Usersastarte3. POSTVarious Artists - Country FiddleC11 Say a little prayer for me.wav

Pre-gap length 0:00:02.54

Peak level 84.0 %
Extraction speed 7.1 X
Track quality 100.0 %
Copy CRC 1071D748
Accurately ripped (confidence 1) [9467DE79] (AR v2)
Copy OK

Track 12

Filename C:Usersastarte3. POSTVarious Artists - Country FiddleC12 East Texas drag.wav

Pre-gap length 0:00:02.54

Peak level 89.0 %
Extraction speed 5.4 X
Track quality 99.9 %
Copy CRC 1591BA35
Accurately ripped (confidence 1) [6F117E1C] (AR v2)
Copy OK

Track 13

Filename C:Usersastarte3. POSTVarious Artists - Country FiddleC13 Gulf breeze waltz.wav

Pre-gap length 0:00:02.54

Peak level 89.0 %
Extraction speed 7.2 X
Track quality 100.0 %
Copy CRC 23A1D27B
Accurately ripped (confidence 1) [73BC8370] (AR v2)
Copy OK

Track 14

Filename C:Usersastarte3. POSTVarious Artists - Country FiddleC14 Aldeline waltz.wav

Pre-gap length 0:00:02.54

Peak level 84.0 %
Extraction speed 7.7 X
Track quality 100.0 %
Copy CRC 22F8B557
Accurately ripped (confidence 1) [8AC0E543] (AR v2)
Copy OK

Track 15

Filename C:Usersastarte3. POSTVarious Artists - Country FiddleC15 Ozark rag.wav

Pre-gap length 0:00:02.54

Peak level 88.9 %
Extraction speed 8.0 X
Track quality 100.0 %
Copy CRC 0C1A97B5
Accurately ripped (confidence 1) [6F123C02] (AR v2)
Copy OK

Track 16

Filename C:Usersastarte3. POSTVarious Artists - Country FiddleC16 Before I grew up to love you.wav

Pre-gap length 0:00:02.54

Peak level 94.3 %
Extraction speed 7.9 X
Track quality 100.0 %
Copy CRC B391EECE
Accurately ripped (confidence 1) [5AEDA1CB] (AR v2)
Copy OK

Track 17

Filename C:Usersastarte3. POSTVarious Artists - Country FiddleC17 Shannon waltz (Decca version).wav

Pre-gap length 0:00:02.54

Peak level 94.3 %
Extraction speed 7.9 X
Track quality 100.0 %
Copy CRC 6193CFCD
Accurately ripped (confidence 1) [E6BEF8A7] (AR v2)
Copy OK

Track 18

Filename C:Usersastarte3. POSTVarious Artists - Country FiddleC18 Mineola rag.wav

Pre-gap length 0:00:02.54

Peak level 88.9 %
Extraction speed 8.2 X
Track quality 100.0 %
Copy CRC 90C2D7B2
Accurately ripped (confidence 1) [68051987] (AR v2)
Copy OK

Track 19

Filename C:Usersastarte3. POSTVarious Artists - Country FiddleC19 Serenader's waltz.wav

Pre-gap length 0:00:02.54

Peak level 89.0 %
Extraction speed 6.3 X
Track quality 99.9 %
Copy CRC 3F82AA36
Accurately ripped (confidence 1) [D4F23412] (AR v2)
Copy OK

Track 20

Filename C:Usersastarte3. POSTVarious Artists - Country FiddleC20 Deacon Jones.wav

Pre-gap length 0:00:02.54

Peak level 89.0 %
Extraction speed 8.4 X
Track quality 100.0 %
Copy CRC 58B5FA51
Accurately ripped (confidence 1) [BF60E8E7] (AR v2)
Copy OK

Track 21

Filename C:Usersastarte3. POSTVarious Artists - Country FiddleC21 Meadow brook waltz.wav

Pre-gap length 0:00:02.54

Peak level 84.0 %
Extraction speed 8.9 X
Track quality 100.0 %
Copy CRC 82ACA3DC
Accurately ripped (confidence 1) [3B74F64D] (AR v2)
Copy OK

Track 22

Filename C:Usersastarte3. POSTVarious Artists - Country FiddleC22 Ridin' in an old model T.wav

Pre-gap length 0:00:02.54

Peak level 88.9 %
Extraction speed 6.6 X
Track quality 99.9 %
Copy CRC 77901407
Accurately ripped (confidence 1) [327EB50E] (AR v2)
Copy OK

Track 23

Filename C:Usersastarte3. POSTVarious Artists - Country FiddleC23 Podunk toddle.wav

Pre-gap length 0:00:02.54

Peak level 94.2 %
Extraction speed 6.4 X
Track quality 99.9 %
Copy CRC 594AD37C
Accurately ripped (confidence 1) [4D4C08FA] (AR v2)
Copy OK

Track 24

Filename C:Usersastarte3. POSTVarious Artists - Country FiddleC24 Stone mountain toddle.wav

Pre-gap length 0:00:02.54

Peak level 89.0 %
Extraction speed 8.7 X
Track quality 100.0 %
Copy CRC A17F6725
Accurately ripped (confidence 1) [31E8EA08] (AR v2)
Copy OK

Track 25

Filename C:Usersastarte3. POSTVarious Artists - Country FiddleC25 Duck shoes rag.wav

Pre-gap length 0:00:02.54

Peak level 70.7 %
Extraction speed 9.5 X
Track quality 100.0 %
Copy CRC EF5C1BEE
Accurately ripped (confidence 1) [9D3E71EC] (AR v2)
Copy OK

Track 26

Filename C:Usersastarte3. POSTVarious Artists - Country FiddleC26 Plow boy hop.wav

Pre-gap length 0:00:02.54

Peak level 79.3 %
Extraction speed 9.5 X
Track quality 100.0 %
Copy CRC B54AC368
Accurately ripped (confidence 1) [006111E1] (AR v2)
Copy OK


All tracks accurately ripped

No errors occurred

End of status report

==== Log checksum AE0AC2124DEDEDC92B98ACC7FC7027ED5E42C40319D248EAF047180046DB143F ====




Tracks:

cdD
01. Aiken County String Band / Charleston rag [0:02:52.24]
02. Aiken County String Band / Savannah river stride [0:03:02.56]
03. Aiken County String Band / Harrisburg itch [0:03:05.72]
04. Aiken County String Band / Hard times breakdown [0:03:03.26]
05. Dr. Smith's Champion Hoss Hair Pullers / Going down the river [0:02:56.13]
06. Dr. Smith's Champion Hoss Hair Pullers / Just gimme the leavings [0:03:04.41]
07. Dr. Smith's Champion Hoss Hair Pullers / Up in glory [0:03:04.70]
08. Dr. Smith's Champion Hoss Hair Pullers / Save my mother's picture from the sale [0:02:59.02]
09. Dr. Smith's Champion Hoss Hair Pullers / In the garden where the Irish potatoes grew [0:03:01.57]
10. Dr. Humphrey Bate & His Possum Hunters / Goin' up town [0:02:56.69]
11. Dr. Humphrey Bate & His Possum Hunters / My wife died Saturday night [0:02:50.34]
12. Dr. Humphrey Bate & His Possum Hunters / Billy in the low ground [0:02:50.30]
13. Dr. Humphrey Bate & His Possum Hunters / Eighth of January [0:02:52.24]
14. Dr. Humphrey Bate & His Possum Hunters / Throw the old cow over the fence [0:02:57.81]
15. Dr. Humphrey Bate & His Possum Hunters / Take your foot out of the mud and put it in the sand [0:02:50.73]
16. Chenoweth's Cornfield Symphony Orchestra / The last shot got him [0:02:50.74]
17. Cherokee Ramblers / Goin' down the road feelin' bad [0:02:47.65]
18. Cherokee Ramblers / Magnolia waltz [0:03:00.56]
19. Floyd Ming & His Pep-Steppers / Indian war whoop [0:03:09.88]
20. Floyd Ming & His Pep-Steppers / Tupelo blues [0:03:24.33]
21. Floyd Ming & His Pep-Steppers / White mule [0:03:22.33]
22. Moatsville String Ticklers / West Virginia hills [0:02:36.74]
23. Moatsville String Ticklers / Moatsville blues [0:02:57.92]
24. Dykes Magic City Trio / Frankie [0:03:00.34]
25. Dykes Magic City Trio / Poor Ellen Smith [0:03:01.68]

Performers:

Various artists; see tracklist

Exact Audio Copy V1.0 beta 3 from 29. August 2011

EAC extraction logfile from 3. May 2015, 0:18

Various Artists / Country Fiddle - Fine Early String Band Music 1924-1937 cd4

Used drive : TSSTcorpCDDVDW SH-216AB Adapter: 1 ID: 0

Read mode : Secure
Utilize accurate stream : Yes
Defeat audio cache : Yes
Make use of C2 pointers : No

Read offset correction : 6
Overread into Lead-In and Lead-Out : No
Fill up missing offset samples with silence : Yes
Delete leading and trailing silent blocks : No
Null samples used in CRC calculations : Yes
Used interface : Installed external ASPI interface
Gap handling : Appended to previous track

Used output format : User Defined Encoder
Selected bitrate : 768 kBit/s
Quality : High
Add ID3 tag : No
Command line compressor : C:Program Files (x86)Exact Audio CopyFLACFLAC.EXE
Additional command line options : -6 -V -T "ARTIST=%artist%" -T "TITLE=%title%" -T "ALBUM=%albumtitle%" -T "DATE=%year%" -T "TRACKNUMBER=%tracknr%" -T "GENRE=%genre%" -T "COMMENT=%comment%" -T "BAND=%albuminterpret%" -T "ALBUMARTIST=%albuminterpret%" -T "COMPOSER=%composer%" %haslyrics%--tag-from-file=LYRICS="%lyricsfile%"%haslyrics% -T "DISCNUMBER=%cdnumber%" -T "TOTALDISCS=%totalcds%" -T "TOTALTRACKS=%numtracks%" %hascover%--picture="%coverfile%"%hascover% %source% -o %dest%


TOC of the extracted CD

Track | Start | Length | Start sector | End sector
---------------------------------------------------------
1 | 0:00.00 | 2:52.18 | 0 | 12917
2 | 2:52.18 | 3:02.42 | 12918 | 26609
3 | 5:54.60 | 3:05.54 | 26610 | 40538
4 | 9:00.39 | 3:03.20 | 40539 | 54283
5 | 12:03.59 | 2:56.10 | 54284 | 67493
6 | 14:59.69 | 3:04.31 | 67494 | 81324
7 | 18:04.25 | 3:04.53 | 81325 | 95177
8 | 21:09.03 | 2:59.02 | 95178 | 108604
9 | 24:08.05 | 3:01.43 | 108605 | 122222
10 | 27:09.48 | 2:56.52 | 122223 | 135474
11 | 30:06.25 | 2:50.26 | 135475 | 148250
12 | 32:56.51 | 2:50.23 | 148251 | 161023
13 | 35:46.74 | 2:52.18 | 161024 | 173941
14 | 38:39.17 | 2:57.61 | 173942 | 187277
15 | 41:37.03 | 2:50.55 | 187278 | 200082
16 | 44:27.58 | 2:50.56 | 200083 | 212888
17 | 47:18.39 | 2:47.49 | 212889 | 225462
18 | 50:06.13 | 3:00.42 | 225463 | 239004
19 | 53:06.55 | 3:09.66 | 239005 | 253245
20 | 56:16.46 | 3:24.25 | 253246 | 268570
21 | 59:40.71 | 3:22.25 | 268571 | 283745
22 | 63:03.21 | 2:36.56 | 283746 | 295501
23 | 65:40.02 | 2:57.69 | 295502 | 308845
24 | 68:37.71 | 3:00.26 | 308846 | 322371
25 | 71:38.22 | 3:01.51 | 322372 | 335997


Track 1

Filename C:Usersastarte3. POSTVarious Artists - Country FiddleD1 Charleston rag.wav

Pre-gap length 0:00:02.00

Peak level 94.3 %
Extraction speed 4.6 X
Track quality 100.0 %
Copy CRC 0F537726
Accurately ripped (confidence 1) [40907B63] (AR v2)
Copy OK

Track 2

Filename C:Usersastarte3. POSTVarious Artists - Country FiddleD2 Savannah river stride.wav

Pre-gap length 0:00:02.54

Peak level 94.3 %
Extraction speed 3.9 X
Track quality 99.9 %
Copy CRC EB6268D5
Accurately ripped (confidence 1) [CFC34A03] (AR v2)
Copy OK

Track 3

Filename C:Usersastarte3. POSTVarious Artists - Country FiddleD3 Harrisburg itch.wav

Pre-gap length 0:00:02.54

Peak level 89.0 %
Extraction speed 5.1 X
Track quality 100.0 %
Copy CRC 39484052
Accurately ripped (confidence 1) [7E9EE832] (AR v2)
Copy OK

Track 4

Filename C:Usersastarte3. POSTVarious Artists - Country FiddleD4 Hard times breakdown.wav

Pre-gap length 0:00:02.54

Peak level 94.3 %
Extraction speed 4.3 X
Track quality 99.9 %
Copy CRC CF54E5A0
Accurately ripped (confidence 1) [D6191257] (AR v2)
Copy OK

Track 5

Filename C:Usersastarte3. POSTVarious Artists - Country FiddleD5 Going down the river.wav

Pre-gap length 0:00:02.54

Peak level 79.3 %
Extraction speed 5.6 X
Track quality 100.0 %
Copy CRC 01CFD1F1
Accurately ripped (confidence 1) [3EBFDD52] (AR v2)
Copy OK

Track 6

Filename C:Usersastarte3. POSTVarious Artists - Country FiddleD6 Just gimme the leavings.wav

Pre-gap length 0:00:02.54

Peak level 84.0 %
Extraction speed 6.2 X
Track quality 100.0 %
Copy CRC 50038433
Accurately ripped (confidence 1) [B8728D5D] (AR v2)
Copy OK

Track 7

Filename C:Usersastarte3. POSTVarious Artists - Country FiddleD7 Up in glory.wav

Pre-gap length 0:00:02.54

Peak level 84.0 %
Extraction speed 6.4 X
Track quality 100.0 %
Copy CRC F6BDFF37
Accurately ripped (confidence 1) [762337F0] (AR v2)
Copy OK

Track 8

Filename C:Usersastarte3. POSTVarious Artists - Country FiddleD8 Save my mother's picture from the sale.wav

Pre-gap length 0:00:02.54

Peak level 84.0 %
Extraction speed 6.7 X
Track quality 100.0 %
Copy CRC 4433D76D
Accurately ripped (confidence 1) [575C01E5] (AR v2)
Copy OK

Track 9

Filename C:Usersastarte3. POSTVarious Artists - Country FiddleD9 In the garden where the Irish potatoes grew.wav

Pre-gap length 0:00:02.54

Peak level 89.0 %
Extraction speed 5.3 X
Track quality 99.9 %
Copy CRC 1490DAA2
Accurately ripped (confidence 1) [A1FD6CE0] (AR v2)
Copy OK

Track 10

Filename C:Usersastarte3. POSTVarious Artists - Country FiddleD10 Goin' up town.wav

Pre-gap length 0:00:02.54

Peak level 84.0 %
Extraction speed 6.8 X
Track quality 100.0 %
Copy CRC 115B8CCD
Accurately ripped (confidence 1) [D39D421D] (AR v2)
Copy OK

Track 11

Filename C:Usersastarte3. POSTVarious Artists - Country FiddleD11 My wife died Saturday night.wav

Pre-gap length 0:00:02.54

Peak level 84.0 %
Extraction speed 7.1 X
Track quality 100.0 %
Copy CRC 0B6DE1AC
Accurately ripped (confidence 1) [F2EB83F2] (AR v2)
Copy OK

Track 12

Filename C:Usersastarte3. POSTVarious Artists - Country FiddleD12 Billy in the low ground.wav

Pre-gap length 0:00:02.54

Peak level 86.6 %
Extraction speed 5.6 X
Track quality 99.9 %
Copy CRC 868B9C9A
Accurately ripped (confidence 1) [874C2235] (AR v2)
Copy OK

Track 13

Filename C:Usersastarte3. POSTVarious Artists - Country FiddleD13 Eighth of January.wav

Pre-gap length 0:00:02.54

Peak level 74.8 %
Extraction speed 7.3 X
Track quality 100.0 %
Copy CRC E5ECF59A
Accurately ripped (confidence 1) [41282F59] (AR v2)
Copy OK

Track 14

Filename C:Usersastarte3. POSTVarious Artists - Country FiddleD14 Throw the old cow over the fence.wav

Pre-gap length 0:00:02.54

Peak level 84.0 %
Extraction speed 7.8 X
Track quality 100.0 %
Copy CRC 40F9A058
Accurately ripped (confidence 1) [CC4EDF3C] (AR v2)
Copy OK

Track 15

Filename C:Usersastarte3. POSTVarious Artists - Country FiddleD15 Take your foot out of the mud and put it in the sand.wav

Pre-gap length 0:00:02.54

Peak level 89.0 %
Extraction speed 7.9 X
Track quality 100.0 %
Copy CRC 10FF5512
Accurately ripped (confidence 1) [55E5C971] (AR v2)
Copy OK

Track 16

Filename C:Usersastarte3. POSTVarious Artists - Country FiddleD16 The last shot got him.wav

Pre-gap length 0:00:02.54

Peak level 84.0 %
Extraction speed 8.0 X
Track quality 100.0 %
Copy CRC 3B8FF595
Accurately ripped (confidence 1) [BCA5333B] (AR v2)
Copy OK

Track 17

Filename C:Usersastarte3. POSTVarious Artists - Country FiddleD17 Goin' down the road feelin' bad.wav

Pre-gap length 0:00:02.54

Peak level 83.1 %
Extraction speed 6.1 X
Track quality 99.9 %
Copy CRC 69740781
Accurately ripped (confidence 1) [6879E206] (AR v2)
Copy OK

Track 18

Filename C:Usersastarte3. POSTVarious Artists - Country FiddleD18 Magnolia waltz.wav

Pre-gap length 0:00:02.54

Peak level 84.0 %
Extraction speed 6.2 X
Track quality 99.9 %
Copy CRC 04B9DDBD
Accurately ripped (confidence 1) [12F7315D] (AR v2)
Copy OK

Track 19

Filename C:Usersastarte3. POSTVarious Artists - Country FiddleD19 Indian war whoop.wav

Pre-gap length 0:00:02.54

Peak level 83.6 %
Extraction speed 6.5 X
Track quality 99.9 %
Copy CRC 7EE54780
Accurately ripped (confidence 1) [6E9D6F61] (AR v2)
Copy OK

Track 20

Filename C:Usersastarte3. POSTVarious Artists - Country FiddleD20 Tupelo blues.wav

Pre-gap length 0:00:02.54

Peak level 83.9 %
Extraction speed 8.6 X
Track quality 100.0 %
Copy CRC 58842E04
Accurately ripped (confidence 1) [7529980A] (AR v2)
Copy OK

Track 21

Filename C:Usersastarte3. POSTVarious Artists - Country FiddleD21 White mule.wav

Pre-gap length 0:00:02.54

Peak level 94.3 %
Extraction speed 9.1 X
Track quality 100.0 %
Copy CRC 5669AA6B
Accurately ripped (confidence 1) [80A35019] (AR v2)
Copy OK

Track 22

Filename C:Usersastarte3. POSTVarious Artists - Country FiddleD22 West Virginia hills.wav

Pre-gap length 0:00:02.54

Peak level 89.0 %
Extraction speed 9.0 X
Track quality 100.0 %
Copy CRC 64FDE2B8
Accurately ripped (confidence 1) [5F2B871F] (AR v2)
Copy OK

Track 23

Filename C:Usersastarte3. POSTVarious Artists - Country FiddleD23 Moatsville blues.wav

Pre-gap length 0:00:02.54

Peak level 75.1 %
Extraction speed 7.0 X
Track quality 99.9 %
Copy CRC 4035B8CE
Accurately ripped (confidence 1) [AE18B7A9] (AR v2)
Copy OK

Track 24

Filename C:Usersastarte3. POSTVarious Artists - Country FiddleD24 Frankie.wav

Pre-gap length 0:00:02.54

Peak level 94.2 %
Extraction speed 8.9 X
Track quality 100.0 %
Copy CRC E5E05A12
Accurately ripped (confidence 1) [2EAA6137] (AR v2)
Copy OK

Track 25

Filename C:Usersastarte3. POSTVarious Artists - Country FiddleD25 Poor Ellen Smith.wav

Pre-gap length 0:00:02.54

Peak level 78.6 %
Extraction speed 9.6 X
Track quality 100.0 %
Copy CRC 68C17847
Accurately ripped (confidence 1) [41FCD4C0] (AR v2)
Copy OK


All tracks accurately ripped

No errors occurred

End of status report

==== Log checksum 73F4C23D55F33E9C5BBD863A89E3A384CAAC09D7C1B1B127CB5644C575194A67 ====
A

B

C

D