Вход в свой аккаунт

Или войдите через соц. сети

Soul Souvenirs - Volume One (1991)


Soul Souvenirs - Volume One (1991)
EAC Rip | FLAC (Tracks) +CUE, LOG | 397 MB | Covers Included
R&B | Label: Epic | Catalog Number: 467878 2

“ 12 track compilation album featuring the best of Soul artists from the CBS catalogue. Truly one of the best ever soul compilations ever produced. ”


Exact Audio Copy V1.0 beta 3 from 29. August 2011

EAC extraction logfile from 15. May 2015, 17:24

Various / Soul Souvenirs - Volume One

Used drive : ATAPI DVD A DH16A6L-C Adapter: 2 ID: 0

Read mode : Secure
Utilize accurate stream : Yes
Defeat audio cache : Yes
Make use of C2 pointers : No

Read offset correction : 6
Overread into Lead-In and Lead-Out : No
Fill up missing offset samples with silence : Yes
Delete leading and trailing silent blocks : No
Null samples used in CRC calculations : Yes
Used interface : Native Win32 interface for Win NT & 2000
Gap handling : Appended to previous track

Used output format : User Defined Encoder
Selected bitrate : 1024 kBit/s
Quality : High
Add ID3 tag : No
Command line compressor : C:Program FilesFLACflac.exe
Additional command line options : -8 -V -T "ARTIST=%artist%" -T "TITLE=%title%" -T "ALBUM=%albumtitle%" -T "DATE=%year%" -T "TRACKNUMBER=%tracknr%" -T "GENRE=%genre%" -T "PERFORMER=%albuminterpret%" -T "COMPOSER=%composer%" %haslyrics%--tag-from-file=LYRICS="%lyricsfile%"%haslyrics% -T "ALBUMARTIST=%albumartist%" -T "DISCNUMBER=%cdnumber%" -T "TOTALDISCS=%totalcds%" -T "TOTALTRACKS=%numtracks%" -T "COMMENT=%comment%" %source% -o %dest%


TOC of the extracted CD

Track | Start | Length | Start sector | End sector
---------------------------------------------------------
1 | 0:00.00 | 4:18.25 | 0 | 19374
2 | 4:18.25 | 2:15.00 | 19375 | 29499
3 | 6:33.25 | 4:59.37 | 29500 | 51961
4 | 11:32.62 | 3:09.65 | 51962 | 66201
5 | 14:42.52 | 3:57.10 | 66202 | 83986
6 | 18:39.62 | 5:49.13 | 83987 | 110174
7 | 24:29.00 | 5:23.05 | 110175 | 134404
8 | 29:52.05 | 5:56.65 | 134405 | 161169
9 | 35:48.70 | 5:09.67 | 161170 | 184411
10 | 40:58.62 | 3:31.50 | 184412 | 200286
11 | 44:30.37 | 4:01.53 | 200287 | 218414
12 | 48:32.15 | 3:40.60 | 218415 | 234974


Track 1

Filename H:..................00000POSTTTSoul Souvenirs - Volume One (1991)1 - Lou Courtney - I'm In Need Of Love.wav

Pre-gap length 0:00:02.00

Peak level 88.6 %
Extraction speed 3.4 X
Track quality 100.0 %
Test CRC 68E1F6B9
Copy CRC 68E1F6B9
Track not present in AccurateRip database
Copy OK

Track 2

Filename H:..................00000POSTTTSoul Souvenirs - Volume One (1991)2 - Ujima - Hip To Your Ways.wav

Pre-gap length 0:00:01.30

Peak level 96.8 %
Extraction speed 3.4 X
Track quality 100.0 %
Test CRC B48EA099
Copy CRC B48EA099
Track not present in AccurateRip database
Copy OK

Track 3

Filename H:..................00000POSTTTSoul Souvenirs - Volume One (1991)3 - Jimmy Messina - Love Is Here.wav

Pre-gap length 0:00:01.28

Peak level 90.3 %
Extraction speed 4.2 X
Track quality 100.0 %
Test CRC 8310A009
Copy CRC 8310A009
Track not present in AccurateRip database
Copy OK

Track 4

Filename H:..................00000POSTTTSoul Souvenirs - Volume One (1991)4 - Buddy Miles - Just A Kiss Away.wav

Pre-gap length 0:00:00.67

Peak level 79.2 %
Extraction speed 3.3 X
Track quality 99.9 %
Test CRC 3E406B02
Copy CRC 3E406B02
Track not present in AccurateRip database
Copy OK

Track 5

Filename H:..................00000POSTTTSoul Souvenirs - Volume One (1991)5 - Lamont Dozier - You Make Me A Believer.wav

Pre-gap length 0:00:01.62

Peak level 88.3 %
Extraction speed 4.5 X
Track quality 100.0 %
Test CRC 0EBB858C
Copy CRC 0EBB858C
Track not present in AccurateRip database
Copy OK

Track 6

Filename H:..................00000POSTTTSoul Souvenirs - Volume One (1991)6 - Bobbie Humphrey - The Good Life.wav

Pre-gap length 0:00:00.57

Peak level 85.0 %
Extraction speed 4.9 X
Track quality 100.0 %
Test CRC 21F9F107
Copy CRC 21F9F107
Track not present in AccurateRip database
Copy OK

Track 7

Filename H:..................00000POSTTTSoul Souvenirs - Volume One (1991)7 - Clifford Coulter - Love's Too Hot To Hide.wav

Pre-gap length 0:00:01.08

Peak level 91.8 %
Extraction speed 5.4 X
Track quality 100.0 %
Test CRC 932F9E48
Copy CRC 932F9E48
Track not present in AccurateRip database
Copy OK

Track 8

Filename H:..................00000POSTTTSoul Souvenirs - Volume One (1991)8 - Rosie Gaines - Crazy.wav

Pre-gap length 0:00:00.38

Peak level 78.1 %
Extraction speed 5.0 X
Track quality 99.9 %
Test CRC 61278B70
Copy CRC 61278B70
Track not present in AccurateRip database
Copy OK

Track 9

Filename H:..................00000POSTTTSoul Souvenirs - Volume One (1991)9 - Al Johnson - I'm Back For More.wav

Pre-gap length 0:00:01.00

Peak level 91.9 %
Extraction speed 5.1 X
Track quality 99.9 %
Test CRC 7302688F
Copy CRC 7302688F
Track not present in AccurateRip database
Copy OK

Track 10

Filename H:..................00000POSTTTSoul Souvenirs - Volume One (1991)10 - Randy Jackson - How Can I Be Sure.wav

Pre-gap length 0:00:01.32

Peak level 100.0 %
Extraction speed 3.9 X
Track quality 99.9 %
Test CRC 886D005D
Copy CRC 886D005D
Track not present in AccurateRip database
Copy OK

Track 11

Filename H:..................00000POSTTTSoul Souvenirs - Volume One (1991)11 - Marlena Shaw - Look At Me, Look At You (We're Flying).wav

Pre-gap length 0:00:01.37

Peak level 88.5 %
Extraction speed 5.1 X
Track quality 99.9 %
Test CRC 61926410
Copy CRC 61926410
Track not present in AccurateRip database
Copy OK

Track 12

Filename H:..................00000POSTTTSoul Souvenirs - Volume One (1991)12 - Keith Barrow - You Know You Want To Be Loved.wav

Pre-gap length 0:00:00.08

Peak level 91.3 %
Extraction speed 5.1 X
Track quality 99.9 %
Test CRC FE24FEDF
Copy CRC FE24FEDF
Track not present in AccurateRip database
Copy OK


None of the tracks are present in the AccurateRip database

No errors occurred

End of status report

==== Log checksum E7DD8A50C70AD3D2BE3DC1925CDAD64553F3DD9C5F2733EBB87BA630F91B0C8A ====


Tracklist:
01. Lou Courtney – I'm In Need Of Love
02. Ujima – Hip To Your Ways
03. Jimmy Messina – Love Is Here
04. Buddy Miles – Just A Kiss Away
05. Lamont Dozier – You Make Me A Believer
06. Bobbie Humphrey – The Good Life
07. Clifford Coulter – Love's Too Hot To Hide
08. Rosie Gaines – Crazy
09. Al Johnson – I'm Back For More
10. Randy Jackson – How Can I Be Sure
11. Marlena Shaw – Look At Me Look At You (We're Flying)
12. Keith Barrow – You Know You Want To Be Loved