Art Blakey, Bud Powell, Barney Wilen, Wayne Shorter, Lee Morgan - Paris Jam Session (1961) CD issue 1988


Art Blakey, Bud Powell, Barney Wilen, Wayne Shorter, Lee Morgan - Paris Jam Session (1961) CD issue 1988
Live at the Théâtre des Champs-Elysées, Paris, France, December 18, 1959

EAC | FLAC | Image (Cue&Log) ~ 297 Mb (incl 5%) | Mp3 (CBR320) ~ 114 Mb (incl 5%) | Scans included
Genre: Hard Bop | Label: Fontana | # 832 692-2 | Time: 00:42:15

This 1959 concert in Paris by Art Blakey's Jazz Messengers has been sporadically available on various labels, but this reissue in Verve's Jazz in Paris series is the best sounding and best packaged of the lot. Blakey's group of this period (Lee Morgan, Wayne Shorter, Jymie Merritt, and Walter Davis, Jr.) is in great form during an extended workout of Morgan's intense blues "The Midget," and Dizzy Gillespie's timeless "A Night in Tunisia" is kicked off by Blakey's an electrifying solo. But it is the addition of some special guests for the first two numbers that proves to be extra special. Bud Powell, sitting in for Davis, and French saxophonist Barney Wilen, on alto rather than his normal tenor sax, are both added to the band for inspired versions of Powell's "Dance of the Infidels" and "Bouncing with Bud." Morgan's trumpet playing is outstanding throughout the concert. This is one of the essential live dates in Art Blakey's rather extensive discography.

Review by Ken Dryden, Allmusic.com





Tracklist:

01. Dance Of The Infidels (12:27)
02. Bouncing With Bud (11:41)
03. The Midget (11:05)
04. Night In Tunisia (7:02)


Personnel:

Barney Wilen - as (1, 2)
Wayne Shorter - ts
Bud Powell - p (1, 2)
Walter Davis Junior - p (3, 4)
Jimmy Meritt - b
Lee Morgan - tp
Art Blakey - d

Exact Audio Copy V1.0 beta 3 from 29. August 2011

EAC extraction logfile from 7. January 2013, 13:55

Art Blakey / Paris Jam Session

Used drive : HL-DT-STBDDVDRW GBC-H20N Adapter: 1 ID: 0

Read mode : Secure
Utilize accurate stream : Yes
Defeat audio cache : Yes
Make use of C2 pointers : No

Read offset correction : 667
Overread into Lead-In and Lead-Out : No
Fill up missing offset samples with silence : Yes
Delete leading and trailing silent blocks : No
Null samples used in CRC calculations : Yes
Used interface : Native Win32 interface for Win NT & 2000

Used output format : User Defined Encoder
Selected bitrate : 1024 kBit/s
Quality : High
Add ID3 tag : No
Command line compressor : C:Program FilesExact Audio Copywavpack.exe
Additional command line options : -hm %source% %dest%


TOC of the extracted CD

Track | Start | Length | Start sector | End sector
---------------------------------------------------------
1 | 0:00.33 | 12:26.45 | 33 | 56027
2 | 12:27.03 | 11:40.72 | 56028 | 108599
3 | 24:08.00 | 11:05.28 | 108600 | 158502
4 | 35:13.28 | 7:02.30 | 158503 | 190182


Range status and errors

Selected range

Filename C:UsersProgDogMusicZALIVKIArt BlakeyParis Jam Session (1961)Art Blakey - Paris Jam Session.wav

Peak level 98.2 %
Extraction speed 5.8 X
Range quality 100.0 %
Test CRC 85DA6BB0
Copy CRC 85DA6BB0
Copy OK

No errors occurred


AccurateRip summary

Track 1 accurately ripped (confidence 1) [BA9BF524] (AR v1)
Track 2 accurately ripped (confidence 1) [E48D039E] (AR v1)
Track 3 cannot be verified as accurate (confidence 1) [70A7CCE7], AccurateRip returned [A93F4CB5] (AR v2)
Track 4 cannot be verified as accurate (confidence 1) [F75E4C02], AccurateRip returned [5A68123A] (AR v2)

2 track(s) accurately ripped
2 track(s) could not be verified as accurate

Some tracks could not be verified as accurate

End of status report

---- CUETools DB Plugin V2.1.3

[CTDB TOCID: s.yezERKHanWO1BXZ3b7y19Wb2I-] disk not present in database, Submit result: discs with pregaps not supported in this protocol version


==== Log checksum 246A53F602677DC89FFA0458E530F340927C52C10F54F7BEC8D7F2F6F637646A ====

[CUETools log; Date: 17.05.2015 14:40:35; Version: 2.1.5]
Pregap length 00:00:33.
[CTDB TOCID: s.yezERKHanWO1BXZ3b7y19Wb2I-] found.
Track | CTDB Status
1 | (2/2) Accurately ripped
2 | (2/2) Accurately ripped
3 | (2/2) Accurately ripped
4 | (2/2) Accurately ripped
[AccurateRip ID: 0007d543-001edda0-2909e704] found.
Track [ CRC | V2 ] Status
01 [ba9bf524|f0f16f58] (0+6/6) Accurately ripped
02 [e48d039e|01392cc7] (0+6/6) Accurately ripped
03 [de2a89de|70a7cce7] (0+6/6) Accurately ripped
04 [7a9545b8|f75e4c02] (0+6/6) Accurately ripped

Track Peak [ CRC32 ] [W/O NULL] [ LOG ]
-- 98,2 [85DA6BB0] [BA7D17B1] CRC32
01 98,2 [BD974249] [C7640C27]
02 95,5 [91508FD8] [5791FDA4]
03 97,3 [3A590FBA] [D5C5A82D]
04 93,3 [2A3CF179] [CD31FB72]

foobar2000 1.3.8 / Dynamic Range Meter 1.1.1
log date: 2015-05-17 14:32:55

--------------------------------------------------------------------------------
Analyzed: Art Blakey / Paris Jam Session
--------------------------------------------------------------------------------

DR Peak RMS Duration Track
--------------------------------------------------------------------------------
DR11 -0.15 dB -13.38 dB 12:27 01-Dance Of The Infidels
DR11 -0.40 dB -13.76 dB 11:41 02-Bouncing With Bud
DR12 -0.24 dB -15.35 dB 11:05 03-The Midget
DR12 -0.60 dB -14.24 dB 7:02 04-Night In Tunisia
--------------------------------------------------------------------------------

Number of tracks: 4
Official DR value: DR11

Samplerate: 44100 Hz
Channels: 2
Bits per sample: 16
Bitrate: 892 kbps
Codec: FLAC
================================================================================



All thanks to original releaser - arizonadream and papa1954 for share







Password: designol