Вход в свой аккаунт

Или войдите через соц. сети

Peggy Lee - At Last: The Lost Radio Recordings (2015)


Peggy Lee - At Last: The Lost Radio Recordings (2015)
EAC Rip | Flac (Tracks + cue + log) | 386 MB | MP3 320Kbps CBR | 227 MB | 2 CDs | Full Scans
Genre: Jazz | Label: Real Gone Music | Catalog Number: 400341

“ As one of the greatest and most popular female pop singers working during radio s Golden Age, Peggy Lee made her share of appearances on the dial, particularly on her own radio show that, starting in 1951, was broadcast over the CBS network and the Armed Forces Radio Service. But, unlike many of her contemporaries who have had their on-air performances compiled into collections both legitimate and not, Peggy has never really enjoyed a proper retrospective of her radio appearances...until now! The 44 tracks on At Last The Lost Radio Recordings consists ENTIRELY of songs Peggy never recorded commercially, ranging from popular standards to novelty numbers to songs popularized by such esteemed peers as Doris Day, Rosemary Clooney, Dinah Shore, Jo Stafford, Kay Starr and Margaret Whiting, with musical direction by Sonny Burke in Los Angeles and Russ Case in New York. Most of these recordings haven t been heard since they were originally broadcast, and as this is the first-ever collection of its kind licensed directly from the Peggy Lee estate, this 2-CD set offers superior sound with remastering by Mike Milchner at SonicVision, rarely-seen photos, and expert liner notes by David Torresen, long-time editor of PeggyLee.com, her official website. Many folks feel that Peggy never sang as well as she did in the early and mid-1950s; her maturity (in her thirties) and confidence had fully blossomed, her phrasing perfected and the timbre of her voice was pure gossamer. Listening to her interpret this new material is a revelation an absolute must-have and a major, historic addition to the Peggy Lee discography and legacy! ”


“ Reviews: Peggy frequently guested on Forties radio shows with forty-nine appearances on Bing Crosby’s, so her self-titled early-Fifties series was well-earned - running for eighty-nine episodes during its two year on-air period. Therefore, this double-disc collection of forty-four songs from the series is a real treat as they are numbers Peggy never commercially recorded. Choices are well-spread with standards like the set’s title number, JUST ONE MORE CHANCE, SKYLARK, I GOT RHYTHM and JOHNNY ONE-NOTE plus traditional ditties DANNY BOY, OH, DEAR WHAT CAN THE MATTER BE? and a touch of Verdi’s ADDIO DEL PASSATO updated to SINCE MY LOVE WENT AWAY. Besides feasting on songs from Broadway shows/Hollywood movies via GETTING TO KNOW YOU, A DATE WITH JUDY, ZING A LITTLE ZONG, MY DARLING, MY DARLING as fine examples, Peggy approaches pop songs of the day with THE LITTLE WHITE CLOUD THAT CRIED, CRY, PLEASE MR.SUN, BOTCH-A-ME, COME ON A-MY HOUSE and BLACKSMITH BLUES nicely delivered in her inimitable “less is more” style.

The sixteen-page booklet contains career, radio show and song credits along with some full-page shots of glamorous Peggy which also adorn the three-panel eco-styled packaging.
”


Tracklisting:

CD01

01. Peggy Lee Radio Show Opening (0:22)
02. It's A Most Unusual Day (1:23)
03. I'll See You In My Dreams (2:01)
04. Getting To Know You (2:30)
05. Cry (2:10)
06. You Belong To Me (2:20)
07. Takes Two To Tango (1:49)
08. Solitaire (2:48)
09. Did Anyone Call? (2:29)
10. Please Mr. Sun (2:25)
11. The Wheel Of Fortune (2:04)
12. Life Is A Beautiful Thing (1:26)
13. Somewhere Along The Way (2:25)
14. And So To Sleep Again (2:15)
15. Undecided (2:27)
16. Everything Happens To Me (2:29)
17. A Kiss To Build A Dream On (2:25)
18. Botch-A-Me (1:30)
19. My Darling, My Darling (1:22)
20. Just One More Chance (2:24)
21. Since My Love Has Gone (Addio del Passato) (2:45)
22. Zing A Little Zong (1:15)
23. Skylark (2:01)

Exact Audio Copy V1.0 beta 3 from 29. August 2011

EAC extraction logfile from 21. March 2015, 11:04

Peggy Lee / At Last: The Lost Radio Recordings - CD1

Used drive : PBDS CD-ROM DH-48N1S Adapter: 3 ID: 0

Read mode : Secure
Utilize accurate stream : Yes
Defeat audio cache : Yes
Make use of C2 pointers : No

Read offset correction : 6
Overread into Lead-In and Lead-Out : No
Fill up missing offset samples with silence : Yes
Delete leading and trailing silent blocks : No
Null samples used in CRC calculations : Yes
Used interface : Native Win32 interface for Win NT & 2000
Gap handling : Appended to previous track

Used output format : User Defined Encoder
Selected bitrate : 768 kBit/s
Quality : High
Add ID3 tag : No
Command line compressor : C:Program Files (x86)Exact Audio CopyFLACFLAC.EXE
Additional command line options : -8 -V -T "ARTIST=%artist%" -T "TITLE=%title%" -T "ALBUM=%albumtitle%" -T "DATE=%year%" -T "TRACKNUMBER=%tracknr%" -T "GENRE=%genre%" -T "COMMENT=%comment%" -T "BAND=%albuminterpret%" -T "ALBUMARTIST=%albuminterpret%" -T "COMPOSER=%composer%" %haslyrics%--tag-from-file=LYRICS="%lyricsfile%"%haslyrics% -T "DISCNUMBER=%cdnumber%" -T "TOTALDISCS=%totalcds%" -T "TOTALTRACKS=%numtracks%" %hascover%--picture="%coverfile%"%hascover% %source% -o %dest%


TOC of the extracted CD

Track | Start | Length | Start sector | End sector
---------------------------------------------------------
1 | 0:00.00 | 0:22.00 | 0 | 1649
2 | 0:22.00 | 1:22.42 | 1650 | 7841
3 | 1:44.42 | 2:00.67 | 7842 | 16908
4 | 3:45.34 | 2:29.50 | 16909 | 28133
5 | 6:15.09 | 2:10.16 | 28134 | 37899
6 | 8:25.25 | 2:19.58 | 37900 | 48382
7 | 10:45.08 | 1:48.64 | 48383 | 56546
8 | 12:33.72 | 2:48.30 | 56547 | 69176
9 | 15:22.27 | 2:28.39 | 69177 | 80315
10 | 17:50.66 | 2:24.41 | 80316 | 91156
11 | 20:15.32 | 2:03.70 | 91157 | 100451
12 | 22:19.27 | 1:25.39 | 100452 | 106865
13 | 23:44.66 | 2:24.71 | 106866 | 117736
14 | 26:09.62 | 2:14.38 | 117737 | 127824
15 | 28:24.25 | 2:26.53 | 127825 | 138827
16 | 30:51.03 | 2:29.25 | 138828 | 150027
17 | 33:20.28 | 2:25.15 | 150028 | 160917
18 | 35:45.43 | 1:30.27 | 160918 | 167694
19 | 37:15.70 | 1:22.05 | 167695 | 173849
20 | 38:38.00 | 2:24.09 | 173850 | 184658
21 | 41:02.09 | 2:44.63 | 184659 | 197021
22 | 43:46.72 | 1:14.70 | 197022 | 202641
23 | 45:01.67 | 2:01.27 | 202642 | 211743


Track 1

Filename C:EACrips1 - Peggy Lee Radio Show Opening.wav

Pre-gap length 0:00:02.00

Peak level 85.3 %
Extraction speed 0.6 X
Track quality 100.0 %
Test CRC 16C95580
Copy CRC 16C95580
Track not present in AccurateRip database
Copy OK

Track 2

Filename C:EACrips2 - It's A Most Unusual Day.wav

Peak level 77.5 %
Extraction speed 3.1 X
Track quality 100.0 %
Test CRC C9D1060E
Copy CRC C9D1060E
Track not present in AccurateRip database
Copy OK

Track 3

Filename C:EACrips3 - I'll See You In My Dreams.wav

Pre-gap length 0:00:01.00

Peak level 66.0 %
Extraction speed 3.6 X
Track quality 100.0 %
Test CRC DE76F0D3
Copy CRC DE76F0D3
Track not present in AccurateRip database
Copy OK

Track 4

Filename C:EACrips4 - Getting To Know You.wav

Pre-gap length 0:00:01.00

Peak level 60.2 %
Extraction speed 4.0 X
Track quality 100.0 %
Test CRC 6B9779D1
Copy CRC 6B9779D1
Track not present in AccurateRip database
Copy OK

Track 5

Filename C:EACrips5 - Cry.wav

Pre-gap length 0:00:01.00

Peak level 51.7 %
Extraction speed 4.2 X
Track quality 100.0 %
Test CRC 694C9689
Copy CRC 694C9689
Track not present in AccurateRip database
Copy OK

Track 6

Filename C:EACrips6 - You Belong To Me.wav

Pre-gap length 0:00:01.00

Peak level 53.9 %
Extraction speed 3.5 X
Track quality 99.9 %
Test CRC BCFB776F
Copy CRC BCFB776F
Track not present in AccurateRip database
Copy OK

Track 7

Filename C:EACrips7 - Takes Two To Tango.wav

Pre-gap length 0:00:01.00

Peak level 93.3 %
Extraction speed 3.2 X
Track quality 99.9 %
Test CRC 93122973
Copy CRC 93122973
Track not present in AccurateRip database
Copy OK

Track 8

Filename C:EACrips8 - Solitaire.wav

Pre-gap length 0:00:01.00

Peak level 68.5 %
Extraction speed 4.9 X
Track quality 100.0 %
Test CRC 1827A327
Copy CRC 1827A327
Track not present in AccurateRip database
Copy OK

Track 9

Filename C:EACrips9 - Did Anyone Call~.wav

Pre-gap length 0:00:01.00

Peak level 50.6 %
Extraction speed 4.9 X
Track quality 100.0 %
Test CRC B6FE48AF
Copy CRC B6FE48AF
Track not present in AccurateRip database
Copy OK

Track 10

Filename C:EACrips10 - Please Mr. Sun.wav

Pre-gap length 0:00:01.00

Peak level 50.0 %
Extraction speed 5.2 X
Track quality 100.0 %
Test CRC E917ED52
Copy CRC E917ED52
Track not present in AccurateRip database
Copy OK

Track 11

Filename C:EACrips11 - The Wheel Of Fortune.wav

Pre-gap length 0:00:01.00

Peak level 80.1 %
Extraction speed 5.3 X
Track quality 100.0 %
Test CRC 0E3A6BCE
Copy CRC 0E3A6BCE
Track not present in AccurateRip database
Copy OK

Track 12

Filename C:EACrips12 - Life Is A Beautiful Thing.wav

Pre-gap length 0:00:01.00

Peak level 62.2 %
Extraction speed 4.9 X
Track quality 100.0 %
Test CRC 47EC8EF4
Copy CRC 47EC8EF4
Track not present in AccurateRip database
Copy OK

Track 13

Filename C:EACrips13 - Somewhere Along The Way.wav

Pre-gap length 0:00:01.00

Peak level 48.6 %
Extraction speed 5.7 X
Track quality 100.0 %
Test CRC 1B97FD27
Copy CRC 1B97FD27
Track not present in AccurateRip database
Copy OK

Track 14

Filename C:EACrips14 - And So To Sleep Again.wav

Pre-gap length 0:00:01.00

Peak level 49.4 %
Extraction speed 5.7 X
Track quality 100.0 %
Test CRC 042D52D7
Copy CRC 042D52D7
Track not present in AccurateRip database
Copy OK

Track 15

Filename C:EACrips15 - Undecided.wav

Pre-gap length 0:00:01.00

Peak level 56.2 %
Extraction speed 4.6 X
Track quality 99.9 %
Test CRC 8BD8432D
Copy CRC 8BD8432D
Track not present in AccurateRip database
Copy OK

Track 16

Filename C:EACrips16 - Everything Happens To Me.wav

Pre-gap length 0:00:01.00

Peak level 74.9 %
Extraction speed 6.0 X
Track quality 100.0 %
Test CRC EC6B73D5
Copy CRC EC6B73D5
Track not present in AccurateRip database
Copy OK

Track 17

Filename C:EACrips17 - A Kiss To Build A Dream On.wav

Pre-gap length 0:00:01.00

Peak level 50.1 %
Extraction speed 5.9 X
Track quality 100.0 %
Test CRC AEDED7C7
Copy CRC AEDED7C7
Track not present in AccurateRip database
Copy OK

Track 18

Filename C:EACrips18 - Botch-A-Me.wav

Pre-gap length 0:00:01.00

Peak level 71.1 %
Extraction speed 5.3 X
Track quality 100.0 %
Test CRC C895A941
Copy CRC C895A941
Track not present in AccurateRip database
Copy OK

Track 19

Filename C:EACrips19 - My Darling, My Darling.wav

Pre-gap length 0:00:01.00

Peak level 44.1 %
Extraction speed 5.5 X
Track quality 100.0 %
Test CRC 6E58BE35
Copy CRC 6E58BE35
Track not present in AccurateRip database
Copy OK

Track 20

Filename C:EACrips20 - Just One More Chance.wav

Pre-gap length 0:00:01.00

Peak level 47.8 %
Extraction speed 6.5 X
Track quality 100.0 %
Test CRC 6BDED52B
Copy CRC 6BDED52B
Track not present in AccurateRip database
Copy OK

Track 21

Filename C:EACrips21 - Since My Love Has Gone (Addio del Passato).wav

Pre-gap length 0:00:01.00

Peak level 55.4 %
Extraction speed 6.6 X
Track quality 100.0 %
Test CRC CAC12340
Copy CRC CAC12340
Track not present in AccurateRip database
Copy OK

Track 22

Filename C:EACrips22 - Zing A Little Zong.wav

Pre-gap length 0:00:01.00

Peak level 90.4 %
Extraction speed 5.2 X
Track quality 100.0 %
Test CRC 7EDD6792
Copy CRC 7EDD6792
Track not present in AccurateRip database
Copy OK

Track 23

Filename C:EACrips23 - Skylark.wav

Pre-gap length 0:00:01.00

Peak level 67.1 %
Extraction speed 6.2 X
Track quality 100.0 %
Test CRC 4C4820C3
Copy CRC 4C4820C3
Track not present in AccurateRip database
Copy OK


None of the tracks are present in the AccurateRip database

No errors occurred

End of status report

==== Log checksum AE2456743D635CF94A3B508B10A91DF6D0AA3F58F4A9724CE3E092479A59E050 ====


CD02

01. I Got Rhythm (1:53)
02. Pretty-Eyed Baby (2:34)
03. Ole Buttermilk Sky (1:35)
04. The Little White Cloud That Cried (2:31)
05. When I Fall In Love (2:13)
06. Come What May (2:00)
07. Johnny One-Note (1:38)
08. Singin' In The Rain (2:03)
09. Come On-A My House (2:06)
10. Here In My Heart (1:44)
11. Danny Boy (2:21)
12. Half As Much (1:55)
13. Go, Go, Go (2:02)
14. I'll Never Smile Again (1:42)
15. After All, It's Spring (2:30)
16. Trust In Me (2:50)
17. Blacksmith Blues (1:36)
18. Domino (3:07)
19. Heigh Ho (It's Off To Work We Go) (1:20)
20. Oh Dear, What Can The Matter Be? (1:58)
21. I'm Gonna Live Till I Die (1:19)
22. At Last (2:57)

Exact Audio Copy V1.0 beta 3 from 29. August 2011

EAC extraction logfile from 21. March 2015, 11:38

Peggy Lee / At Last: The Lost Radio Recordings - CD2

Used drive : PBDS CD-ROM DH-48N1S Adapter: 3 ID: 0

Read mode : Secure
Utilize accurate stream : Yes
Defeat audio cache : Yes
Make use of C2 pointers : No

Read offset correction : 6
Overread into Lead-In and Lead-Out : No
Fill up missing offset samples with silence : Yes
Delete leading and trailing silent blocks : No
Null samples used in CRC calculations : Yes
Used interface : Native Win32 interface for Win NT & 2000
Gap handling : Appended to previous track

Used output format : User Defined Encoder
Selected bitrate : 768 kBit/s
Quality : High
Add ID3 tag : No
Command line compressor : C:Program Files (x86)Exact Audio CopyFLACFLAC.EXE
Additional command line options : -8 -V -T "ARTIST=%artist%" -T "TITLE=%title%" -T "ALBUM=%albumtitle%" -T "DATE=%year%" -T "TRACKNUMBER=%tracknr%" -T "GENRE=%genre%" -T "COMMENT=%comment%" -T "BAND=%albuminterpret%" -T "ALBUMARTIST=%albuminterpret%" -T "COMPOSER=%composer%" %haslyrics%--tag-from-file=LYRICS="%lyricsfile%"%haslyrics% -T "DISCNUMBER=%cdnumber%" -T "TOTALDISCS=%totalcds%" -T "TOTALTRACKS=%numtracks%" %hascover%--picture="%coverfile%"%hascover% %source% -o %dest%


TOC of the extracted CD

Track | Start | Length | Start sector | End sector
---------------------------------------------------------
1 | 0:00.00 | 1:53.32 | 0 | 8506
2 | 1:53.32 | 2:33.53 | 8507 | 20034
3 | 4:27.10 | 1:34.70 | 20035 | 27154
4 | 6:02.05 | 2:30.69 | 27155 | 38473
5 | 8:32.74 | 2:12.66 | 38474 | 48439
6 | 10:45.65 | 2:00.10 | 48440 | 57449
7 | 12:46.00 | 1:38.33 | 57450 | 64832
8 | 14:24.33 | 2:03.35 | 64833 | 74092
9 | 16:27.68 | 2:05.56 | 74093 | 83523
10 | 18:33.49 | 1:43.64 | 83524 | 91312
11 | 20:17.38 | 2:20.61 | 91313 | 101873
12 | 22:38.24 | 1:54.57 | 101874 | 110480
13 | 24:33.06 | 2:01.67 | 110481 | 119622
14 | 26:34.73 | 1:42.30 | 119623 | 127302
15 | 28:17.28 | 2:29.59 | 127303 | 138536
16 | 30:47.12 | 2:49.71 | 138537 | 151282
17 | 33:37.08 | 1:36.02 | 151283 | 158484
18 | 35:13.10 | 3:07.05 | 158485 | 172514
19 | 38:20.15 | 1:20.00 | 172515 | 178514
20 | 39:40.15 | 1:58.30 | 178515 | 187394
21 | 41:38.45 | 1:18.70 | 187395 | 193314
22 | 42:57.40 | 2:56.74 | 193315 | 206588


Track 1

Filename C:EACrips1 - I Got Rhythm.wav

Pre-gap length 0:00:02.00

Peak level 82.5 %
Extraction speed 3.3 X
Track quality 100.0 %
Test CRC 7B7AF7E0
Copy CRC 7B7AF7E0
Track not present in AccurateRip database
Copy OK

Track 2

Filename C:EACrips2 - Pretty-Eyed Baby.wav

Pre-gap length 0:00:01.00

Peak level 65.8 %
Extraction speed 3.1 X
Track quality 99.9 %
Test CRC 6F759341
Copy CRC 6F759341
Track not present in AccurateRip database
Copy OK

Track 3

Filename C:EACrips3 - Ole Buttermilk Sky.wav

Pre-gap length 0:00:01.00

Peak level 78.6 %
Extraction speed 2.7 X
Track quality 99.8 %
Test CRC 1E7EE845
Copy CRC 1E7EE845
Track not present in AccurateRip database
Copy OK

Track 4

Filename C:EACrips4 - The Little White Cloud That Cried.wav

Pre-gap length 0:00:01.00

Peak level 52.1 %
Extraction speed 4.3 X
Track quality 100.0 %
Test CRC 3DAF8990
Copy CRC 3DAF8990
Track not present in AccurateRip database
Copy OK

Track 5

Filename C:EACrips5 - When I Fall In Love.wav

Pre-gap length 0:00:01.00

Peak level 69.3 %
Extraction speed 4.4 X
Track quality 100.0 %
Test CRC 5E5CCA8D
Copy CRC 5E5CCA8D
Track not present in AccurateRip database
Copy OK

Track 6

Filename C:EACrips6 - Come What May.wav

Pre-gap length 0:00:01.00

Peak level 46.3 %
Extraction speed 3.3 X
Track quality 99.9 %
Test CRC D91D34D5
Copy CRC D91D34D5
Track not present in AccurateRip database
Copy OK

Track 7

Filename C:EACrips7 - Johnny One-Note.wav

Pre-gap length 0:00:01.00

Peak level 77.0 %
Extraction speed 4.4 X
Track quality 100.0 %
Test CRC DD68ECC4
Copy CRC DD68ECC4
Track not present in AccurateRip database
Copy OK

Track 8

Filename C:EACrips8 - Singin' In The Rain.wav

Pre-gap length 0:00:01.00

Peak level 51.4 %
Extraction speed 3.7 X
Track quality 99.9 %
Test CRC 5B0DDDE6
Copy CRC 5B0DDDE6
Track not present in AccurateRip database
Copy OK

Track 9

Filename C:EACrips9 - Come On-A My House.wav

Pre-gap length 0:00:01.00

Peak level 72.5 %
Extraction speed 5.0 X
Track quality 100.0 %
Test CRC 1E9FFA78
Copy CRC 1E9FFA78
Track not present in AccurateRip database
Copy OK

Track 10

Filename C:EACrips10 - Here In My Heart.wav

Pre-gap length 0:00:01.00

Peak level 54.4 %
Extraction speed 4.9 X
Track quality 100.0 %
Test CRC A184FF4B
Copy CRC A184FF4B
Track not present in AccurateRip database
Copy OK

Track 11

Filename C:EACrips11 - Danny Boy.wav

Pre-gap length 0:00:01.00

Peak level 55.6 %
Extraction speed 5.4 X
Track quality 100.0 %
Test CRC FDACF616
Copy CRC FDACF616
Track not present in AccurateRip database
Copy OK

Track 12

Filename C:EACrips12 - Half As Much.wav

Pre-gap length 0:00:01.00

Peak level 72.2 %
Extraction speed 5.2 X
Track quality 100.0 %
Test CRC E813BC16
Copy CRC E813BC16
Track not present in AccurateRip database
Copy OK

Track 13

Filename C:EACrips13 - Go, Go, Go.wav

Pre-gap length 0:00:01.00

Peak level 79.6 %
Extraction speed 5.5 X
Track quality 100.0 %
Test CRC 9DA12B35
Copy CRC 9DA12B35
Track not present in AccurateRip database
Copy OK

Track 14

Filename C:EACrips14 - I'll Never Smile Again.wav

Pre-gap length 0:00:01.00

Peak level 74.9 %
Extraction speed 5.3 X
Track quality 100.0 %
Test CRC 4AC9A751
Copy CRC 4AC9A751
Track not present in AccurateRip database
Copy OK

Track 15

Filename C:EACrips15 - After All, It's Spring.wav

Pre-gap length 0:00:01.00

Peak level 49.1 %
Extraction speed 6.1 X
Track quality 100.0 %
Test CRC 5FE86B03
Copy CRC 5FE86B03
Track not present in AccurateRip database
Copy OK

Track 16

Filename C:EACrips16 - Trust In Me.wav

Pre-gap length 0:00:01.00

Peak level 42.4 %
Extraction speed 5.2 X
Track quality 99.9 %
Test CRC 8BB92C22
Copy CRC 8BB92C22
Track not present in AccurateRip database
Copy OK

Track 17

Filename C:EACrips17 - Blacksmith Blues.wav

Pre-gap length 0:00:01.00

Peak level 61.4 %
Extraction speed 5.7 X
Track quality 100.0 %
Test CRC 48C1F47A
Copy CRC 48C1F47A
Track not present in AccurateRip database
Copy OK

Track 18

Filename C:EACrips18 - Domino.wav

Pre-gap length 0:00:01.00

Peak level 58.4 %
Extraction speed 6.8 X
Track quality 100.0 %
Test CRC 5D59165B
Copy CRC 5D59165B
Track not present in AccurateRip database
Copy OK

Track 19

Filename C:EACrips19 - Heigh Ho (It's Off To Work We Go).wav

Pre-gap length 0:00:01.00

Peak level 53.3 %
Extraction speed 4.0 X
Track quality 99.8 %
Test CRC 99CC3546
Copy CRC 99CC3546
Track not present in AccurateRip database
Copy OK

Track 20

Filename C:EACrips20 - Oh Dear, What Can The Matter Be~.wav

Pre-gap length 0:00:01.00

Peak level 66.6 %
Extraction speed 6.4 X
Track quality 100.0 %
Test CRC 3AF2824D
Copy CRC 3AF2824D
Track not present in AccurateRip database
Copy OK

Track 21

Filename C:EACrips21 - I'm Gonna Live Till I Die.wav

Pre-gap length 0:00:01.00

Peak level 68.0 %
Extraction speed 5.7 X
Track quality 100.0 %
Test CRC 30D1A78C
Copy CRC 30D1A78C
Track not present in AccurateRip database
Copy OK

Track 22

Filename C:EACrips22 - At Last.wav

Pre-gap length 0:00:01.00

Peak level 62.7 %
Extraction speed 5.8 X
Track quality 99.9 %
Test CRC FDAEA42B
Copy CRC FDAEA42B
Track not present in AccurateRip database
Copy OK


None of the tracks are present in the AccurateRip database

No errors occurred

End of status report

==== Log checksum B3448F072F5376D3CD1AA070A5ED4A5A5FFF5556C0702C622FDA58E59440B07D ====



Thanks to the original releaser
Uploadable:

FLAC: |
MP3: |