China Crisis - Collection: The Very Best Of China Crisis (1990)


China Crisis - Collection: The Very Best Of China Crisis (1990)
EAC | FLAC | Tracks (Cue&Log) ~ 383 Mb (incl 5%) | Mp3 (CBR320) ~ 152 Mb (incl 5%) | Scans included
Genre: New Wave, Synthpop | Label: Virgin | # CDV2613 | Time: 01:00:25

China Crisis Collection: The Very Best of China Crisis doesn't lie; true to its title, the album gathers China Crisis' brightest moments. While the exclusion of "The Highest High" is an oversight, this is one of the most accurate and thorough summaries of a band's career. Uniting elements of synth pop, jazz, progressive rock, and new wave, China Crisis sound like nobody else. The jittery "Working With Fire and Steel" unveils the group's early infatuation with sprightly electronics. "Working With Fire and Steel" is actually one of the few songs on China Crisis Collection that received U.S. airplay; its chipper, naïve keyboards must've wooed radio programmers hooked on early-'80s video games. China Crisis' music became increasingly sophisticated with each LP as the band explored slower tempos and more soulful melodies. The lush, breezy "Wishful Thinking" epitomizes the group's stylistic growth. Leaning closer to light jazz, tracks like "Wishful Thinking," "No More Blue Horizons," and "You Did Cut Me" drop hints at China Crisis' gradual departure from their synth pop roots. "No More Blue Horizons" is a deceptively -- blame it on the soaring horns -- upbeat tale of unrequited love. "Time and time again/can't hide this pain/I lie awake at night/and hear you call his name," Gary Daly sings, his voice coolly expressing the lyrics' feelings of hurt. While it may take repeated listens to hear China Crisis' subtle charms, the band starts to weave a hypnotic spell once the songs' inner beauty becomes apparent. The meditative "Christian" mesmerizes the ears with exquisite strings and pensive keyboards, and "Arizona Sky" unreels with a keen sense of awe. China Crisis Collection has no filler. Except for the missing "The Highest High," this album grabs the artistic peaks from the group's albums, satisfying old fans while creating new ones in the process.

Review by Michael Sutton, Allmusic.com






Tracklist:

01. African And White (03:48)
02. No More Blue Horizons (03:48)
03. Christian (05:44)
04. Tragedy And Mystery (04:02)
05. Working With Fire And Steel (03:41)
06. Wishful Thinking (04:41)
07. Hanna Hanna (03:30)
08. Black Man Ray (03:36)
09. King In A Catholic Style (04:29)
10. You Did Cut Me (04:16)
11. Arizona Sky (05:25)
12. Best Kept Secret (04:05)
13. It's Everything (05:06)
14. St. Saviour Square (04:08)


Exact Audio Copy V1.0 beta 3 from 29. August 2011

Отчёт EAC об извлечении, выполненном 10. сентября 2014, 20:24

China Crisis / China Crisis Collection: The Very Best Of China Crisis

Дисковод: ASUS DRW-1814BLT Adapter: 4 ID: 0

Режим чтения : Достоверность
Использование точного потока : Да
Отключение кэша аудио : Да
Использование указателей C2 : Нет

Коррекция смещения при чтении : 6
Способность читать области Lead-in и Lead-out : Нет
Заполнение пропущенных сэмплов тишиной : Да
Удаление блоков с тишиной в начале и конце : Нет
При вычислениях CRC использовались нулевые сэмплы : Да
Интерфейс : Встроенный Win32-интерфейс для Win NT/2000
Обработка зазоров : Добавлено к предыдущему треку

Выходной формат : Пользовательский кодировщик
Выбранный битрейт : 128 kBit/s
Качество : Высокий
Добавление ID3-тега : Нет
Утилита сжатия : C:Program FilesExact Audio CopyFlacflac.exe
Дополнительные параметры : -V -8 -T "Genre=%genre%" -T "Artist=%artist%" -T "Title=%title%" -T "Album=%albumtitle%" -T "Date=%year%" -T "Tracknumber=%tracknr%" -T "Comment=EAC1.0b2 FLAC -8" %source%


TOC извлечённого CD

Трек | Старт | Длительность | Начальный сектор | Конечный сектор
---------------------------------------------------------------------
1 | 0:00.00 | 3:48.15 | 0 | 17114
2 | 3:48.15 | 3:48.45 | 17115 | 34259
3 | 7:36.60 | 5:44.12 | 34260 | 60071
4 | 13:20.72 | 4:02.53 | 60072 | 78274
5 | 17:23.50 | 3:41.32 | 78275 | 94881
6 | 21:05.07 | 4:41.10 | 94882 | 115966
7 | 25:46.17 | 3:30.55 | 115967 | 131771
8 | 29:16.72 | 3:36.45 | 131772 | 148016
9 | 32:53.42 | 4:29.65 | 148017 | 168256
10 | 37:23.32 | 4:16.53 | 168257 | 187509
11 | 41:40.10 | 5:25.57 | 187510 | 211941
12 | 47:05.67 | 4:05.25 | 211942 | 230341
13 | 51:11.17 | 5:06.35 | 230342 | 253326
14 | 56:17.52 | 4:08.23 | 253327 | 271949


Трек 1

Имя файла R:Раздача 23China Crisis - 1990 - China Crisis Collection (Very Best Of China Crisis)1 African And White.wav

Длина предзазора 0:00:02.00

Пиковый уровень 97.7 %
Скорость извлечения 2.6 X
Качество трека 100.0 %
CRC теста 5A6E9867
CRC копии 5A6E9867
Точное извлечение (достоверность 24) [A7120142] (AR v2)
Копирование... OK

Трек 2

Имя файла R:Раздача 23China Crisis - 1990 - China Crisis Collection (Very Best Of China Crisis)2 No More Blue Horizons.wav

Длина предзазора 0:00:00.03

Пиковый уровень 77.9 %
Скорость извлечения 2.8 X
Качество трека 100.0 %
CRC теста 58E096FB
CRC копии 58E096FB
Точное извлечение (достоверность 24) [FF4DF944] (AR v2)
Копирование... OK

Трек 3

Имя файла R:Раздача 23China Crisis - 1990 - China Crisis Collection (Very Best Of China Crisis)3 Christian.wav

Длина предзазора 0:00:00.03

Пиковый уровень 83.7 %
Скорость извлечения 3.3 X
Качество трека 100.0 %
CRC теста D992AB00
CRC копии D992AB00
Точное извлечение (достоверность 24) [3D99623E] (AR v2)
Копирование... OK

Трек 4

Имя файла R:Раздача 23China Crisis - 1990 - China Crisis Collection (Very Best Of China Crisis)4 Tragedy And Mystery.wav

Длина предзазора 0:00:00.02

Пиковый уровень 92.0 %
Скорость извлечения 2.0 X
Качество трека 99.9 %
CRC теста F31358C9
CRC копии F31358C9
Точное извлечение (достоверность 24) [6261447B] (AR v2)
Копирование... OK

Трек 5

Имя файла R:Раздача 23China Crisis - 1990 - China Crisis Collection (Very Best Of China Crisis)5 Working With Fire And Steel.wav

Длина предзазора 0:00:00.03

Пиковый уровень 100.0 %
Скорость извлечения 2.1 X
Качество трека 99.9 %
CRC теста 4BCDB508
CRC копии 4BCDB508
Точное извлечение (достоверность 24) [E27E1172] (AR v2)
Копирование... OK

Трек 6

Имя файла R:Раздача 23China Crisis - 1990 - China Crisis Collection (Very Best Of China Crisis)6 Wishful Thinking.wav

Длина предзазора 0:00:00.02

Пиковый уровень 93.8 %
Скорость извлечения 3.9 X
Качество трека 100.0 %
CRC теста F4452A1A
CRC копии F4452A1A
Точное извлечение (достоверность 24) [B2DEC563] (AR v2)
Копирование... OK

Трек 7

Имя файла R:Раздача 23China Crisis - 1990 - China Crisis Collection (Very Best Of China Crisis)7 Hanna Hanna.wav

Длина предзазора 0:00:00.02

Пиковый уровень 99.3 %
Скорость извлечения 4.0 X
Качество трека 100.0 %
CRC теста 12D3B29F
CRC копии 12D3B29F
Точное извлечение (достоверность 24) [3E39D781] (AR v2)
Копирование... OK

Трек 8

Имя файла R:Раздача 23China Crisis - 1990 - China Crisis Collection (Very Best Of China Crisis)8 Black Man Ray.wav

Длина предзазора 0:00:00.02

Пиковый уровень 97.1 %
Скорость извлечения 4.2 X
Качество трека 100.0 %
CRC теста F4DB7349
CRC копии F4DB7349
Точное извлечение (достоверность 23) [65086D6F] (AR v2)
Копирование... OK

Трек 9

Имя файла R:Раздача 23China Crisis - 1990 - China Crisis Collection (Very Best Of China Crisis)9 King In A Catholic Style.wav

Длина предзазора 0:00:00.02

Пиковый уровень 98.0 %
Скорость извлечения 4.4 X
Качество трека 100.0 %
CRC теста E116740D
CRC копии E116740D
Точное извлечение (достоверность 23) [55CD471F] (AR v2)
Копирование... OK

Трек 10

Имя файла R:Раздача 23China Crisis - 1990 - China Crisis Collection (Very Best Of China Crisis)10 You Did Cut Me.wav

Длина предзазора 0:00:00.02

Пиковый уровень 91.5 %
Скорость извлечения 4.6 X
Качество трека 100.0 %
CRC теста 25A02BBE
CRC копии 25A02BBE
Точное извлечение (достоверность 23) [FE91E9A4] (AR v2)
Копирование... OK

Трек 11

Имя файла R:Раздача 23China Crisis - 1990 - China Crisis Collection (Very Best Of China Crisis)11 Arizona Sky.wav

Длина предзазора 0:00:00.03

Пиковый уровень 100.0 %
Скорость извлечения 4.9 X
Качество трека 100.0 %
CRC теста 7579B108
CRC копии 7579B108
Точное извлечение (достоверность 23) [80396FE1] (AR v2)
Копирование... OK

Трек 12

Имя файла R:Раздача 23China Crisis - 1990 - China Crisis Collection (Very Best Of China Crisis)12 Best Kept Secret.wav

Длина предзазора 0:00:00.02

Пиковый уровень 100.0 %
Скорость извлечения 2.9 X
Качество трека 99.9 %
CRC теста 72C0B14D
CRC копии 72C0B14D
Точное извлечение (достоверность 23) [ED1E648A] (AR v2)
Копирование... OK

Трек 13

Имя файла R:Раздача 23China Crisis - 1990 - China Crisis Collection (Very Best Of China Crisis)13 It's Everything.wav

Длина предзазора 0:00:00.02

Пиковый уровень 100.0 %
Скорость извлечения 3.5 X
Качество трека 100.0 %
CRC теста 34C3D13C
CRC копии 34C3D13C
Точное извлечение (достоверность 23) [219F7C88] (AR v2)
Копирование... OK

Трек 14

Имя файла R:Раздача 23China Crisis - 1990 - China Crisis Collection (Very Best Of China Crisis)14 St. Saviour Square.wav

Длина предзазора 0:00:00.02

Пиковый уровень 75.8 %
Скорость извлечения 3.1 X
Качество трека 99.9 %
CRC теста 730CE55D
CRC копии 730CE55D
Точное извлечение (достоверность 23) [13DF1303] (AR v2)
Копирование... OK


Все треки извлечены точно

Ошибок не произошло

Конец отчёта

==== Контрольная сумма отчёта A2B3D9B976BFCFF6ACA25310089C87165E056E73DF383B7B7EED16938A5668D2 ====

foobar2000 1.3.8 / Dynamic Range Meter 1.1.1
log date: 2015-05-22 19:59:11

--------------------------------------------------------------------------------
Analyzed: China Crisis / China Crisis Collection: The Very Best Of China Crisis
--------------------------------------------------------------------------------

DR Peak RMS Duration Track
--------------------------------------------------------------------------------
DR13 -0.20 dB -17.32 dB 3:48 01-African And White
DR12 -2.16 dB -17.51 dB 3:49 02-No More Blue Horizons
DR14 -1.54 dB -18.94 dB 5:44 03-Christian
DR14 -0.72 dB -16.67 dB 4:03 04-Tragedy And Mystery
DR12 0.00 dB -13.20 dB 3:41 05-Working With Fire And Steel
DR12 -0.55 dB -14.68 dB 4:41 06-Wishful Thinking
DR12 -0.06 dB -14.17 dB 3:31 07-Hanna Hanna
DR12 -0.25 dB -15.77 dB 3:37 08-Black Man Ray
DR14 -0.17 dB -15.59 dB 4:30 09-King In A Catholic Style
DR13 -0.76 dB -17.11 dB 4:17 10-You Did Cut Me
DR14 0.00 dB -15.93 dB 5:26 11-Arizona Sky
DR15 0.00 dB -17.67 dB 4:05 12-Best Kept Secret
DR14 0.00 dB -16.76 dB 5:06 13-It's Everything
DR10 -2.41 dB -15.00 dB 4:08 14-St. Saviour Square
--------------------------------------------------------------------------------

Number of tracks: 14
Official DR value: DR13

Samplerate: 44100 Hz
Channels: 2
Bits per sample: 16
Bitrate: 975 kbps
Codec: FLAC
================================================================================



All thanks to original releaser - clustert





Password: designol