Silje Nergaard - Chain of Days (2015)


Silje Nergaard - Chain of Days (2015)
EAC Rip | Flac (Tracks + cue + log) | 247 MB | MP3 320Kbps CBR | 112 MB | 1 CD | Full Scans
Genre: Jazz | Label: OKeh

Silje Nergaard is an award-winning Norwegian jazz-pop singer/songwriter who peaked in popularity after the turn of the century with the chart-topping albums. „Chain Of Days“ is her newest album featuring eleven diverse overwritings put together in an album with the melody in focus.

Silje Nergaard: Vocal
Hallgrim Bratberg: Guitars
Havard Bendiksen: Guitars
Audun Erlien: Bass, Keyboard (Lady Charlotte)
Anders Engen: Drums, piano, guitar
Backing vocals by Silje Nergaard & Anders Engen
Bendik Hofseth: Saxophone (Buckle My Shoe),
Arve Henriksen: Trumpet and vocals (The Leaving & Hunting High And Low)
David Wallumrod: Keyboard (A Crying Shame), Organ (Two For The Road)
Helge Lien: Piano (Morgenstemning)
Kurt Elling: Vocal (The Dance Floor)
Gabrielle Cahill Holand: Backing vocals (The Dance Floor)
Vocals: Reza Aghamir, Fredrik Otterstad, Heine Totland, Petter Simonsen, Rolf Magne Asser, Sean Kjartan Iversen, Nils Christian Fossdahl, Frank Havroy (Morgenstemning)


Reviews: Dear All,
My new album is ready, released and I am excited! The songs are now all yours! I can't believe that this is my 15th album … time passes so quickly. But, I'm just as excited as if 'Chain of Days' was my first release.
Each song has their own unique personality and little story, and I can now share them with you. I've also chosen to record a cover song, my version of an A-ha song.
The album was recorded here in Oslo with a group of wonderful musicians, all of whom I've known for many years. My two steady guitarists Hallgrim and Håvar are with me and in addition, I have brought my old friends in on bass and drums, trumpet and even a male choir….. yes, many beautiful musical colours. Still, the arrangements contain air and space - "Less is more" remains my musical mantra.
The album was released worldwide on March 16th. We will be touring in Germany in April, festivals in the summer and more touring in the Fall and Winter 2015. We will also be touring in the Far East.
We will be performing at the Norwegian National Opera in Oslo on the 31st of May! This is my first time playing at this spectacular venue and it promises to be a really special night! So, if you ever thought about visiting Norway, this may be the right time - Norway in May is truly beautiful!
Looking forward to seeing you all, and please - take care. Silje


Tracklisting:

1 Buckle Her Shoe 4:07
2 The Dance Floor 4:24
3 The Leaving 4:46
4 A Crying Shame 3:30
5 Come Walk Around 3:31
6 Lady Charlotte 3:57
7 Those Rainy Nights 4:38
8 Two for the Road 3:54
9 Café de Flore 3:31
10 Hunting High and Low 3:56
11 Morgenstemning 4:58


Exact Audio Copy V1.0 beta 3 from 29. August 2011

EAC extraction logfile from 8. May 2015, 21:53

Silje Nergaard / Chain of Days

Used drive : HL-DT-STDVDRAM GH22NS70 Adapter: 3 ID: 0

Read mode : Secure
Utilize accurate stream : Yes
Defeat audio cache : Yes
Make use of C2 pointers : No

Read offset correction : 667
Overread into Lead-In and Lead-Out : No
Fill up missing offset samples with silence : Yes
Delete leading and trailing silent blocks : No
Null samples used in CRC calculations : Yes
Used interface : Native Win32 interface for Win NT & 2000
Gap handling : Appended to previous track

Used output format : User Defined Encoder
Selected bitrate : 1024 kBit/s
Quality : High
Add ID3 tag : No
Command line compressor : C:Program Files (x86)Exact Audio CopyFlacflac.exe
Additional command line options : -8 -V -T "artist=%artist%" -T "title=%title%" -T "album=%albumtitle%" -T "date=%year%" -T "tracknumber=%tracknr%" -T "genre=%genre%" %source%


TOC of the extracted CD

Track | Start | Length | Start sector | End sector
---------------------------------------------------------
1 | 0:00.00 | 4:07.64 | 0 | 18588
2 | 4:07.64 | 4:24.47 | 18589 | 38435
3 | 8:32.36 | 4:46.02 | 38436 | 59887
4 | 13:18.38 | 3:30.57 | 59888 | 75694
5 | 16:49.20 | 3:31.60 | 75695 | 91579
6 | 20:21.05 | 3:57.22 | 91580 | 109376
7 | 24:18.27 | 4:38.14 | 109377 | 130240
8 | 28:56.41 | 3:54.39 | 130241 | 147829
9 | 32:51.05 | 3:31.59 | 147830 | 163713
10 | 36:22.64 | 3:56.02 | 163714 | 181415
11 | 40:18.66 | 4:58.34 | 181416 | 203799


Track 1

Filename C:ripping1 - Buckle Her Shoe.wav

Pre-gap length 0:00:02.00

Peak level 97.5 %
Extraction speed 1.0 X
Track quality 100.0 %
Test CRC 5ACAF6A4
Copy CRC 5ACAF6A4
Accurately ripped (confidence 4) [D1F6C1A9] (AR v2)
Copy OK

Track 2

Filename C:ripping2 - The Dance Floor.wav

Peak level 98.9 %
Extraction speed 1.0 X
Track quality 99.9 %
Test CRC 7F60EBD7
Copy CRC 7F60EBD7
Accurately ripped (confidence 4) [3D31BC09] (AR v2)
Copy OK

Track 3

Filename C:ripping3 - The Leaving.wav

Peak level 97.1 %
Extraction speed 0.9 X
Track quality 99.8 %
Test CRC 76EE1576
Copy CRC 76EE1576
Accurately ripped (confidence 4) [BCB3B490] (AR v2)
Copy OK

Track 4

Filename C:ripping4 - A Crying Shame.wav

Peak level 96.9 %
Extraction speed 1.3 X
Track quality 100.0 %
Test CRC 48389248
Copy CRC 48389248
Accurately ripped (confidence 4) [C90A7238] (AR v2)
Copy OK

Track 5

Filename C:ripping5 - Come Walk Around.wav

Peak level 97.3 %
Extraction speed 1.2 X
Track quality 99.9 %
Test CRC 91364018
Copy CRC 91364018
Accurately ripped (confidence 4) [E1498E3D] (AR v2)
Copy OK

Track 6

Filename C:ripping6 - Lady Charlotte.wav

Peak level 96.7 %
Extraction speed 1.5 X
Track quality 100.0 %
Test CRC 7C655EBB
Copy CRC 7C655EBB
Accurately ripped (confidence 4) [BB12CE6C] (AR v2)
Copy OK

Track 7

Filename C:ripping7 - Those Rainy Nights.wav

Peak level 96.7 %
Extraction speed 1.4 X
Track quality 99.9 %
Test CRC 7EA31F55
Copy CRC 7EA31F55
Accurately ripped (confidence 4) [704C30E4] (AR v2)
Copy OK

Track 8

Filename C:ripping8 - Two for the Roid.wav

Peak level 96.9 %
Extraction speed 1.7 X
Track quality 100.0 %
Test CRC B7C48F02
Copy CRC B7C48F02
Accurately ripped (confidence 4) [80E1BDB5] (AR v2)
Copy OK

Track 9

Filename C:ripping9 - Café de Flore.wav

Peak level 96.9 %
Extraction speed 1.5 X
Track quality 99.9 %
Test CRC 3F761DCA
Copy CRC 3F761DCA
Accurately ripped (confidence 4) [85F4D5D6] (AR v2)
Copy OK

Track 10

Filename C:ripping10 - Hunting High and Low.wav

Peak level 96.6 %
Extraction speed 1.6 X
Track quality 99.9 %
Test CRC 1FABAF56
Copy CRC 1FABAF56
Accurately ripped (confidence 4) [2386DF6A] (AR v2)
Copy OK

Track 11

Filename C:ripping11 - Morgenstemning.wav

Peak level 96.8 %
Extraction speed 2.0 X
Track quality 100.0 %
Test CRC 3F654B05
Copy CRC 3F654B05
Accurately ripped (confidence 4) [636694E9] (AR v2)
Copy OK


All tracks accurately ripped

No errors occurred

End of status report

---- CUETools DB Plugin V2.1.3

[CTDB TOCID: _ABBDSc4o.ZB.vMZTbSU2CxRit0-] found, Submit result: _ABBDSc4o.ZB.vMZTbSU2CxRit0- has been confirmed
[dea62c35] (18/18) Accurately ripped


==== Log checksum F931C0AD4EE0F17E220C7C334089F0EF78FC842F19B9A218CAF6628B73D1F070 ====



Thanks to the original releaser
Uploadable: |