Jimi Plays Berkeley (2012) - Blu-ray


Jimi Plays Berkeley (2012) - Blu-ray
Blu-ray/M2TS/AVC, ~17 Mbps | 1920x1080, 24 fps | DTS-HD MA 5.1, 48 kHz, 4613kbps; PCM, 48 kHz, 2304 kbps | English | 60 minutes | 22.5 Gb
Genre: Rock, Classic Rock, Electric Blues

Derived from a pair of concerts at the Berkeley Community Theater on May 30, 1970, Jimi Plays Berkeley the film has always been a curious chapter in the history of Jimi Hendrix. Shot more as a test than a true documentary, it was hurriedly whipped together as an official film shortly after the great singer-songwriter guitarist’s unfortunate death, and actually was put on an European tour with acts managed by the artist’s former manager. The final product has protest footage interspersed among the great performances, and at the time, when everyone was so hungry for anything Jimi, it became one of the most popular music films of its era. Now it can be viewed more as a time capsule wrapped around performances by Hendrix et al, performing a distinctly unique set for the time.
The film features excerpts of performances by Jimi, bassist Billy Cox, and drummer Mitch Mitchell from the two concerts. They perform hot versions of such Hendrix favorites as “Purple Haze,” a remarkable lengthy tour de force takes on “Machine Gun” and “Voodoo Child (Slight Return),” and the artist’s inimitable take on Chuck Berry’s "Johnny B. Goode.”

Songs:
Jimi In Limousine
Afternoon Rehearsals
Johnny B. Goode
Hear My Train A Comin'
Star Spangeled Banner
Purple Haze
Hey Baby (New Rising Sun)
Lover Man
I Don't Live Today
Machine Gun
Voodoo Child (Slight Return)

DISC INFO:
Disc Title: Jimi Plays Berkeley 1970 1080p
Disc Size: 24 176 678 004 bytes
Protection: AACS
BD-Java: Yes
BDInfo: 0.5.6
PLAYLIST REPORT:
Name: 01003.MPLS
Length: 1:04:54 (h:m:s)
Size: 12 831 817 728 bytes
Total Bitrate: 26,36 Mbps
VIDEO:
Codec Bitrate Description
----- ------- -----------
MPEG-4 AVC Video 17974 kbps 1080p / 23,976 fps / 16:9 / High Profile 4.1
AUDIO:
Codec Language Bitrate Description
----- -------- ------- -----------
DTS-HD Master Audio English 4613 kbps 5.1 / 48 kHz / 4613 kbps / 24-bit (DTS Core: 5.1 / 48 kHz / 1509 kbps / 24-bit)
LPCM Audio English 2304 kbps 2.0 / 48 kHz / 2304 kbps / 24-bit
FILES:
Name Time In Length Size Total Bitrate
---- ------- ------ ---- -------------
00004.M2TS 0:00:00.000 1:04:54.891 12 831 817 728 26 356

-------------------------------------------------

DISC INFO:
Disc Title: Jimi Plays Berkeley 1970 1080p
Disc Size: 24 176 678 004 bytes
Protection: AACS
BD-Java: Yes
BDInfo: 0.5.6
PLAYLIST REPORT:
Name: 01004.MPLS
Length: 0:07:51 (h:m:s)
Size: 1 071 415 296 bytes
Total Bitrate: 18,18 Mbps
VIDEO:
Codec Bitrate Description
----- ------- -----------
MPEG-4 AVC Video 14979 kbps 1080p / 23,976 fps / 16:9 / High Profile 4.1
AUDIO:
Codec Language Bitrate Description
----- -------- ------- -----------
LPCM Audio English 2304 kbps 2.0 / 48 kHz / 2304 kbps / 24-bit
FILES:
Name Time In Length Size Total Bitrate
---- ------- ------ ---- -------------
00005.M2TS 0:00:00.000 0:07:51.512 1 071 415 296 18 178

-------------------------------------------------

DISC INFO:
Disc Title: Jimi Plays Berkeley 1970 1080p
Disc Size: 24 176 678 004 bytes
Protection: AACS
BD-Java: Yes
BDInfo: 0.5.6
PLAYLIST REPORT:
Name: 01005.MPLS
Length: 1:07:28 (h:m:s)
Size: 9 654 841 344 bytes
Total Bitrate: 19,08 Mbps
VIDEO:
Codec Bitrate Description
----- ------- -----------
MPEG-4 AVC Video 5984 kbps 1080p / 23,976 fps / 16:9 / High Profile 4.1
AUDIO:
Codec Language Bitrate Description
----- -------- ------- -----------
LPCM Audio English 6912 kbps 5.1 / 48 kHz / 6912 kbps / 24-bit
DTS-HD Master Audio English 4917 kbps 5.1 / 48 kHz / 4917 kbps / 24-bit (DTS Core: 5.1 / 48 kHz / 1509 kbps / 24-bit)
FILES:
Name Time In Length Size Total Bitrate
---- ------- ------ ---- -------------
00006.M2TS 0:00:00.000 1:07:28.627 9 654 841 344 19 078

General
ID : 0 (0x0)
Complete name : E:Jimi Plays Berkeley 1970 1080pBDMVSTREAM0004.m2ts
Format : BDAV
Format/Info : Blu-ray Video
File size : 12.0 GiB
Duration : 1h 4mn
Overall bit rate mode : Variable
Overall bit rate : 26.3 Mbps
Maximum Overall bit rate : 48.0 Mbps

Video
ID : 4113 (0x1011)
Menu ID : 1 (0x1)
Format : AVC
Format/Info : Advanced Video Codec
Format profile : [email protected]
Format settings, CABAC : Yes
Format settings, ReFrames : 2 frames
Format settings, GOP : M=1, N=10
Codec ID : 27
Duration : 1h 4mn
Bit rate mode : Variable
Width : 1 920 pixels
Height : 1 080 pixels
Display aspect ratio : 16:9
Frame rate : 23.976 fps
Color space : YUV
Chroma subsampling : 4:2:0
Bit depth : 8 bits
Scan type : Progressive

Audio #1
ID : 4352 (0x1100)
Menu ID : 1 (0x1)
Format : PCM
Format settings, Endianness : Big
Format settings, Sign : Signed
Muxing mode : Blu-ray
Codec ID : 128
Duration : 1h 4mn
Bit rate mode : Constant
Bit rate : 2 304 Kbps
Channel(s) : 2 channels
Channel positions : Front: L R
Sampling rate : 48.0 KHz
Bit depth : 24 bits
Stream size : 1.04 GiB (9%)

Audio #2
ID : 4353 (0x1101)
Menu ID : 1 (0x1)
Format : DTS
Format/Info : Digital Theater Systems
Format profile : MA / Core
Mode : 16
Format settings, Endianness : Big
Muxing mode : Stream extension
Codec ID : 134
Duration : 1h 4mn
Bit rate mode : Variable
Bit rate : Unknown / 1 509 Kbps
Channel(s) : 6 channels
Channel positions : Front: L C R, Side: L R, LFE
Sampling rate : 48.0 KHz
Bit depth : 24 bits
Compression mode : Lossless / Lossy

-----------------------------------------------------

General
ID : 0 (0x0)
Complete name : E:Jimi Plays Berkeley 1970 1080pBDMVSTREAM0005.m2ts
Format : BDAV
Format/Info : Blu-ray Video
File size : 1 022 MiB
Duration : 7mn 51s
Overall bit rate mode : Variable
Overall bit rate : 18.2 Mbps
Maximum Overall bit rate : 48.0 Mbps

Video
ID : 4113 (0x1011)
Menu ID : 1 (0x1)
Format : AVC
Format/Info : Advanced Video Codec
Format profile : [email protected]
Format settings, CABAC : Yes
Format settings, ReFrames : 2 frames
Codec ID : 27
Duration : 7mn 51s
Bit rate mode : Variable
Bit rate : 15.1 Mbps
Width : 1 920 pixels
Height : 1 080 pixels
Display aspect ratio : 16:9
Frame rate : 23.976 fps
Color space : YUV
Chroma subsampling : 4:2:0
Bit depth : 8 bits
Scan type : Progressive
Bits/(Pixel*Frame) : 0.304
Stream size : 851 MiB (83%)

Audio
ID : 4352 (0x1100)
Menu ID : 1 (0x1)
Format : PCM
Format settings, Endianness : Big
Format settings, Sign : Signed
Muxing mode : Blu-ray
Codec ID : 128
Duration : 7mn 51s
Bit rate mode : Constant
Bit rate : 2 304 Kbps
Channel(s) : 2 channels
Channel positions : Front: L R
Sampling rate : 48.0 KHz
Bit depth : 24 bits
Stream size : 130 MiB (13%)

-----------------------------------------------------

General
ID : 0 (0x0)
Complete name : E:Jimi Plays Berkeley 1970 1080pBDMVSTREAM0006.m2ts
Format : BDAV
Format/Info : Blu-ray Video
File size : 8.99 GiB
Duration : 1h 7mn
Overall bit rate mode : Variable
Overall bit rate : 19.1 Mbps
Maximum Overall bit rate : 48.0 Mbps

Video
ID : 4113 (0x1011)
Menu ID : 1 (0x1)
Format : AVC
Format/Info : Advanced Video Codec
Format profile : [email protected]
Format settings, CABAC : Yes
Format settings, ReFrames : 2 frames
Format settings, GOP : M=1, N=22
Codec ID : 27
Duration : 1h 7mn
Bit rate mode : Variable
Width : 1 920 pixels
Height : 1 080 pixels
Display aspect ratio : 16:9
Frame rate : 23.976 fps
Color space : YUV
Chroma subsampling : 4:2:0
Bit depth : 8 bits
Scan type : Progressive

Audio #1
ID : 4352 (0x1100)
Menu ID : 1 (0x1)
Format : DTS
Format/Info : Digital Theater Systems
Format profile : MA / Core
Mode : 16
Format settings, Endianness : Big
Muxing mode : Stream extension
Codec ID : 134
Duration : 1h 7mn
Bit rate mode : Variable
Bit rate : Unknown / 1 509 Kbps
Channel(s) : 6 channels
Channel positions : Front: L C R, Side: L R, LFE
Sampling rate : 48.0 KHz
Bit depth : 24 bits
Compression mode : Lossless / Lossy

Audio #2
ID : 4353 (0x1101)
Menu ID : 1 (0x1)
Format : PCM
Format settings, Endianness : Big
Format settings, Sign : Signed
Muxing mode : Blu-ray
Codec ID : 128
Duration : 1h 7mn
Bit rate mode : Constant
Bit rate : 6 912 Kbps
Channel(s) : 6 channels
Channel positions : Front: L C R, Side: L R, LFE
Sampling rate : 48.0 KHz
Bit depth : 24 bits
Stream size : 3.26 GiB (36%)

Screenshots:



http://www.nitroflare.com/view/5413E61CA3F9268/BR.JMHNDPLBRKL.part01.rar
http://www.nitroflare.com/view/746C3572919C1BE/BR.JMHNDPLBRKL.part02.rar
http://www.nitroflare.com/view/9825224EB84C651/BR.JMHNDPLBRKL.part03.rar
http://www.nitroflare.com/view/BF4A6D24EFC3775/BR.JMHNDPLBRKL.part04.rar
http://www.nitroflare.com/view/7E544598058E7B4/BR.JMHNDPLBRKL.part05.rar
http://www.nitroflare.com/view/7EF0BA6475EFBDA/BR.JMHNDPLBRKL.part06.rar
http://www.nitroflare.com/view/D68BB1077067113/BR.JMHNDPLBRKL.part07.rar
http://www.nitroflare.com/view/90C7CC43612F3B7/BR.JMHNDPLBRKL.part08.rar
http://www.nitroflare.com/view/A37E204B179F533/BR.JMHNDPLBRKL.part09.rar
http://www.nitroflare.com/view/08033D71D3F503C/BR.JMHNDPLBRKL.part10.rar
http://www.nitroflare.com/view/EE1A4C4E70D3827/BR.JMHNDPLBRKL.part11.rar
http://www.nitroflare.com/view/CCC422AF9DBF2D2/BR.JMHNDPLBRKL.part12.rar
http://www.nitroflare.com/view/759A3B818413292/BR.JMHNDPLBRKL.part13.rar
http://www.nitroflare.com/view/58CCF76034274FE/BR.JMHNDPLBRKL.part14.rar
http://www.nitroflare.com/view/F94E5AEEDCD9B8B/BR.JMHNDPLBRKL.part15.rar
http://www.nitroflare.com/view/D4A17DFD27C4AC1/BR.JMHNDPLBRKL.part16.rar
http://www.nitroflare.com/view/D784179B7445C36/BR.JMHNDPLBRKL.part17.rar
http://www.nitroflare.com/view/BE537418F60A446/BR.JMHNDPLBRKL.part18.rar
http://www.nitroflare.com/view/8A8A3FA66494CA2/BR.JMHNDPLBRKL.part19.rar
http://www.nitroflare.com/view/C2F636683D80FA2/BR.JMHNDPLBRKL.part20.rar
http://www.nitroflare.com/view/25B79982E6B60B5/BR.JMHNDPLBRKL.part21.rar
http://www.nitroflare.com/view/41DDC5431AC2EB8/BR.JMHNDPLBRKL.part22.rar
http://www.nitroflare.com/view/D70EE24FCDB7EA6/BR.JMHNDPLBRKL.part23.rar
http://www.nitroflare.com/view/BAB0075C51FAC49/BR.JMHNDPLBRKL.part24.rar
http://www.nitroflare.com/view/9225AD2AE006DEB/BR.JMHNDPLBRKL.part25.rar
http://www.nitroflare.com/view/D4299E12EE6FE19/BR.JMHNDPLBRKL.part26.rar
http://www.nitroflare.com/view/BE0519A47320C0E/BR.JMHNDPLBRKL.part27.rar
http://www.nitroflare.com/view/0363C311D5AD0F7/BR.JMHNDPLBRKL.part28.rar
http://www.nitroflare.com/view/5FDF85F7D3A8450/BR.JMHNDPLBRKL.part29.rar
http://www.nitroflare.com/view/8D469EC266BCAF4/BR.JMHNDPLBRKL.part30.rar
http://www.nitroflare.com/view/265A69D3B339BD6/BR.JMHNDPLBRKL.part31.rar
http://www.nitroflare.com/view/324C2519B9D7B91/BR.JMHNDPLBRKL.part32.rar
http://www.nitroflare.com/view/116647D16299301/BR.JMHNDPLBRKL.part33.rar
http://www.nitroflare.com/view/9494B12A918DF6D/BR.JMHNDPLBRKL.part34.rar
http://www.nitroflare.com/view/4104CF7B9C8CF96/BR.JMHNDPLBRKL.part35.rar
http://www.nitroflare.com/view/10C7FB74BEACEEA/BR.JMHNDPLBRKL.part36.rar
http://www.nitroflare.com/view/E0DFC357B35558D/BR.JMHNDPLBRKL.part37.rar
http://www.nitroflare.com/view/4F6BE0BC4F459CA/BR.JMHNDPLBRKL.part38.rar
http://www.nitroflare.com/view/D3661D4A54ECEBE/BR.JMHNDPLBRKL.part39.rar
http://www.nitroflare.com/view/B7098DAEEC3B56A/BR.JMHNDPLBRKL.part40.rar
http://www.nitroflare.com/view/D34834EFD02CFEC/BR.JMHNDPLBRKL.part41.rar
http://www.nitroflare.com/view/0EACE9E505456DC/BR.JMHNDPLBRKL.part42.rar
http://www.nitroflare.com/view/D8E6D2E8C2CC6CD/BR.JMHNDPLBRKL.part43.rar
http://www.nitroflare.com/view/80136FA1EC36A0C/BR.JMHNDPLBRKL.part44.rar
http://www.nitroflare.com/view/BEC107BCAD95814/BR.JMHNDPLBRKL.part45.rar
http://www.nitroflare.com/view/75FDDBCBF9DBAEB/BR.JMHNDPLBRKL.part46.rar