Вход в свой аккаунт

Или войдите через соц. сети

Big Joe Duskin - Cincinnati Stomp (1979) Reissue 1995


Big Joe Duskin - Cincinnati Stomp (1979) Reissue 1995
EAC | FLAC | Image (Cue&Log) ~ 347 Mb (incl 5%) | Mp3 (CBR320) ~ 178 Mb (incl 5%) | Scans included
Genre: Piano Blues, Boogie-Woogie, Juke Joint Blues | Label: Arhoolie | # CD 422 | Time: 01:03:41

“ Fine set presenting vintage barrelhouse piano and stomping blues by Big Joe Duskin, one of the last true stylists in both genres. Duskin's album was released with no fanfare and didn't attract the widespread notice it deserved.

Review by Ron Wynn, Allmusic.com
”







Tracklist:

01. Mean Old Frisco (03:08)
02. Roll 'Em Pete (03:07)
03. Stormin' In Texas (04:07)
04. Cincinnati Stomp (02:42)
05. Little Red Rooster (03:43)
06. The Tribute (04:26)
07. Down The Road Apiece (02:16)
08. Well, Well Baby (04:38)
09. Honky Tonk Train (03:08)
10. Beat Me Daddy, Eight To The Bar (02:54)
11. Tender Hearted Woman (03:38)
12. Stoop Down Baby (02:36)
13. Betty And Dupree (05:01)
14. Yancey Special (03:15)
15. Slidell Blues (05:05)
16. Dollar Bill Boogie (02:26)
17. I Met A Girl Named Martha (03:46)
18. Boogie Woogie Prayer (03:36)


Exact Audio Copy V0.99 prebeta 4 from 23. January 2008

EAC extraction logfile from 6. November 2009, 23:51

Big Joe Duskin / Cincinnati Stomp

Used drive : PLEXTOR CD-R PX-230A Adapter: 1 ID: 1

Read mode : Secure
Utilize accurate stream : Yes
Defeat audio cache : Yes
Make use of C2 pointers : No

Read offset correction : 738
Overread into Lead-In and Lead-Out : No
Fill up missing offset samples with silence : Yes
Delete leading and trailing silent blocks : No
Null samples used in CRC calculations : Yes
Used interface : Installed external ASPI interface

Used output format : User Defined Encoder
Selected bitrate : 1024 kBit/s
Quality : High
Add ID3 tag : No
Command line compressor : C:Program FilesExact Audio CopyFLACFLAC.EXE
Additional command line options : -6 -V -T "ARTIST=%a" -T "TITLE=%t" -T "ALBUM=%g" -T "DATE=%y" -T "TRACKNUMBER=%n" -T "GENRE=%m" -T "COMMENT=%e" %s -o %d


TOC of the extracted CD

Track | Start | Length | Start sector | End sector
---------------------------------------------------------
1 | 0:00.00 | 3:08.02 | 0 | 14101
2 | 3:08.02 | 3:07.20 | 14102 | 28146
3 | 6:15.22 | 4:07.63 | 28147 | 46734
4 | 10:23.10 | 2:42.54 | 46735 | 58938
5 | 13:05.64 | 3:43.46 | 58939 | 75709
6 | 16:49.35 | 4:26.15 | 75710 | 95674
7 | 21:15.50 | 2:16.55 | 95675 | 105929
8 | 23:32.30 | 4:38.70 | 105930 | 126849
9 | 28:11.25 | 3:08.42 | 126850 | 140991
10 | 31:19.67 | 2:54.30 | 140992 | 154071
11 | 34:14.22 | 3:38.35 | 154072 | 170456
12 | 37:52.57 | 2:36.28 | 170457 | 182184
13 | 40:29.10 | 5:01.62 | 182185 | 204821
14 | 45:30.72 | 3:15.48 | 204822 | 219494
15 | 48:46.45 | 5:05.30 | 219495 | 242399
16 | 53:52.00 | 2:26.05 | 242400 | 253354
17 | 56:18.05 | 3:46.40 | 253355 | 270344
18 | 60:04.45 | 3:36.35 | 270345 | 286579


Range status and errors

Selected range

Filename J:RipsBig Joe Duskin - Cincinnati Stomp.wav

Peak level 99.9 %
Range quality 99.9 %
Test CRC F220E791
Copy CRC F220E791
Copy OK

No errors occurred


AccurateRip summary

Track 1 accurately ripped (confidence 1) [ACAE8741]
Track 2 accurately ripped (confidence 1) [EB5A360B]
Track 3 accurately ripped (confidence 1) [990248E0]
Track 4 accurately ripped (confidence 1) [D94263CA]
Track 5 accurately ripped (confidence 1) [EECBAE93]
Track 6 accurately ripped (confidence 1) [33E266C2]
Track 7 accurately ripped (confidence 1) [E43D0FD4]
Track 8 accurately ripped (confidence 1) [036EBC14]
Track 9 accurately ripped (confidence 1) [831F8C73]
Track 10 accurately ripped (confidence 1) [9105009F]
Track 11 accurately ripped (confidence 1) [1C285510]
Track 12 accurately ripped (confidence 1) [94AFDCB1]
Track 13 accurately ripped (confidence 1) [CC236A0D]
Track 14 accurately ripped (confidence 1) [B617E4A6]
Track 15 accurately ripped (confidence 1) [DC192F1B]
Track 16 accurately ripped (confidence 1) [133F8828]
Track 17 accurately ripped (confidence 1) [4DC3C5C0]
Track 18 accurately ripped (confidence 1) [2F1C74ED]

All tracks accurately ripped

End of status report

foobar2000 1.2 / Dynamic Range Meter 1.1.1
log date: 2015-06-18 15:02:55

--------------------------------------------------------------------------------
Analyzed: Big Joe Duskin / Cincinnati Stomp
--------------------------------------------------------------------------------

DR Peak RMS Duration Track
--------------------------------------------------------------------------------
DR13 -0.40 dB -15.97 dB 3:08 01-Mean Old Frisco
DR14 -0.04 dB -17.32 dB 3:07 02-Roll 'Em Pete
DR15 -0.87 dB -19.60 dB 4:08 03-Stormin' In Texas
DR14 -0.02 dB -15.39 dB 2:43 04-Cincinnati Stomp
DR14 -1.05 dB -17.66 dB 3:44 05-Little Red Rooster
DR15 -0.03 dB -18.42 dB 4:26 06-The Tribute
DR14 -0.44 dB -16.99 dB 2:17 07-Down The Road Apiece
DR15 -0.01 dB -17.45 dB 4:39 08-Well, Well Baby
DR14 -0.14 dB -17.27 dB 3:09 09-Honky Tonk Train
DR13 -1.18 dB -17.12 dB 2:54 10-Beat Me Daddy, Eight To The Bar
DR14 -0.01 dB -14.92 dB 3:38 11-Tender Hearted Woman
DR13 -0.08 dB -15.24 dB 2:36 12-Stoop Down Baby
DR14 -0.03 dB -16.04 dB 5:02 13-Betty And Dupree
DR13 -0.31 dB -17.36 dB 3:16 14-Yancey Special
DR15 -0.01 dB -17.47 dB 5:05 15-Slidell Blues
DR13 -0.15 dB -16.55 dB 2:26 16-Dollar Bill Boogie
DR13 -0.29 dB -16.82 dB 3:47 17-I Met A Girl Named Martha
DR10 -0.41 dB -14.45 dB 3:36 18-Boogie Woogie Prayer
--------------------------------------------------------------------------------

Number of tracks: 18
Official DR value: DR14

Samplerate: 44100 Hz
Channels: 2
Bits per sample: 16
Bitrate: 672 kbps
Codec: FLAC
================================================================================



All thanks to original releaser - СЂРјx222



Password: designol