Вход в свой аккаунт

Или войдите через соц. сети

Pino Donaggio - Passion: Original Motion Picture Soundtrack (2013)


Pino Donaggio - Passion: Original Motion Picture Soundtrack (2013)
EAC | FLAC | Image (Cue&Log) ~ 239 Mb (incl 5%) | Mp3 (CBR320) ~ 124 Mb (incl 5%) | Scans included
Genre: Soundtrack, Score | Label: Quartet | # SM023 | Time: 00:48:10

“ Fans of Donaggio's previous De Palma scores will find a lot to admire here. In the many years since his last collaboration with De Palma, Donaggio hasn't lost a step, and his score for PASSION contains all the brooding darkness and sensuality one would want. As a bonus, you get an excellent recording of one of Debussy's finest pieces.

Review by Silas Thorn, Amazon.com
”


“ The career of Brian De Palma confounds me. From his early-career highs crafting masterpiece movies such as Carrie, Dressed to Kill, Blow-Out and Scarface, in recent years his output has consisted mainly of a series of tawdry sex thrillers that either bomb at the box office, or go straight to video - The Black Dahlia, Femme Fatale, Redacted, and so on. His technical mastery remains unmatched however, as his latest film, Passion, attests. It's a tawdry sexy thriller (of course), a remake of the 2010 French language film Crime d'Amour, and stars Noomi Rapace as Isabelle, an ambitious up-and-coming executive at an international company, who constantly suffers a series of professional and personal humiliations at the hands of her boss, Christine, played by Rachel McAdams. The tables begin to turn when Isabelle - who is secretly sleeping with Christine's boyfriend Dirk (Paul Anderson) - hatches a plot to finally seek revenge on the manipulative Christine, one of the key parts of which is to seduce Christine herself...

One constant of Brian De Palma's career is his consistent employment of outstanding composers, who go on to create great scores for his films. John Williams scored The Fury, Ennio Morricone scored Casualties of War, The Untouchables and Mission to Mars, and Patrick Doyle scored Carlito's Way, but by far his most regular collaborator over the years has been Italian composer Pino Donaggio, who contributed music to films including the aforementioned Carrie, Dressed to Kill and Blow-Out, as well as Home Movies and Raising Cain, amongst others. Donaggio has largely been absent from the international scoring scene for nearly a decade, emerging only occasionally through an art house hit like Up at the Villa, or an acclaimed foreign language feature like the 2008 Dutch drama Oorlogswinter. However, throughout his 40-year career, Donaggio's elegant and dramatic music has been of constantly high standard, often surpassing the quality of the film he is scoring, and Passion is very much in that vein.

Passion is a classic erotic thriller score, filled to the brim with effortlessly seductive themes, classy romance, and no small amount of drama and tension, performed superbly by the Czech National Symphony Orchestra under the baton of his long-time collaborator, conductor Natale Massara. Donaggio's music has that perfect combination of innocence and intrigue which makes it completely compelling and hugely enjoyable, capturing the characters of Christine and Isabelle as they move from being rivals, both at the office and in the bedroom, to lovers, and more.

Each cue of the album presents a different musical aspect of the film, with the exception of the recurring "Passion Theme", which I'll get to later. The opening piece, "Twin Souls", is a mischievous dance which passes a sprightly melody throughout the various parts of woodwind and string sections, and includes an especially notable bouncing oboe element which is very reminiscent of Rachel Portman's early work. "The Breakdown" is a more intimate piano-led piece which has a melancholy, introverted feel, beautifully stated, but with a definite hint of sadness to its tone and progressions. When a viola picks up the melody in the cue's final third, the power of the sadness is clearly apparent.

Later, "Back Issues" is an unusual diversion of retro-jazz filtered through Donaggio's 1960s Italiano sensibilities, again featuring a prominent brass section, an Гјber-cool electric guitar, and fat percussive beats; this segues into the more tension-filled "Know That Know", which uses the similar percussive beats from the previous cue, but plays them as a heartbeat pulse underneath edgy string sustains that elicit an air of oppression, and a strangely whimsical flute figure which weaves in and out of the music with a pseudo-Goldsmith Basic Instinct vibe.

"A Dreamer's Dream" plays around with harp glissandi offset against more moody string and flute writing, further enhancing the mood of enticing edginess, that classic combination of seduce and murder. "Perversions and Diversions" is an honest-to-god old-fashioned sex theme, a wonderful throwback to all those great 1990s Cinemax cable TV scores written by George S. Clinton and Ashley Irwin, which were themselves inspired by the classic erotic thriller score, John Barry's Body Heat from 1980. The cue oozes sultry seductiveness, and even when he breaks out the old soprano saxophone, the sound is appropriately enticing when it could have easily been a complete clichГ©.

"Higher Heels" is a slightly-dated sounding disco piece that can be skipped over and is the score's low point; the 8-minute "Journey Through a Nightmare" is its complete antithesis, a slow-burning piece of engrossing suspense that begins softly with precise string scales, flute accents, and gentle chimes, but gradually builds into an outstanding fugue-like assault on the senses, forcefully led by a bank of strident, powerful, thrusting violins that are not too dissimilar from those that John Williams wrote for The Fury back in the late 1970s.

However, the centerpiece of the score is the aforementioned "Passion Theme", which first appears in the eponymous third cue, and later forms the core of the equally lovely "The Last Drop". A lush, expressive theme for the full orchestra but led by piano and strings, it's one of the most beautiful pieces I've heard from Donaggio in quite some time, capturing perfectly the passionate love triangle at the very core of the film. Donaggio is a composer who is not afraid to let the emotion of the film reflect fully in his music, and Brian De Palma should be applauded for allowing his composer to express that emotion in such a powerful and direct way, in contrast to the pervasive thinking that seems to dominate most mainstream Hollywood scores these days.

The final cue' "Last Surprise", restates both the Breakdown and Passion themes as a coda to the action which is really exquisite. Rounding out the score is a lovely performance of Debussy's classic 1894 tone poem "PrГ©lude Г  l'AprГЁs-Midi d'Un Faune", performed by the Berliner Philharmoniker conducted by the legendary Sir Simon Rattle, furthering the album's sense of sophistication and style. All in all, this is a very enjoyable and thoroughly entertaining score for a film which really shouldn't have music this good. Pino Donaggio and the small group of other composers who write in his mode are a dying breed in cinema these days - composers who are not afraid to endow their films with music that accentuates, not diminishes the emotion - the passion - on screen, and which is expressly intended to make the audience feel, and empathize, with the characters they are watching. I absolutely recommend Passion to listeners who value this sort of writing, and who want a chance to perhaps discover the music of the great Pino Donaggio for the first time.

Review by Jon Broxton, Amazon.com
”



Pino Donaggio & Brian De Palma










Tracklist:

01. Twin Souls (03:09)
02. The Breakdown (03:14)
03. Passion Theme (04:08)
04. Back Issues (01:21) with Paolo Steffan
05. I Know What I Know (04:27)
06. A Dreamer's Dream (03:16)
07. Prelude A L'Apres-Midi D'Un Faune (10:20) by Claude Debussy
08. Perversions And Diversions (03:47) with Paolo Steffan
09. The Last Drop (02:15)
10. Higher Heels (01:07)
11. Journey Through A Nightmare (07:45)
12. Last Surprise (03:17)


Exact Audio Copy V1.0 beta 3 from 29. August 2011

EAC extraction logfile from 5. August 2014, 19:21

Pino Donaggio / Passion

Used drive : TSSTcorpCDDVDW SH-S202H Adapter: 0 ID: 0

Read mode : Secure
Utilize accurate stream : Yes
Defeat audio cache : Yes
Make use of C2 pointers : No

Read offset correction : 6
Overread into Lead-In and Lead-Out : No
Fill up missing offset samples with silence : Yes
Delete leading and trailing silent blocks : No
Null samples used in CRC calculations : Yes
Used interface : Native Win32 interface for Win NT & 2000

Used output format : Internal WAV Routines
Sample format : 44.100 Hz; 16 Bit; Stereo


TOC of the extracted CD

Track | Start | Length | Start sector | End sector
---------------------------------------------------------
1 | 0:00.00 | 3:09.37 | 0 | 14211
2 | 3:09.37 | 3:14.28 | 14212 | 28789
3 | 6:23.65 | 4:08.03 | 28790 | 47392
4 | 10:31.68 | 1:21.11 | 47393 | 53478
5 | 11:53.04 | 4:27.17 | 53479 | 73520
6 | 16:20.21 | 3:16.25 | 73521 | 88245
7 | 19:36.46 | 10:20.12 | 88246 | 134757
8 | 29:56.58 | 3:47.17 | 134758 | 151799
9 | 33:44.00 | 2:15.65 | 151800 | 161989
10 | 35:59.65 | 1:07.37 | 161990 | 167051
11 | 37:07.27 | 7:45.74 | 167052 | 202000
12 | 44:53.26 | 3:17.34 | 202001 | 216809


Range status and errors

Selected range

Filename D:Pino Donaggio - PassionPino Donaggio - Passion.wav

Peak level 98.8 %
Extraction speed 7.3 X
Range quality 100.0 %
Test CRC 040623BA
Copy CRC 040623BA
Copy OK

No errors occurred


AccurateRip summary

Track 1 accurately ripped (confidence 2) [8A11A1BF] (AR v2)
Track 2 accurately ripped (confidence 2) [4A92C9B2] (AR v2)
Track 3 accurately ripped (confidence 2) [C733FDB7] (AR v2)
Track 4 accurately ripped (confidence 2) [48E21BED] (AR v2)
Track 5 accurately ripped (confidence 2) [7E92D6C1] (AR v2)
Track 6 accurately ripped (confidence 2) [4306C3C8] (AR v2)
Track 7 accurately ripped (confidence 2) [78064A4F] (AR v2)
Track 8 accurately ripped (confidence 2) [ECDCA4D8] (AR v2)
Track 9 accurately ripped (confidence 2) [BC7CF47B] (AR v2)
Track 10 accurately ripped (confidence 2) [73E3E4E0] (AR v2)
Track 11 accurately ripped (confidence 2) [2AE18916] (AR v2)
Track 12 accurately ripped (confidence 2) [5ECD5B88] (AR v2)

All tracks accurately ripped

End of status report

==== Log checksum 4487F4978E652A1748B2440F69A28E09A32DE20F11DBEA05470820010CE2A4B0 ====

foobar2000 1.2 / Dynamic Range Meter 1.1.1
log date: 2015-06-22 17:02:27

--------------------------------------------------------------------------------
Analyzed: Pino Donaggio & Paolo Steffan / Passion
--------------------------------------------------------------------------------

DR Peak RMS Duration Track
--------------------------------------------------------------------------------
DR8 -0.10 dB -9.68 dB 1:21 04-Back Issues
DR8 -0.10 dB -10.83 dB 3:47 08-Perversions And Diversions
--------------------------------------------------------------------------------

Number of tracks: 2
Official DR value: DR8

Samplerate: 44100 Hz
Channels: 2
Bits per sample: 16
Bitrate: 638 kbps
Codec: FLAC
================================================================================

--------------------------------------------------------------------------------
Analyzed: Pino Donaggio / Passion
--------------------------------------------------------------------------------

DR Peak RMS Duration Track
--------------------------------------------------------------------------------
DR13 -0.10 dB -17.85 dB 3:09 01-Twin Souls
DR13 -5.67 dB -23.43 dB 3:14 02-The Breakdown
DR10 -0.10 dB -14.40 dB 4:08 03-Passion Theme
DR11 -0.10 dB -13.40 dB 4:27 05-I Know What I Know
DR12 -0.10 dB -16.40 dB 3:16 06-A Dreamer's Dream
DR11 -2.99 dB -19.43 dB 2:16 09-The Last Drop
DR5 -0.10 dB -5.72 dB 1:07 10-Higher Heels
DR12 -0.10 dB -16.66 dB 7:46 11-Journey Through A Nightmare
DR12 -0.40 dB -17.96 dB 3:17 12-Last Surprise
--------------------------------------------------------------------------------

Number of tracks: 9
Official DR value: DR11

Samplerate: 44100 Hz
Channels: 2
Bits per sample: 16
Bitrate: 638 kbps
Codec: FLAC
================================================================================

foobar2000 1.2 / Dynamic Range Meter 1.1.1
log date: 2015-06-22 17:02:24

--------------------------------------------------------------------------------
Statistics for: 07-Prelude A L'Apres-Midi D'Un Faune
Number of samples: 27349056
Duration: 10:20
--------------------------------------------------------------------------------

Left Right

Peak Value: -4.85 dB --- -5.28 dB
Avg RMS: -27.23 dB --- -27.73 dB
DR channel: 15.13 dB --- 14.11 dB
--------------------------------------------------------------------------------

Official DR Value: DR15

Samplerate: 44100 Hz
Channels: 2
Bits per sample: 16
Bitrate: 638 kbps
Codec: FLAC
================================================================================



All thanks to original releaser - Composer's fan



Password: designol