Вход в свой аккаунт

Или войдите через соц. сети

Various Artists (Bette Midler) - For The Boys (Music From The Motion Picture) (1991)


Various Artists (Bette Midler) - For The Boys (Music From The Motion Picture) (1991)
EAC Secure Rip | FLAC (Image + Cue + Log) - 210 MB | Complete Scans (Jpeg 600 dpi) - 77.6 MB | MP3 (CBR320 Kbps) - 97.5 MB
Vocal Pop, Big Band Jazz, Soundtrack | Atlantic Recording Corporation | 7 82329-2 | 37:12 minutes | Hosted on: NitroFlare

In the movie Midler and Caan play the USO entertainers Dixie Leonard and Eddie Sparks who travel and perform together through World War II, the Korean War, and the Vietnam War and the soundtrack mainly consists of period music from the songbooks of Hoagy Carmichael, Ray Evans, Johnny Mercer, Harold Arlen and Frank Loesser, including jazz standards and evergreens like "P.S. I Love You", "Stuff Like That There", "Come Rain or Come Shine" and Leonard and Sparks' signature tune "I Remember You". A few of the tracks performed by Midler and Caan were however originals composed especially for the movie; "Dixie's Dream" was written by Midler's longtime collaborator Marc Shaiman and "Dreamland" by Alan and Marilyn Bergman and co-producer Dave Grusin, and Grusin also wrote the Golden Globe nominated original score.

For the Boys was promoted by the Diane Warren-penned ballad "Every Road Leads Back To You" which became a Top 20 hit on the US adult contemporary chart, peaking at #15. The second single was Midler's interpretation of The Beatles "In My Life", in the movie performed by Dixie Leonard as she entertains the US troops during the Vietnam war. "In My Life" also reached #20 on the adult contemporary chart and later made its way onto Midler's greatest hits collection Experience the Divine.

For the Boys album reached #22 on the U.S. album chart, and was later certified Gold by the RIAA, and #75 in the UK.

“ A film placing Midler in The Andrews Sisters' milieu of WWII was an inspired choice, and the soundtrack shows her abilities on period material as well as giving her a chance to sing a touching version of The Beatles' "In My Life." Reviewed by William Ruhlmann of allmusic.com ”

*this is a stupid, short, uninsiteful review of this wonderful soundtrack. Staduim Studios gives the album five stars!


Exact Audio Copy V1.0 beta 2 from 29. April 2011

EAC extraction logfile from 23. June 2015, 18:57

Various Artists / For The Boys (Music From The Motion Picture)

Used drive : HL-DT-STBD-RE BH14NS40 Adapter: 0 ID: 2

Read mode : Secure
Utilize accurate stream : Yes
Defeat audio cache : Yes
Make use of C2 pointers : No

Read offset correction : 6
Overread into Lead-In and Lead-Out : No
Fill up missing offset samples with silence : Yes
Delete leading and trailing silent blocks : No
Null samples used in CRC calculations : Yes
Used interface : Native Win32 interface for Win NT & 2000

Used output format : User Defined Encoder
Selected bitrate : 1024 kBit/s
Quality : High
Add ID3 tag : No
Command line compressor : C:Program Files (x86)Exact Audio CopyFlacflac.exe
Additional command line options : -V -5 -T "artist=%albumartist%" -T "title=%title%" -T "album=%albumtitle%" -T "date=%year%" -T "genre=%genre%" -T "tracknumber=%tracknr%" %source%


TOC of the extracted CD

Track | Start | Length | Start sector | End sector
---------------------------------------------------------
1 | 0:00.32 | 1:35.38 | 32 | 7194
2 | 1:35.70 | 2:50.60 | 7195 | 20004
3 | 4:26.55 | 3:33.20 | 20005 | 35999
4 | 8:00.00 | 1:16.20 | 36000 | 41719
5 | 9:16.20 | 2:21.35 | 41720 | 52329
6 | 11:37.55 | 1:29.32 | 52330 | 59036
7 | 13:07.12 | 3:16.18 | 59037 | 73754
8 | 16:23.30 | 2:29.12 | 73755 | 84941
9 | 18:52.42 | 4:00.38 | 84942 | 102979
10 | 22:53.05 | 3:30.37 | 102980 | 118766
11 | 26:23.42 | 3:26.28 | 118767 | 134244
12 | 29:49.70 | 3:34.32 | 134245 | 150326
13 | 33:24.27 | 3:47.68 | 150327 | 167419


Range status and errors

Selected range

Filename C:EACVarious Artists - (1991) For The Boys (Music From The Motion Picture)Various Artists - For The Boys (Music From The Motion Picture).wav

Peak level 100.0 %
Extraction speed 2.8 X
Range quality 100.0 %
Test CRC BDD8F732
Copy CRC BDD8F732
Copy OK

No errors occurred


AccurateRip summary

Track 1 accurately ripped (confidence 24) [CA2E09D5] (AR v2)
Track 2 accurately ripped (confidence 24) [CD6F4974] (AR v2)
Track 3 accurately ripped (confidence 24) [924B2891] (AR v2)
Track 4 accurately ripped (confidence 24) [C5AC5044] (AR v2)
Track 5 accurately ripped (confidence 24) [FEB45926] (AR v2)
Track 6 accurately ripped (confidence 24) [69BFA1A9] (AR v2)
Track 7 accurately ripped (confidence 24) [9047F854] (AR v2)
Track 8 accurately ripped (confidence 22) [028CAEB8] (AR v2)
Track 9 accurately ripped (confidence 23) [B7E234CE] (AR v2)
Track 10 accurately ripped (confidence 23) [6A74E882] (AR v2)
Track 11 accurately ripped (confidence 24) [7D51613F] (AR v2)
Track 12 accurately ripped (confidence 23) [693874D5] (AR v2)
Track 13 accurately ripped (confidence 23) [2A26EE48] (AR v2)

All tracks accurately ripped

End of status report

==== Log checksum 203D2699DC5D560F1FE003AB3C1F632DA9CC1273606265D0E093CABC899F6B23 ====



Track Listing:

01. Billy-A-Dick - Bette Midler
02. Stuff Like That There - Bette Midler
03. P.S. I Love You - Bette Midler
04. The Girl Friend Of The Whirling Dervish
05. I Remember You/Dixie's Dream - Bette Midler and James Caan
06. Baby It's Cold Outside - Bette Midler and James Caan
07. Dreamland - Bette Midler
08. Vickie And Mr. Valves - trumpet solo by Jack Sheldon
09. For All We Know - Bette Midler
10. Come Rain Or Come Shine - Bette Midler
11. In My Life - Bette Midler
12. I Remember You - Bette Midler
13. Every Road Leads Back To You - Bette Midler


Soundtrack Album Released: November 12, 1991
Film Released: November 22, 1991


foobar2000 1.3.2 / Dynamic Range Meter 1.1.0
log date: 2015-06-23 19:02:04

--------------------------------------------------------------------------------
Analyzed: Bette Midler / For The Boys (Music From The Motion Picture) (1-3)
Instrumental With Chorus / For The Boys (Music From The Motion Picture) (4)
Bette Midler & James Caan / For The Boys (Music From The Motion Picture) (5-6)
Bette Midler / For The Boys (Music From The Motion Picture) (7)
Instrumental / For The Boys (Music From The Motion Picture) (8)
Bette Midler / For The Boys (Music From The Motion Picture) (9-13)
--------------------------------------------------------------------------------

DR Peak RMS Duration Track
--------------------------------------------------------------------------------
DR14 -1.68 dB -17.81 dB 1:36 01-Billy-A-Dick
DR13 0.00 dB -15.75 dB 2:51 02-Stuff Like That There
DR13 -2.05 dB -19.15 dB 3:33 03-P.S. I Love You
DR12 -1.31 dB -15.98 dB 1:16 04-The Girl Friend Of The Whirling Dervish
DR12 -5.10 dB -19.28 dB 2:21 05-I Remember You/Dixie's Dream
DR11 -4.10 dB -17.73 dB 1:29 06-Baby It's Cold Outside
DR12 -4.62 dB -20.53 dB 3:16 07-Dreamland
DR12 -0.43 dB -15.51 dB 2:29 08-Vickie And Mr. Valves
DR11 -3.08 dB -18.84 dB 4:01 09-For All We Know
DR11 -3.60 dB -18.49 dB 3:30 10-Come Rain Or Come Shine
DR13 -3.44 dB -20.71 dB 3:26 11-In My Life
DR12 -1.63 dB -17.94 dB 3:34 12-I Remember You
DR11 -2.47 dB -16.82 dB 3:48 13-Every Road Leads Back To You
--------------------------------------------------------------------------------

Number of tracks: 13
Official DR value: DR12

Samplerate: 44100 Hz
Channels: 2
Bits per sample: 16
Bitrate: 750 kbps
Codec: FLAC
================================================================================


5% WinRar Recovery
If you experience any problems or broken links, PLEASE SEND PM to flac jacket.


Please also visit: