Вход в свой аккаунт

Или войдите через соц. сети

Joey Alexander - My Favorite Things (2015)


Joey Alexander - My Favorite Things (2015)
EAC | FLAC | Tracks (Cue&Log) ~ 307 Mb (incl 5%) | Scans included | Time: 00:58:31
Genre: Piano Jazz, Straight-Ahead Jazz, Post Bop | Label: Motema | # MTA-CD-171

“ The debut album from jazz piano prodigy Joey Alexander, 2015's My Favorite Things showcases the 11-year-old's stunning keyboard virtuosity. Joining Alexander here is a mix of older and younger associates, including journeyman bassist Larry Grenadier and drummer Ulysses Owens, Jr. Also backing Alexander on various tracks are bassist Russell Hall, drummer Sammy Miller, and up-and-coming firebrand trumpeter Alphonso Horne. Working with Grammy-winning producer Jason Olaine, who previously helmed albums by such jazz luminaries as Roy Hargrove, Chris Potter, Kurt Rosenwinkel, and others, Alexander delivers a handful of jazz standards and songs culled from the American Popular Songbook in adroit, acoustic, swinging fashion.

Review by Matt Collar, Allmusic.com
”


“ As a jazz pianist for over 45 years, I try to keep up with every jazz pianist out there. I first heard of Joey about 6 months ago after googling for "Jazz piano prodigies". I had been familiar with Eldar Djangirov from the age of 13, totally amazed at his early development and mastery of the piano and jazz idiom. Then there has been Beka Gochiashvili, the Georgian phenom. Now here's another prodigy that is destined to amaze listeners around the world in the months and years ahead--The incredibly gifted Joey Alexander.

Prior to the release of this debut album, I had been searching for every clip on YouTube and Joey's Facebook page that I could find. He amazes me on all levels. When he plays solo, his inventiveness and unpredictability as to what he will play next are always clearly at the forefront. When he plays in a trio format, he blows me away. But I also have been very impressed with his accompaniments of other musicians and even singers. All of this is just so rare in a musician so young. This is about so much more than technique, or understanding of jazz harmonies, phrasing, licks and the jazz/standards repertoire. Joey exhibits tremendous maturity in his playing--like a pianist with five times his experience. I'm aghast at how well seasoned he sounds--leaving space, weaving in and out of the groove in ingenious ways, even sounding at times like he's lost his place in the tune, even though he hasn't.

Joey has all the tools--he can play with fire, very softly and introspectively, he swings, his harmonic sense is very deep, he plays up and down the entire keyboard, he is very creative and you never know what going to come out next--he's full of surprises in his playing, never boring.

This album was recorded last October, so already he has an additional seven months of experience. I regret missing his live-stream performance at Dizzy's Club Coca Cola this past April 30, but comments I've read all indicate a stellar performance. But the album is a joy and every track is rich in content and drama. His reading of ballads like "Over the Rainbow" and "Lush Life" is first rate for a pianist of ANY age, let alone 11 years old.

Most importantly, Joey is a beautiful person with a deep Christian faith, good principles and very likable. He will go very far and I wish him all the success in the world. 5 stars is woefully inadequate! Go Joey!!

Review by J Redfield, Amazon.com
”





Tracklist:

01. Giant Steps (10:15)
02. Lush Life (08:13)
03. My Favorite Things (06:16)
04. It Might as Well Be Spring (05:28)
05. Ma Blues (06:51)
06. 'Round Midnight (06:50)
07. I Mean You (04:15)
08. Tour de Force (05:50)
09. Over the Rainbow (04:30)


Exact Audio Copy V1.0 beta 3 from 29. August 2011

EAC extraction logfile from 28. May 2015, 8:52

Joey Alexander / My Favorite Things

Used drive : HL-DT-STDVD+-RW GH30N Adapter: 0 ID: 1

Read mode : Secure
Utilize accurate stream : Yes
Defeat audio cache : Yes
Make use of C2 pointers : No

Read offset correction : 102
Overread into Lead-In and Lead-Out : No
Fill up missing offset samples with silence : Yes
Delete leading and trailing silent blocks : No
Null samples used in CRC calculations : Yes
Used interface : Native Win32 interface for Win NT & 2000
Gap handling : Appended to previous track

Used output format : User Defined Encoder
Selected bitrate : 1024 kBit/s
Quality : High
Add ID3 tag : No
Command line compressor : D:Program FilesExact Audio CopyFlacflac.exe
Additional command line options : -8 -V -T "ARTIST=%artist%" -T "TITLE=%title%" -T "ALBUM=%albumtitle%" -T "DATE=%year%" -T "TRACKNUMBER=%tracknr%" -T "GENRE=%genre%" -T "PERFORMER=%albuminterpret%" -T "COMPOSER=%composer%" %haslyrics%--tag-from-file=LYRICS="%lyricsfile%"%haslyrics% -T "ALBUMARTIST=%albumartist%" -T "DISCNUMBER=%cdnumber%" -T "TOTALDISCS=%totalcds%" -T "TOTALTRACKS=%numtracks%" -T "COMMENT=%comment%" %source% -o %dest%


TOC of the extracted CD

Track | Start | Length | Start sector | End sector
---------------------------------------------------------
1 | 0:00.00 | 10:15.23 | 0 | 46147
2 | 10:15.23 | 8:13.47 | 46148 | 83169
3 | 18:28.70 | 6:16.38 | 83170 | 111407
4 | 24:45.33 | 5:28.25 | 111408 | 136032
5 | 30:13.58 | 6:51.07 | 136033 | 166864
6 | 37:04.65 | 6:50.07 | 166865 | 197621
7 | 43:54.72 | 4:15.30 | 197622 | 216776
8 | 48:10.27 | 5:50.24 | 216777 | 243050
9 | 54:00.51 | 4:30.71 | 243051 | 263371


Track 1

Filename D:EAC Raw RipsMy Favorite Things1 Giant Steps.wav

Pre-gap length 0:00:02.00

Peak level 100.0 %
Extraction speed 1.8 X
Track quality 100.0 %
Test CRC F33FBAB2
Copy CRC F33FBAB2
Track not present in AccurateRip database
Copy OK

Track 2

Filename D:EAC Raw RipsMy Favorite Things2 Lush Life.wav

Peak level 96.8 %
Extraction speed 2.2 X
Track quality 100.0 %
Test CRC 0B420FB8
Copy CRC 0B420FB8
Track not present in AccurateRip database
Copy OK

Track 3

Filename D:EAC Raw RipsMy Favorite Things3 My Favorite Things.wav

Peak level 96.0 %
Extraction speed 2.2 X
Track quality 99.9 %
Test CRC 11A857D2
Copy CRC 11A857D2
Track not present in AccurateRip database
Copy OK

Track 4

Filename D:EAC Raw RipsMy Favorite Things4 It Might As Well Be Spring.wav

Peak level 99.5 %
Extraction speed 2.3 X
Track quality 99.9 %
Test CRC 7E2DD007
Copy CRC 7E2DD007
Track not present in AccurateRip database
Copy OK

Track 5

Filename D:EAC Raw RipsMy Favorite Things5 Ma Blues.wav

Peak level 96.4 %
Extraction speed 2.8 X
Track quality 100.0 %
Test CRC 87466D46
Copy CRC 87466D46
Track not present in AccurateRip database
Copy OK

Track 6

Filename D:EAC Raw RipsMy Favorite Things6 'Round Midnight.wav

Peak level 82.8 %
Extraction speed 3.0 X
Track quality 100.0 %
Test CRC F0D3DB22
Copy CRC F0D3DB22
Track not present in AccurateRip database
Copy OK

Track 7

Filename D:EAC Raw RipsMy Favorite Things7 I Mean You.wav

Peak level 95.4 %
Extraction speed 3.0 X
Track quality 100.0 %
Test CRC 6CDAFF3A
Copy CRC 6CDAFF3A
Track not present in AccurateRip database
Copy OK

Track 8

Filename D:EAC Raw RipsMy Favorite Things8 Tour De Force.wav

Peak level 98.8 %
Extraction speed 3.2 X
Track quality 100.0 %
Test CRC DC7866A6
Copy CRC DC7866A6
Track not present in AccurateRip database
Copy OK

Track 9

Filename D:EAC Raw RipsMy Favorite Things9 Over The Rainbow.wav

Peak level 83.0 %
Extraction speed 2.9 X
Track quality 99.9 %
Test CRC FE0C0199
Copy CRC FE0C0199
Track not present in AccurateRip database
Copy OK


None of the tracks are present in the AccurateRip database

No errors occurred

End of status report

==== Log checksum FD6A0A9B3091906D7F09F46FEE80690369EB71009A73183E24295076BE6B8781 ====

foobar2000 1.2 / Dynamic Range Meter 1.1.1
log date: 2015-06-25 15:49:56

--------------------------------------------------------------------------------
Analyzed: Joey Alexander / My Favorite Things
--------------------------------------------------------------------------------

DR Peak RMS Duration Track
--------------------------------------------------------------------------------
DR12 0.00 dB -15.01 dB 10:15 01-Giant Steps
DR14 -0.28 dB -18.52 dB 8:14 02-Lush Life
DR12 -0.35 dB -16.09 dB 6:17 03-My Favorite Things
DR12 -0.04 dB -15.13 dB 5:28 04-It Might as Well Be Spring
DR13 -0.31 dB -17.13 dB 6:51 05-Ma Blues
DR14 -1.63 dB -20.53 dB 6:50 06-'Round Midnight
DR13 -0.41 dB -16.99 dB 4:15 07-I Mean You
DR12 -0.10 dB -15.56 dB 5:50 08-Tour de Force
DR15 -1.61 dB -22.38 dB 4:31 09-Over the Rainbow
--------------------------------------------------------------------------------

Number of tracks: 9
Official DR value: DR13

Samplerate: 44100 Hz
Channels: 2
Bits per sample: 16
Bitrate: 417 kbps
Codec: FLAC
================================================================================



All thanks to original releaser - uwillc, and fiks22 for share



Password: designol