Вход в свой аккаунт

Или войдите через соц. сети

Jerry Goldsmith - Night Crossing: Original Motion Picture Soundtrack (1982) Limited Edition 2014


Jerry Goldsmith - Night Crossing: Original Motion Picture Soundtrack (1982) Limited Edition 2014
XLD | FLAC | Tracks (Cue&Log) ~ 430 Mb (incl 5%) | Mp3 (CBR320) ~ 199 Mb (incl 5%) | Scans included
Genre: Soundtrack, Score | Label: Intrada | # Special Collection Volume ISC 280 | Time: 01:14:52

“ All-new licensing arrangement with Walt Disney Productions allows brand new complete presentation of powerhouse Jerry Goldsmith soundtrack from Delbert Mann deadly escape from East to West Germany tale, starring John Hurt, Beau Bridges, Jane Alexander, Glynnis O'Connor. Brand new mastering from original multi-track stereo session masters provides best audio ever, includes two major alternate sequences where Goldsmith made interesting changes during scoring sessions. When Intrada visited score years ago with composer involvement, Goldsmith edited several bars of his opening percussion to "tighten pace". Result was indeed a brisker reading of opening prologue music but somewhat lost were critically timed pauses between bars of percussion, pauses that later become part of interior rhythm of score throughout. Cues now play in their original unedited manner. For massive "First Flight" set-piece, Goldsmith recorded cue in two versions two accommodate editorial changes in picture, one familiar from earlier album, the other being heard for first time ever. Changes are both subtle (hard mallets on cymbals becoming soft mallets on gong) to pronounced (high, resounding trumpet statement of theme at climactic point becoming lower brass quote instead.) Both versions appear on this CD. Goldsmith also made two slightly different versions of final "Into The West" cue, originally scoring additional tenor drum hits that he ultimately deemed "too busy" for final film version. As with "First Flight", both versions appear here. Though a slight nod to completeists, new CD also includes first release of Goldsmith-composed "Steel Guitar" cue, used as on-screen source music early in film. Another asset: This time around, booklet offers generous array of color stills from film. Goldsmith launches his masterful score with one of his most exciting "Main Title" sequences ever, creates thrilling action music, soaring flight music, wraps score proper with dynamic major-key fortissimo, then plays out with closing statement of his secondary waltz theme. One of Goldsmith's classics! Jerry Goldsmith conducts National Philharmonic Orchestra. Intrada Special Collection release available while quantities and interest remain! ”


“ Night Crossing is a 1982 Disney film based on a true story about two East German families who escape into the West by Hot Air Balloon in 1979. It stars the great John Hurt, Beau Bridges and Jane Alexander, and was directed by Delbert Mann. The score was written by the great Jerry Goldsmith, who fashions one of his most powerful and adventurous scores in his entire career.

There are three primary themes written for this powerhouse score; first is a brutal-percussion driven theme which represents the oppressive and militant side of East Germany (and is kind of a descendant to the title theme from Capricorn One). The second is a pretty accordion waltz that represents the families and their dream of freedom. While some would argue it's the weakest in the entire score, but I think it serves its purpose very well. The third is the heart of the entire score, the uplifting flight-theme which is conceived from the construction of the balloon, to the testing and finally to its full glory in the cues; "Success", "First Flight", "Final Flight" and "Into the West". There is so much complexity in this multi-layered score, yet it never ceases to be entertaining! Personal favorite cues include; Main Title (Part 2), All in Vain, The Picnic, Plans, First Test, Success, First Flight, The Patches, Tomorrow We Go, Final Flight, Into the West, and End Titles.

This soundtrack was released by Intrada in 1987, and then again in 1994, but expanded (that product has since become a collectible) and finally in 2014 with a more complete product which includes alternate takes on two key themes and a source cue that is briefly heard in the film. I would highly recommend picking up the more recent soundtrack because it has the same remastered sound as the 1994 CD and is more affordable. This is one Goldsmith score I cannot recommend enough; it's just a bold and powerful adventurous score that doesn't get old in the slightest!

Review by ccc9827, Amazon.com
”










Tracklist:

01. Main Title (Part 1) (01:17)
02. Main Title (Part 2) (01:56)
03. The Market (01:08)
04. All In Vain (03:26)
05. The Picnic (04:06)
06. Plans (05:10)
07. First Test (00:45)
08. Too Much Work (01:35)
09. Success (03:47)
10. First Flight (Original) (09:41)
11. The Car (02:21)
12. The Patches (02:52)
13. Short Of Time (02:46)
14. Tomorrow We Go (01:07)
15. The Chemist (01:34)
16. No Time To Wait (05:37)
17. Final Flight (06:16)
18. Into The West (Revised) (03:39)
19. End Titles (01:21)
20. Steel Guitar (00:54)
21. First Flight (Revised) (09:41)
22. Into The West (Original) (03:42)


X Lossless Decoder version 20140504 (147.0)

XLD extraction logfile from 2014-05-31 18:13:14 -0500

Jerry Goldsmith / Night Crossing (Complete) - Intrada 2014

Used drive : Memorex MRX-650LE v1 (revision 9M62)
Media type : Pressed CD

Ripper mode : CDParanoia III 10.2
Disable audio cache : OK for the drive with a cache less than 2750KiB
Make use of C2 pointers : NO
Read offset correction : 6
Max retry count : 100
Gap status : Analyzed, Appended

TOC of the extracted CD
Track | Start | Length | Start sector | End sector
---------------------------------------------------------
1 | 00:00:00 | 01:17:48 | 0 | 5822
2 | 01:17:48 | 01:56:36 | 5823 | 14558
3 | 03:14:09 | 01:08:02 | 14559 | 19660
4 | 04:22:11 | 03:26:27 | 19661 | 35137
5 | 07:48:38 | 04:06:53 | 35138 | 53640
6 | 11:55:16 | 05:10:64 | 53641 | 76954
7 | 17:06:05 | 00:45:47 | 76955 | 80376
8 | 17:51:52 | 01:35:28 | 80377 | 87529
9 | 19:27:05 | 03:47:37 | 87530 | 104591
10 | 23:14:42 | 09:41:74 | 104592 | 148240
11 | 32:56:41 | 02:21:35 | 148241 | 158850
12 | 35:18:01 | 02:52:71 | 158851 | 171821
13 | 38:10:72 | 02:46:00 | 171822 | 184271
14 | 40:56:72 | 01:07:36 | 184272 | 189332
15 | 42:04:33 | 01:34:42 | 189333 | 196424
16 | 43:39:00 | 05:37:24 | 196425 | 221723
17 | 49:16:24 | 06:16:68 | 221724 | 249991
18 | 55:33:17 | 03:39:24 | 249992 | 266440
19 | 59:12:41 | 01:21:05 | 266441 | 272520
20 | 60:33:46 | 00:54:55 | 272521 | 276625
21 | 61:28:26 | 09:41:13 | 276626 | 320213
22 | 71:09:39 | 03:42:52 | 320214 | 336915

AccurateRip Summary
Disc not found in AccurateRip DB.

All Tracks
Statistics
Read error : 0
Skipped (treated as error) : 0
Edge jitter error (maybe fixed) : 0
Atom jitter error (maybe fixed) : 0
Drift error (maybe fixed) : 0
Dropped bytes error (maybe fixed) : 0
Duplicated bytes error (maybe fixed) : 0

Track 01
Filename : /Users/kgpat/Desktop/Convert/NightCrossingFLAC/01 Jerry Goldsmith - Main Title (Part 1).flac
Pre-gap length : 00:02:00

CRC32 hash : 223BE77C
CRC32 hash (skip zero) : BBC3C019
AccurateRip v1 signature : 1C3650AD
AccurateRip v2 signature : 06175FAB
->Track not present in AccurateRip database.
Statistics
Read error : 0
Skipped (treated as error) : 0
Edge jitter error (maybe fixed) : 0
Atom jitter error (maybe fixed) : 0
Drift error (maybe fixed) : 0
Dropped bytes error (maybe fixed) : 0
Duplicated bytes error (maybe fixed) : 0

Track 02
Filename : /Users/kgpat/Desktop/Convert/NightCrossingFLAC/02 Jerry Goldsmith - Main Title (Part 2).flac

CRC32 hash : 9F86E02B
CRC32 hash (skip zero) : CCCD7F30
AccurateRip v1 signature : 97251EBD
AccurateRip v2 signature : A9F72277
->Track not present in AccurateRip database.
Statistics
Read error : 0
Skipped (treated as error) : 0
Edge jitter error (maybe fixed) : 0
Atom jitter error (maybe fixed) : 0
Drift error (maybe fixed) : 0
Dropped bytes error (maybe fixed) : 0
Duplicated bytes error (maybe fixed) : 0

Track 03
Filename : /Users/kgpat/Desktop/Convert/NightCrossingFLAC/03 Jerry Goldsmith - The Market.flac

CRC32 hash : D25A24C6
CRC32 hash (skip zero) : 0CE0C279
AccurateRip v1 signature : 9B5104BA
AccurateRip v2 signature : 8CC84B9B
->Track not present in AccurateRip database.
Statistics
Read error : 0
Skipped (treated as error) : 0
Edge jitter error (maybe fixed) : 0
Atom jitter error (maybe fixed) : 0
Drift error (maybe fixed) : 0
Dropped bytes error (maybe fixed) : 0
Duplicated bytes error (maybe fixed) : 0

Track 04
Filename : /Users/kgpat/Desktop/Convert/NightCrossingFLAC/04 Jerry Goldsmith - All In Vain.flac

CRC32 hash : 6679A4EE
CRC32 hash (skip zero) : E6945F3A
AccurateRip v1 signature : 65707398
AccurateRip v2 signature : C3A5AD99
->Track not present in AccurateRip database.
Statistics
Read error : 0
Skipped (treated as error) : 0
Edge jitter error (maybe fixed) : 0
Atom jitter error (maybe fixed) : 0
Drift error (maybe fixed) : 0
Dropped bytes error (maybe fixed) : 0
Duplicated bytes error (maybe fixed) : 0

Track 05
Filename : /Users/kgpat/Desktop/Convert/NightCrossingFLAC/05 Jerry Goldsmith - The Picnic.flac

CRC32 hash : CD5BB705
CRC32 hash (skip zero) : 0274FF7A
AccurateRip v1 signature : 8C3E061B
AccurateRip v2 signature : B67CFFCF
->Track not present in AccurateRip database.
Statistics
Read error : 0
Skipped (treated as error) : 0
Edge jitter error (maybe fixed) : 0
Atom jitter error (maybe fixed) : 0
Drift error (maybe fixed) : 0
Dropped bytes error (maybe fixed) : 0
Duplicated bytes error (maybe fixed) : 0

Track 06
Filename : /Users/kgpat/Desktop/Convert/NightCrossingFLAC/06 Jerry Goldsmith - Plans.flac

CRC32 hash : CB33868A
CRC32 hash (skip zero) : 191A0208
AccurateRip v1 signature : 25D2B904
AccurateRip v2 signature : 09D7293C
->Track not present in AccurateRip database.
Statistics
Read error : 0
Skipped (treated as error) : 0
Edge jitter error (maybe fixed) : 0
Atom jitter error (maybe fixed) : 0
Drift error (maybe fixed) : 0
Dropped bytes error (maybe fixed) : 0
Duplicated bytes error (maybe fixed) : 0

Track 07
Filename : /Users/kgpat/Desktop/Convert/NightCrossingFLAC/07 Jerry Goldsmith - First Test.flac

CRC32 hash : 892CEC6C
CRC32 hash (skip zero) : B1F576C9
AccurateRip v1 signature : FC6C2D2A
AccurateRip v2 signature : 5662433C
->Track not present in AccurateRip database.
Statistics
Read error : 0
Skipped (treated as error) : 0
Edge jitter error (maybe fixed) : 0
Atom jitter error (maybe fixed) : 0
Drift error (maybe fixed) : 0
Dropped bytes error (maybe fixed) : 0
Duplicated bytes error (maybe fixed) : 0

Track 08
Filename : /Users/kgpat/Desktop/Convert/NightCrossingFLAC/08 Jerry Goldsmith - Too Much Work.flac

CRC32 hash : 2BB30220
CRC32 hash (skip zero) : D9BD078C
AccurateRip v1 signature : 24F3434C
AccurateRip v2 signature : B5FB179A
->Track not present in AccurateRip database.
Statistics
Read error : 0
Skipped (treated as error) : 0
Edge jitter error (maybe fixed) : 0
Atom jitter error (maybe fixed) : 0
Drift error (maybe fixed) : 0
Dropped bytes error (maybe fixed) : 0
Duplicated bytes error (maybe fixed) : 0

Track 09
Filename : /Users/kgpat/Desktop/Convert/NightCrossingFLAC/09 Jerry Goldsmith - Success.flac

CRC32 hash : 064B2271
CRC32 hash (skip zero) : 90AA23A0
AccurateRip v1 signature : 044AEA46
AccurateRip v2 signature : 06FADC12
->Track not present in AccurateRip database.
Statistics
Read error : 0
Skipped (treated as error) : 0
Edge jitter error (maybe fixed) : 0
Atom jitter error (maybe fixed) : 0
Drift error (maybe fixed) : 0
Dropped bytes error (maybe fixed) : 0
Duplicated bytes error (maybe fixed) : 0

Track 10
Filename : /Users/kgpat/Desktop/Convert/NightCrossingFLAC/10 Jerry Goldsmith - First Flight (Original).flac

CRC32 hash : 05664372
CRC32 hash (skip zero) : 9E0B31B6
AccurateRip v1 signature : 5F4054F7
AccurateRip v2 signature : 7D2B068C
->Track not present in AccurateRip database.
Statistics
Read error : 0
Skipped (treated as error) : 0
Edge jitter error (maybe fixed) : 0
Atom jitter error (maybe fixed) : 0
Drift error (maybe fixed) : 0
Dropped bytes error (maybe fixed) : 0
Duplicated bytes error (maybe fixed) : 0

Track 11
Filename : /Users/kgpat/Desktop/Convert/NightCrossingFLAC/11 Jerry Goldsmith - The Car.flac

CRC32 hash : 80A6E4BA
CRC32 hash (skip zero) : 114CCC7A
AccurateRip v1 signature : 5089570B
AccurateRip v2 signature : FB22986B
->Track not present in AccurateRip database.
Statistics
Read error : 0
Skipped (treated as error) : 0
Edge jitter error (maybe fixed) : 0
Atom jitter error (maybe fixed) : 0
Drift error (maybe fixed) : 0
Dropped bytes error (maybe fixed) : 0
Duplicated bytes error (maybe fixed) : 0

Track 12
Filename : /Users/kgpat/Desktop/Convert/NightCrossingFLAC/12 Jerry Goldsmith - The Patches.flac

CRC32 hash : 35B29DF2
CRC32 hash (skip zero) : C021641F
AccurateRip v1 signature : C7EC5B5C
AccurateRip v2 signature : B5B8AE28
->Track not present in AccurateRip database.
Statistics
Read error : 0
Skipped (treated as error) : 0
Edge jitter error (maybe fixed) : 0
Atom jitter error (maybe fixed) : 0
Drift error (maybe fixed) : 0
Dropped bytes error (maybe fixed) : 0
Duplicated bytes error (maybe fixed) : 0

Track 13
Filename : /Users/kgpat/Desktop/Convert/NightCrossingFLAC/13 Jerry Goldsmith - Short Of Time.flac

CRC32 hash : FF7E918F
CRC32 hash (skip zero) : B51CC623
AccurateRip v1 signature : 1291EB0D
AccurateRip v2 signature : DC963EEE
->Track not present in AccurateRip database.
Statistics
Read error : 0
Skipped (treated as error) : 0
Edge jitter error (maybe fixed) : 0
Atom jitter error (maybe fixed) : 0
Drift error (maybe fixed) : 0
Dropped bytes error (maybe fixed) : 0
Duplicated bytes error (maybe fixed) : 0

Track 14
Filename : /Users/kgpat/Desktop/Convert/NightCrossingFLAC/14 Jerry Goldsmith - Tomorrow We Go.flac

CRC32 hash : 78319402
CRC32 hash (skip zero) : 586173F1
AccurateRip v1 signature : 6AD43E23
AccurateRip v2 signature : 9A296C93
->Track not present in AccurateRip database.
Statistics
Read error : 0
Skipped (treated as error) : 0
Edge jitter error (maybe fixed) : 0
Atom jitter error (maybe fixed) : 0
Drift error (maybe fixed) : 0
Dropped bytes error (maybe fixed) : 0
Duplicated bytes error (maybe fixed) : 0

Track 15
Filename : /Users/kgpat/Desktop/Convert/NightCrossingFLAC/15 Jerry Goldsmith - The Chemist.flac

CRC32 hash : 9E4A68A8
CRC32 hash (skip zero) : F407B75A
AccurateRip v1 signature : 788E4902
AccurateRip v2 signature : 74B5B408
->Track not present in AccurateRip database.
Statistics
Read error : 0
Skipped (treated as error) : 0
Edge jitter error (maybe fixed) : 0
Atom jitter error (maybe fixed) : 0
Drift error (maybe fixed) : 0
Dropped bytes error (maybe fixed) : 0
Duplicated bytes error (maybe fixed) : 0

Track 16
Filename : /Users/kgpat/Desktop/Convert/NightCrossingFLAC/16 Jerry Goldsmith - No Time To Wait.flac

CRC32 hash : 3A8729EC
CRC32 hash (skip zero) : 04A08199
AccurateRip v1 signature : E700CA68
AccurateRip v2 signature : 78247B92
->Track not present in AccurateRip database.
Statistics
Read error : 0
Skipped (treated as error) : 0
Edge jitter error (maybe fixed) : 0
Atom jitter error (maybe fixed) : 0
Drift error (maybe fixed) : 0
Dropped bytes error (maybe fixed) : 0
Duplicated bytes error (maybe fixed) : 0

Track 17
Filename : /Users/kgpat/Desktop/Convert/NightCrossingFLAC/17 Jerry Goldsmith - Final Flight.flac

CRC32 hash : 6049CBE5
CRC32 hash (skip zero) : 83622998
AccurateRip v1 signature : A46C776B
AccurateRip v2 signature : F30100C5
->Track not present in AccurateRip database.
Statistics
Read error : 0
Skipped (treated as error) : 0
Edge jitter error (maybe fixed) : 0
Atom jitter error (maybe fixed) : 0
Drift error (maybe fixed) : 0
Dropped bytes error (maybe fixed) : 0
Duplicated bytes error (maybe fixed) : 0

Track 18
Filename : /Users/kgpat/Desktop/Convert/NightCrossingFLAC/18 Jerry Goldsmith - Into The West (Revised).flac

CRC32 hash : 3D3F8576
CRC32 hash (skip zero) : 5BABAB02
AccurateRip v1 signature : 2C4C750A
AccurateRip v2 signature : 619CE2F2
->Track not present in AccurateRip database.
Statistics
Read error : 0
Skipped (treated as error) : 0
Edge jitter error (maybe fixed) : 0
Atom jitter error (maybe fixed) : 0
Drift error (maybe fixed) : 0
Dropped bytes error (maybe fixed) : 0
Duplicated bytes error (maybe fixed) : 0

Track 19
Filename : /Users/kgpat/Desktop/Convert/NightCrossingFLAC/19 Jerry Goldsmith - End Titles.flac

CRC32 hash : 2C09F041
CRC32 hash (skip zero) : 40CB5661
AccurateRip v1 signature : C81EABE3
AccurateRip v2 signature : 60E59C12
->Track not present in AccurateRip database.
Statistics
Read error : 0
Skipped (treated as error) : 0
Edge jitter error (maybe fixed) : 0
Atom jitter error (maybe fixed) : 0
Drift error (maybe fixed) : 0
Dropped bytes error (maybe fixed) : 0
Duplicated bytes error (maybe fixed) : 0

Track 20
Filename : /Users/kgpat/Desktop/Convert/NightCrossingFLAC/20 Jerry Goldsmith - Steel Guitar.flac

CRC32 hash : DE1BDD78
CRC32 hash (skip zero) : 662F8D5A
AccurateRip v1 signature : 23C6B8B4
AccurateRip v2 signature : 46741A3B
->Track not present in AccurateRip database.
Statistics
Read error : 0
Skipped (treated as error) : 0
Edge jitter error (maybe fixed) : 0
Atom jitter error (maybe fixed) : 0
Drift error (maybe fixed) : 0
Dropped bytes error (maybe fixed) : 0
Duplicated bytes error (maybe fixed) : 0

Track 21
Filename : /Users/kgpat/Desktop/Convert/NightCrossingFLAC/21 Jerry Goldsmith - First Flight (Revised).flac

CRC32 hash : 1A560BED
CRC32 hash (skip zero) : 4D8D634A
AccurateRip v1 signature : 0929A114
AccurateRip v2 signature : 371E1C3B
->Track not present in AccurateRip database.
Statistics
Read error : 0
Skipped (treated as error) : 0
Edge jitter error (maybe fixed) : 0
Atom jitter error (maybe fixed) : 0
Drift error (maybe fixed) : 0
Dropped bytes error (maybe fixed) : 0
Duplicated bytes error (maybe fixed) : 0

Track 22
Filename : /Users/kgpat/Desktop/Convert/NightCrossingFLAC/22 Jerry Goldsmith - Into The West (Original).flac

CRC32 hash : C8F5395E
CRC32 hash (skip zero) : 6B4CC0F5
AccurateRip v1 signature : AE969A32
AccurateRip v2 signature : 2A5943D9
->Track not present in AccurateRip database.
Statistics
Read error : 0
Skipped (treated as error) : 0
Edge jitter error (maybe fixed) : 0
Atom jitter error (maybe fixed) : 0
Drift error (maybe fixed) : 0
Dropped bytes error (maybe fixed) : 0
Duplicated bytes error (maybe fixed) : 0

No errors occurred

End of status report

foobar2000 1.2 / Dynamic Range Meter 1.1.1
log date: 2015-06-30 19:40:33

--------------------------------------------------------------------------------
Analyzed: Jerry Goldsmith / Night Crossing (Complete) - Intrada 2014
--------------------------------------------------------------------------------

DR Peak RMS Duration Track
--------------------------------------------------------------------------------
DR12 -12.87 dB -31.58 dB 1:18 01-Main Title (Part 1)
DR9 0.00 dB -11.99 dB 1:56 02-Main Title (Part 2)
DR10 -7.85 dB -25.74 dB 1:08 03-The Market
DR9 0.00 dB -14.81 dB 3:26 04-All In Vain
DR12 -0.10 dB -16.92 dB 4:07 05-The Picnic
DR12 -2.16 dB -20.89 dB 5:11 06-Plans
DR10 -1.25 dB -17.60 dB 0:46 07-First Test
DR12 -0.20 dB -18.76 dB 1:35 08-Too Much Work
DR11 0.00 dB -17.43 dB 3:47 09-Success
DR12 0.00 dB -16.63 dB 9:42 10-First Flight (Original)
DR9 -0.09 dB -15.20 dB 2:21 11-The Car
DR11 -0.14 dB -18.28 dB 2:53 12-The Patches
DR12 -2.97 dB -20.18 dB 2:46 13-Short Of Time
DR10 -1.90 dB -15.58 dB 1:07 14-Tomorrow We Go
DR12 -0.60 dB -20.33 dB 1:35 15-The Chemist
DR10 0.00 dB -15.97 dB 5:37 16-No Time To Wait
DR11 0.00 dB -15.08 dB 6:17 17-Final Flight
DR9 0.00 dB -13.88 dB 3:39 18-Into The West (Revised)
DR11 -0.91 dB -17.39 dB 1:21 19-End Titles
DR10 -10.92 dB -25.82 dB 0:55 20-Steel Guitar
DR11 0.00 dB -15.76 dB 9:41 21-First Flight (Revised)
DR10 0.00 dB -14.84 dB 3:43 22-Into The West (Original)
--------------------------------------------------------------------------------

Number of tracks: 22
Official DR value: DR11

Samplerate: 44100 Hz
Channels: 2
Bits per sample: 16
Bitrate: 779 kbps
Codec: FLAC
================================================================================


All thanks to original releaser



Password: designol