Вход в свой аккаунт

Или войдите через соц. сети

Munich Machine - Get On The Funk Train (2011)


Munich Machine - Get On The Funk Train (2011)
EAC Rip | FLAC (Img) + Cue + Log ~ 516 Mb | MP3 CBR320 ~ 181 Mb
Scans Included (JPG, 300 dpi) | RAR 5% Recovery
Disco, Funk, Electronic | Repertoire Records #REP 5221

“ Two albums on this CD: "Munich Machine" (1977) and "A Whiter Shade Of Pale" (1978). Digitally remastered edition of this 1977 Disco classic. The Munich Machine was assembled by master producers Giorgio Moroder and Pete Bellotte and their pioneering works have had a huge influence on House, Techno and Electronica. Catchy tunes, sexy sounds and a unique hi-tech Disco beat, were the hallmarks of their joint project, and this album has been acclaimed by fans as 'the greatest Disco album ever'! Repertoire. ”

| | |

***************


Track List:

Munich Machine
01. Get On The Funk Train [15:43]
02. Love To Love You Baby [02:33]
03. Trouble Maker [02:48]
04. Try Me, I Know We Can Make It [03:31]
05. I Wanna Funk With You Tonight [03:27]
06. Spring Affair [02:26]
07. Love To Love You Baby (Reprise) [01:34]
A Whiter Shade Of Pale
08. A Whiter Shade Of Pale [06:38]
09. It's For You [05:14]
10. It's All Wrong (But It's Alright) [04:15]
11. La Nuit Blanche [05:18]
12. Love Fever [04:40]
13. In Love With Love [06:23]

Producer – Giorgio Moroder, Pete Bellotte

Exact Audio Copy V1.0 beta 1 from 15. November 2010

EAC extraction logfile from 9. July 2012, 19:38

Munich Machine / Get On The Funk Train

Used drive : Optiarc DVD RW AD-7263S Adapter: 3 ID: 0

Read mode : Secure
Utilize accurate stream : Yes
Defeat audio cache : Yes
Make use of C2 pointers : No

Read offset correction : 48
Overread into Lead-In and Lead-Out : No
Fill up missing offset samples with silence : Yes
Delete leading and trailing silent blocks : No
Null samples used in CRC calculations : Yes
Used interface : Native Win32 interface for Win NT & 2000

Used output format : User Defined Encoder
Selected bitrate : 32 kBit/s
Quality : High
Add ID3 tag : No
Command line compressor : C:Program FilesExact Audio CopyFlacflac.exe
Additional command line options : -T "DATE=%y" -T "GENRE=%m" -8 -V %s


TOC of the extracted CD

Track | Start | Length | Start sector | End sector
---------------------------------------------------------
1 | 0:00.00 | 15:42.42 | 0 | 70691
2 | 15:42.42 | 2:32.44 | 70692 | 82135
3 | 18:15.11 | 2:47.04 | 82136 | 94664
4 | 21:02.15 | 3:30.38 | 94665 | 110452
5 | 24:32.53 | 3:26.56 | 110453 | 125958
6 | 27:59.34 | 2:25.02 | 125959 | 136835
7 | 30:24.36 | 1:33.43 | 136836 | 143853
8 | 31:58.04 | 6:37.48 | 143854 | 173676
9 | 38:35.52 | 5:13.50 | 173677 | 197201
10 | 43:49.27 | 4:14.71 | 197202 | 216322
11 | 48:04.23 | 5:17.52 | 216323 | 240149
12 | 53:22.00 | 4:39.08 | 240150 | 261082
13 | 58:01.08 | 6:22.68 | 261083 | 289800


Range status and errors

Selected range

Filename C:Documents and SettingsmaximМои документыMunich Machine - Get On The Funk Train.wav

Peak level 98.8 %
Extraction speed 0.4 X
Range quality 100.0 %
Test CRC 6269EFDA
Copy CRC 6269EFDA
Copy OK

No errors occurred


AccurateRip summary

Track 1 not present in database
Track 2 not present in database
Track 3 not present in database
Track 4 not present in database
Track 5 not present in database
Track 6 not present in database
Track 7 not present in database
Track 8 not present in database
Track 9 not present in database
Track 10 not present in database
Track 11 not present in database
Track 12 not present in database
Track 13 not present in database

None of the tracks are present in the AccurateRip database

End of status report

==== Log checksum E661CEF8499726959567DC352DF56D424238F05FB4AC7BB0929C41FB31CE2057 ====

foobar2000 1.2.6 / Dynamic Range Meter 1.1.1
log date: 2015-07-03 00:13:04

--------------------------------------------------------------------------------
Analyzed: Munich Machine / Get On The Funk Train
--------------------------------------------------------------------------------

DR Peak RMS Duration Track
--------------------------------------------------------------------------------
DR6 -0.10 dB -7.31 dB 15:43 01-Get On The Funk Train
DR6 -0.10 dB -7.72 dB 2:33 02-Love To Love You Baby
DR6 -0.10 dB -7.26 dB 2:47 03-Trouble Maker
DR7 -0.10 dB -7.95 dB 3:31 04-Try Me, I Know We Can Make It
DR6 -0.10 dB -7.34 dB 3:27 05-I Wanna Funk With You Tonight
DR6 -0.10 dB -7.40 dB 2:25 06-Spring Affair
DR6 -0.10 dB -8.05 dB 1:34 07-Love To Love You Baby (Reprise)
DR7 -0.10 dB -7.96 dB 6:38 08-A Whiter Shade Of Pale
DR7 -0.10 dB -7.79 dB 5:14 09-It's For You
DR7 -0.10 dB -8.02 dB 4:15 10-It's All Wrong (But It's Alright)
DR6 -0.10 dB -7.92 dB 5:18 11-La Nuit Blanche
DR6 -0.10 dB -7.18 dB 4:39 12-Love Fever
DR7 -0.10 dB -8.33 dB 6:23 13-In Love With Love
--------------------------------------------------------------------------------

Number of tracks: 13
Official DR value: DR7

Samplerate: 44100 Hz
Channels: 2
Bits per sample: 16
Bitrate: 1012 kbps
Codec: FLAC
================================================================================

[CUETools log; Date: 03.07.2015 0:08:33; Version: 2.1.5]
[CTDB TOCID: TdfAq5.7iounITeEc8ThNOsJsk8-] found.
Track | CTDB Status
1 | (3/3) Accurately ripped
2 | (3/3) Accurately ripped
3 | (3/3) Accurately ripped
4 | (3/3) Accurately ripped
5 | (3/3) Accurately ripped
6 | (3/3) Accurately ripped
7 | (3/3) Accurately ripped
8 | (3/3) Accurately ripped
9 | (3/3) Accurately ripped
10 | (3/3) Accurately ripped
11 | (3/3) Accurately ripped
12 | (3/3) Accurately ripped
13 | (3/3) Accurately ripped
[AccurateRip ID: 0020b26f-0137c043-ba0f180d] found.
Track [ CRC | V2 ] Status
01 [78585531|7b3acaa3] (2+4/6) Accurately ripped
02 [95b52322|a1a99f4d] (2+4/6) Accurately ripped
03 [79c38e11|ff44ae4b] (2+4/6) Accurately ripped
04 [96450ff5|0d2b1cc6] (2+4/6) Accurately ripped
05 [d1d420e3|81af39f8] (2+4/6) Accurately ripped
06 [7711aac6|c8da5c72] (2+4/6) Accurately ripped
07 [cf2086da|fdc09324] (0+4/4) Accurately ripped
08 [e7d2f3fa|7f2422c7] (2+4/6) Accurately ripped
09 [9f29e021|33ef3171] (2+4/6) Accurately ripped
10 [33519f90|8a18f2ef] (2+4/6) Accurately ripped
11 [6df69546|a29ac789] (2+4/6) Accurately ripped
12 [2ea0f1fe|e61b47c7] (2+4/6) Accurately ripped
13 [12dab59d|ae2b50b8] (2+4/6) Accurately ripped

Track Peak [ CRC32 ] [W/O NULL] [ LOG ]
-- 98,8 [6269EFDA] [C49F4D7E] CRC32
01 98,8 [E855CC75] [9FE36318]
02 98,8 [631DD4B1] [01804A51]
03 98,8 [4B643827] [8C1BED63]
04 98,8 [2282ABCD] [2BD304D8]
05 98,8 [5D759A00] [EDA5AF5B]
06 98,8 [1CC7DC9C] [D8C7D414]
07 98,8 [3B4ECC0C] [CC4A92E1]
08 98,8 [BEB70393] [8A752341]
09 98,8 [B97691B8] [A52BF78F]
10 98,8 [0263B8CF] [5FED27B9]
11 98,8 [0CDC2C05] [B2C36346]
12 98,8 [4BE255D4] [748F4AA5]
13 98,8 [BE609F69] [665FDA31]


All thanks go to maxim69m



Download:
Uploadable: | |

Hitfile: | |