Вход в свой аккаунт

Или войдите через соц. сети

Megadeth - Rust In Peace Live (2010) - Blu-ray


Megadeth - Rust In Peace Live (2010) - Blu-ray
M2TS/VC-1, ~20 Mbps | 1920x1080, 29.970 fps | English | ~ 80 minutes | 20.8 Gb
DTS-HD Master Audio 5.1, 48KHz, 5341 kbps | LPCM, 48 kHz, 2304 kbps
Genre: Metal, Thrash metal, Heavy metal

Filmed at the Hollywood Palladium on March 31, 2010, the performance showcases Megadeth's 1990 album, Rust in Peace played in its entirety with the same background that was featured on the original "Rust in Peace" tour. The release was in celebration for the 20th anniversary of Rust in Peace and it is the first Megadeth release since 2002's Rude Awakening to feature bassist Dave Ellefson.

Songs:
“ 01. Holy Wars...The Punishment Due
02. Hangar 18
03. Take No Prisoners
04. Five Magics
05. Poison Was The Cure
06. Lucretia
07. Tornado Of Souls
08. Dawn Patrol
09. Rust In Peace...Polaris
10. Holy Wars - Reprise

Bonus:
01. Skin O' My Teeth
02. In My Darkest Hour
03. She-Wolf
04. Trust
05. Symphony Of Destruction
06. Peace Sells
”

DISC INFO:

Disc Title: Megadeth - Rust In Peace Live 2010
Disc Size: 22,397,266,128 bytes
Protection: AACS
BD-Java: No
BDInfo: 0.5.8

PLAYLIST REPORT:

Name: 00000.MPLS
Length: 0:46:56.046 (h:m:s.ms)
Size: 10,285,135,872 bytes
Total Bitrate: 29.22 Mbps

VIDEO:

Codec Bitrate Description
----- ------- -----------
VC-1 Video 20000 kbps 1080i / 29.970 fps / 16:9 / Advanced Profile 3

AUDIO:

Codec Language Bitrate Description
----- -------- ------- -----------
DTS-HD Master Audio English 5341 kbps 5.1 / 48 kHz / 5341 kbps / 24-bit (DTS Core: 5.1 / 48 kHz / 1509 kbps / 24-bit)
LPCM Audio English 2304 kbps 2.0 / 48 kHz / 2304 kbps / 24-bit

FILES:

Name Time In Length Size Total Bitrate
---- ------- ------ ---- -------------
00000.M2TS 0:00:00.000 0:46:56.046 10,285,135,872 29,219

CHAPTERS:

Number Time In Length Avg Video Rate Max 1-Sec Rate Max 1-Sec Time Max 5-Sec Rate Max 5-Sec Time Max 10Sec Rate Max 10Sec Time Avg Frame Size Max Frame Size Max Frame Time
------ ------- ------ -------------- -------------- -------------- -------------- -------------- -------------- -------------- -------------- -------------- --------------
1 0:00:00.000 0:07:02.021 19,980 kbps 40,335 kbps 00:01:03.129 31,138 kbps 00:03:01.648 27,622 kbps 00:00:23.189 83,327 bytes 557,511 bytes 00:00:44.043
2 0:07:02.021 0:05:07.507 21,119 kbps 40,614 kbps 00:09:20.293 30,729 kbps 00:11:49.375 29,309 kbps 00:11:46.272 88,082 bytes 519,049 bytes 00:07:36.455
3 0:12:09.528 0:03:22.602 20,463 kbps 45,832 kbps 00:14:28.067 29,915 kbps 00:14:32.738 26,748 kbps 00:14:28.067 85,346 bytes 478,199 bytes 00:14:16.055
4 0:15:32.131 0:05:55.555 18,716 kbps 41,000 kbps 00:20:41.873 31,275 kbps 00:19:50.756 29,593 kbps 00:20:59.358 78,060 bytes 565,043 bytes 00:15:32.932
5 0:21:27.686 0:03:41.020 16,924 kbps 41,480 kbps 00:23:46.491 29,388 kbps 00:23:43.421 28,167 kbps 00:23:39.184 70,589 bytes 482,455 bytes 00:22:59.778
6 0:25:08.707 0:03:58.638 20,987 kbps 40,470 kbps 00:27:03.221 31,323 kbps 00:26:59.751 29,079 kbps 00:26:38.263 87,531 bytes 518,542 bytes 00:25:25.523
7 0:29:07.345 0:05:30.730 22,715 kbps 42,015 kbps 00:29:10.281 31,734 kbps 00:31:12.237 29,641 kbps 00:29:32.137 94,742 bytes 526,986 bytes 00:34:08.446
8 0:34:38.076 0:01:52.912 9,921 kbps 34,035 kbps 00:35:50.548 23,936 kbps 00:35:48.279 16,883 kbps 00:34:58.496 41,378 bytes 456,641 bytes 00:36:30.988
9 0:36:30.988 0:06:07.567 20,742 kbps 44,465 kbps 00:39:02.940 31,123 kbps 00:40:44.842 27,808 kbps 00:40:22.019 86,511 bytes 513,277 bytes 00:40:32.029
10 0:42:38.556 0:04:17.490 21,708 kbps 41,294 kbps 00:42:50.768 30,392 kbps 00:44:57.995 29,597 kbps 00:45:21.885 90,562 bytes 480,046 bytes 00:44:55.492

STREAM DIAGNOSTICS:

File PID Type Codec Language Seconds Bitrate Bytes Packets
---- --- ---- ----- -------- -------------- -------------- ------------- -----
00000.M2TS 4113 (0x1011) 0xEA VC-1 2815.880 20,001 7,040,210,568 38,312,618
00000.M2TS 4352 (0x1100) 0x86 DTS-HD MA eng (English) 2815.880 5,341 1,879,891,480 10,655,746
00000.M2TS 4353 (0x1101) 0x80 LPCM eng (English) 2815.880 2,311 813,273,796 4,505,672
********************
DISC INFO:

Disc Title: Megadeth - Rust In Peace Live 2010
Disc Size: 22,397,266,128 bytes
Protection: AACS
BD-Java: No
BDInfo: 0.5.8

PLAYLIST REPORT:

Name: 00010.MPLS
Length: 0:27:00.051 (h:m:s.ms)
Size: 4,926,412,800 bytes
Total Bitrate: 24.33 Mbps

VIDEO:

Codec Bitrate Description
----- ------- -----------
VC-1 Video 17999 kbps 1080i / 29.970 fps / 16:9 / Advanced Profile 3

AUDIO:

Codec Language Bitrate Description
----- -------- ------- -----------
DTS-HD Master Audio English 2654 kbps 5.1 / 48 kHz / 2654 kbps / 24-bit (DTS Core: 5.1 / 48 kHz / 1509 kbps / 24-bit)
LPCM Audio English 2304 kbps 2.0 / 48 kHz / 2304 kbps / 24-bit

FILES:

Name Time In Length Size Total Bitrate
---- ------- ------ ---- -------------
00013.M2TS 0:00:00.000 0:27:00.051 4,926,412,800 24,327

CHAPTERS:

Number Time In Length Avg Video Rate Max 1-Sec Rate Max 1-Sec Time Max 5-Sec Rate Max 5-Sec Time Max 10Sec Rate Max 10Sec Time Avg Frame Size Max Frame Size Max Frame Time
------ ------- ------ -------------- -------------- -------------- -------------- -------------- -------------- -------------- -------------- -------------- --------------
1 0:00:00.000 0:03:18.598 18,620 kbps 44,074 kbps 00:00:18.918 28,584 kbps 00:00:18.918 27,029 kbps 00:00:17.917 77,647 bytes 603,847 bytes 00:00:19.219
2 0:03:18.598 0:06:12.371 19,118 kbps 37,588 kbps 00:04:58.665 29,599 kbps 00:04:57.063 26,369 kbps 00:04:50.657 79,737 bytes 503,276 bytes 00:04:59.499
3 0:09:30.970 0:03:35.415 18,267 kbps 35,290 kbps 00:11:23.382 26,410 kbps 00:11:23.282 24,650 kbps 00:11:07.033 76,189 bytes 370,901 bytes 00:11:25.484
4 0:13:06.385 0:05:09.909 16,190 kbps 40,942 kbps 00:14:20.826 28,953 kbps 00:14:17.623 24,752 kbps 00:17:14.600 67,527 bytes 426,033 bytes 00:14:21.660
5 0:18:16.295 0:04:00.240 17,106 kbps 40,053 kbps 00:19:27.533 25,165 kbps 00:19:58.897 24,374 kbps 00:19:19.424 71,347 bytes 497,450 bytes 00:20:33.232
6 0:22:16.535 0:04:43.516 18,628 kbps 46,953 kbps 00:25:23.622 31,011 kbps 00:26:47.939 27,612 kbps 00:26:43.602 77,702 bytes 559,894 bytes 00:23:45.424

STREAM DIAGNOSTICS:

File PID Type Codec Language Seconds Bitrate Bytes Packets
---- --- ---- ----- -------- -------------- -------------- ------------- -----
00013.M2TS 4113 (0x1011) 0xEA VC-1 1619.985 18,000 3,645,011,255 19,839,022
00013.M2TS 4352 (0x1100) 0x86 DTS-HD MA eng (English) 1619.985 2,654 537,469,340 3,172,986
00013.M2TS 4353 (0x1101) 0x80 LPCM eng (English) 1619.985 2,310 467,871,884 2,592,088
********************
DISC INFO:

Disc Title: Megadeth - Rust In Peace Live 2010
Disc Size: 22,397,266,128 bytes
Protection: AACS
BD-Java: No
BDInfo: 0.5.8

PLAYLIST REPORT:

Name: 00008.MPLS
Length: 0:08:25.872 (h:m:s.ms)
Size: 1,635,495,936 bytes
Total Bitrate: 25.86 Mbps

VIDEO:

Codec Bitrate Description
----- ------- -----------
VC-1 Video 20000 kbps 1080i / 29.970 fps / 16:9 / Advanced Profile 3

AUDIO:

Codec Language Bitrate Description
----- -------- ------- -----------
LPCM Audio English 2304 kbps 2.0 / 48 kHz / 2304 kbps / 24-bit
LPCM Audio English 2304 kbps 2.0 / 48 kHz / 2304 kbps / 24-bit

FILES:

Name Time In Length Size Total Bitrate
---- ------- ------ ---- -------------
00007.M2TS 0:00:00.000 0:08:25.872 1,635,495,936 25,864

CHAPTERS:

Number Time In Length Avg Video Rate Max 1-Sec Rate Max 1-Sec Time Max 5-Sec Rate Max 5-Sec Time Max 10Sec Rate Max 10Sec Time Avg Frame Size Max Frame Size Max Frame Time
------ ------- ------ -------------- -------------- -------------- -------------- -------------- -------------- -------------- -------------- -------------- --------------
1 0:00:00.000 0:08:25.872 20,000 kbps 41,967 kbps 00:01:19.512 31,653 kbps 00:04:43.316 29,376 kbps 00:04:00.773 83,423 bytes 444,169 bytes 00:01:20.080

STREAM DIAGNOSTICS:

File PID Type Codec Language Seconds Bitrate Bytes Packets
---- --- ---- ----- -------- -------------- -------------- ------------- -----
00007.M2TS 4113 (0x1011) 0xEA VC-1 505.705 20,007 1,264,692,085 6,882,455
00007.M2TS 4352 (0x1100) 0x80 LPCM eng (English) 505.705 2,311 146,096,700 809,400
00007.M2TS 4353 (0x1101) 0x80 LPCM eng (English) 505.705 2,311 146,096,700 809,400

Screenshots:





http://www.nitroflare.com/view/7EB8A705C2C155F/BR.MGDTRSIPC.part01.rar
http://www.nitroflare.com/view/C2EEBAB78355E2D/BR.MGDTRSIPC.part02.rar
http://www.nitroflare.com/view/151DBE2CF0E912B/BR.MGDTRSIPC.part03.rar
http://www.nitroflare.com/view/678274A01E471B2/BR.MGDTRSIPC.part04.rar
http://www.nitroflare.com/view/2AB788087CFE0BD/BR.MGDTRSIPC.part05.rar
http://www.nitroflare.com/view/91871D53BA9C115/BR.MGDTRSIPC.part06.rar
http://www.nitroflare.com/view/7C7C939CB3E2F0F/BR.MGDTRSIPC.part07.rar
http://www.nitroflare.com/view/3B58798F31F3DB6/BR.MGDTRSIPC.part08.rar
http://www.nitroflare.com/view/04431F739C5C67C/BR.MGDTRSIPC.part09.rar
http://www.nitroflare.com/view/A34F490C470C4F8/BR.MGDTRSIPC.part10.rar
http://www.nitroflare.com/view/50181CEE8EEAB58/BR.MGDTRSIPC.part11.rar
http://www.nitroflare.com/view/5798E7AC31E3D00/BR.MGDTRSIPC.part12.rar
http://www.nitroflare.com/view/AEBA235A07C9BE0/BR.MGDTRSIPC.part13.rar
http://www.nitroflare.com/view/7BDCDD92CF44CC3/BR.MGDTRSIPC.part14.rar
http://www.nitroflare.com/view/B5741E711ED2A1C/BR.MGDTRSIPC.part15.rar
http://www.nitroflare.com/view/051D1F56A4F0C1C/BR.MGDTRSIPC.part16.rar
http://www.nitroflare.com/view/17B7BD7BD14C35F/BR.MGDTRSIPC.part17.rar
http://www.nitroflare.com/view/67811AFCE9936F0/BR.MGDTRSIPC.part18.rar
http://www.nitroflare.com/view/A1E431446E191DE/BR.MGDTRSIPC.part19.rar
http://www.nitroflare.com/view/629E2AC0F52B353/BR.MGDTRSIPC.part20.rar
http://www.nitroflare.com/view/D8679E101570ED3/BR.MGDTRSIPC.part21.rar
http://www.nitroflare.com/view/C1D468918B76CE7/BR.MGDTRSIPC.part22.rar
http://www.nitroflare.com/view/47473E368E62413/BR.MGDTRSIPC.part23.rar
http://www.nitroflare.com/view/BE9ACC2243F3E90/BR.MGDTRSIPC.part24.rar
http://www.nitroflare.com/view/319DAD355C7EE12/BR.MGDTRSIPC.part25.rar
http://www.nitroflare.com/view/9DD466F20579642/BR.MGDTRSIPC.part26.rar
http://www.nitroflare.com/view/EC09FACF68C0095/BR.MGDTRSIPC.part27.rar
http://www.nitroflare.com/view/7A2DEACAD7545E1/BR.MGDTRSIPC.part28.rar
http://www.nitroflare.com/view/1D8202BECB7070D/BR.MGDTRSIPC.part29.rar
http://www.nitroflare.com/view/EDEA4F2A704D292/BR.MGDTRSIPC.part30.rar
http://www.nitroflare.com/view/FAE34C735CC326E/BR.MGDTRSIPC.part31.rar
http://www.nitroflare.com/view/B8F7C626A28D5C4/BR.MGDTRSIPC.part32.rar
http://www.nitroflare.com/view/675C9C7A3DB1A2E/BR.MGDTRSIPC.part33.rar
http://www.nitroflare.com/view/AFA662E1451CB71/BR.MGDTRSIPC.part34.rar
http://www.nitroflare.com/view/4EEDA71C0B65198/BR.MGDTRSIPC.part35.rar
http://www.nitroflare.com/view/0AA1F72BA9C4E95/BR.MGDTRSIPC.part36.rar
http://www.nitroflare.com/view/A3EBAFAE3D55F81/BR.MGDTRSIPC.part37.rar
http://www.nitroflare.com/view/F7238B9D8394041/BR.MGDTRSIPC.part38.rar
http://www.nitroflare.com/view/B676DF71B6A1ACC/BR.MGDTRSIPC.part39.rar
http://www.nitroflare.com/view/B23AF7C25B54E09/BR.MGDTRSIPC.part40.rar
http://www.nitroflare.com/view/8C9D80A03124D83/BR.MGDTRSIPC.part41.rar
http://www.nitroflare.com/view/176C6B1EE0E1436/BR.MGDTRSIPC.part42.rar
http://www.nitroflare.com/view/650F7A9AFDF5D83/BR.MGDTRSIPC.part43.rar
http://www.nitroflare.com/view/8D49BFE66E4E339/BR.MGDTRSIPC.part44.rar
http://www.nitroflare.com/view/512DF42FA5A1E7E/BR.MGDTRSIPC.part45.rar
http://www.nitroflare.com/view/7FC410BC4D43912/BR.MGDTRSIPC.part46.rar
http://www.nitroflare.com/view/822070F9A1A95E6/BR.MGDTRSIPC.part47.rar