Brian Poole & The Tremeloes - Twist And Shout (Anthology Volume 2) (1995)


Brian Poole & The Tremeloes - Twist And Shout (Anthology Volume 2) (1995)
EAC Rip | FLAC (Img) + Cue + Log ~ 385 Mb | MP3 CBR320 ~ 174 Mb
Scans Included (JPG, 300 dpi) | RAR 5% Recovery
Rock & Roll, Pop Rock, Beat | Oxford Records #OX-CD LK 4550

It's difficult for anyone who has heard them not to like -- or even love -- the Tremeloes. They were one of the more prodigiously talented British pop/rock bands of the 1960s, and they threw that talent into the making of amazingly catchy and well-crafted singles that lit up the charts and radio on both sides of the Atlantic for four years running, from 1966 through 1970.

Yet, the Tremeloes are also one of the least-known and least-respected of 1960s English bands. The precise reason for the lack of respect is difficult to pin down, except perhaps that their timing was out, as far as making the most of their success. They generally didn't write their own material, and they cut their best singles long after the British Invasion (and the mystique surrounding the bands that were part of it) had ended. And, yet, ironically, the Tremeloes are also one of the longest surviving English rock & roll bands, playing regularly more than 40 years after the group's founding...
All Music Guide

| | |

***************


Track List:

01. Twist And Shout [02:06]
02. Twenty Miles [02:04]
03. If You Gotta Make A Fool Of Somebody [02:37]
04. You Don't Love Me Any More (And I Can Tell) [02:07]
05. Meet Me Where We Used To Meet [02:23]
06. Don't Be Afarid Little Darlin' [01:56]
07. We Know [01:52]
08. Alley-Oop [03:24]
09. Baby Workout [02:31]
10. Over The Moutain, Across The Sea [02:26]
11. Twist Little Sister [01:58]
12. Da Doo Ron Ron [02:09]
13. Run Back Home [02:02]
14. South Street [02:21]
15. Peanuts [02:18]
16. Keep On Dancing [01:59]
17. Someone, Someone [02:59]
18. Till The End Of Time [01:56]
19. Twelve Steps To Love [02:30]
20. Don't Cry [02:08]
21. The Three Bells (The Jimmy Brown Song) [03:06]
22. Tell Me How You Care [01:59]
23. After Awhile [02:05]
24. You Know [02:10]
25. I Want Candy [02:27]
26. Love Me Baby [02:05]
27. Out Of My Mind [02:23]
28. It's All Right [02:32]
29. You Don't Owe Me [02:21]
30. Sho' Miss You Baby [02:40]

Exact Audio Copy V1.0 beta 4 from 7. December 2014

Отчёт EAC об извлечении, выполненном 3. июля 2015, 18:02

Brian Poole & The Tremeloes / Anthology Volume 2 - Twist And Shout

Дисковод: ASUS DRW-24F1ST a Adapter: 1 ID: 0

Режим чтения : Достоверность
Использование точного потока : Да
Отключение кэша аудио : Да
Использование указателей C2 : Нет

Коррекция смещения при чтении : 6
Способность читать области Lead-in и Lead-out : Нет
Заполнение пропущенных сэмплов тишиной : Да
Удаление блоков с тишиной в начале и конце : Нет
При вычислениях CRC использовались нулевые сэмплы : Да
Интерфейс : Встроенный Win32-интерфейс для Win NT/2000

Выходной формат : Пользовательский кодировщик
Выбранный битрейт : 128 kBit/s
Качество : Высокий
Добавление ID3-тега : Нет
Утилита сжатия : C:Program FilesExact Audio CopyFlacflac.exe
Дополнительные параметры : -V -8 -T "Date=%year%" -T "Genre=%genre%" %source%


TOC извлечённого CD

Трек | Старт | Длительность | Начальный сектор | Конечный сектор
---------------------------------------------------------------------
1 | 0:00.00 | 2:05.17 | 0 | 9391
2 | 2:05.17 | 2:03.03 | 9392 | 18619
3 | 4:08.20 | 2:36.70 | 18620 | 30389
4 | 6:45.15 | 2:06.10 | 30390 | 39849
5 | 8:51.25 | 2:22.02 | 39850 | 50501
6 | 11:13.27 | 1:55.60 | 50502 | 59186
7 | 13:09.12 | 1:51.73 | 59187 | 67584
8 | 15:01.10 | 3:23.20 | 67585 | 82829
9 | 18:24.30 | 2:30.40 | 82830 | 94119
10 | 20:54.70 | 2:25.47 | 94120 | 105041
11 | 23:20.42 | 1:57.08 | 105042 | 113824
12 | 25:17.50 | 2:08.65 | 113825 | 123489
13 | 27:26.40 | 2:01.02 | 123490 | 132566
14 | 29:27.42 | 2:20.03 | 132567 | 143069
15 | 31:47.45 | 2:17.30 | 143070 | 153374
16 | 34:05.00 | 1:58.40 | 153375 | 162264
17 | 36:03.40 | 2:58.25 | 162265 | 175639
18 | 39:01.65 | 1:55.20 | 175640 | 184284
19 | 40:57.10 | 2:29.55 | 184285 | 195514
20 | 43:26.65 | 2:07.50 | 195515 | 205089
21 | 45:34.40 | 3:05.37 | 205090 | 219001
22 | 48:40.02 | 1:58.08 | 219002 | 227859
23 | 50:38.10 | 2:04.32 | 227860 | 237191
24 | 52:42.42 | 2:09.03 | 237192 | 246869
25 | 54:51.45 | 2:26.57 | 246870 | 257876
26 | 57:18.27 | 2:04.70 | 257877 | 267246
27 | 59:23.22 | 2:22.20 | 267247 | 277916
28 | 61:45.42 | 2:31.23 | 277917 | 289264
29 | 64:16.65 | 2:20.50 | 289265 | 299814
30 | 66:37.40 | 2:39.02 | 299815 | 311741


Характеристики диапазона извлечения и сообщения об ошибках

Выбранный диапазон

Имя файла C:UsersErikDesktopBrian Poole & The Tremeloes - Anthology Volume 2 - Twist And Shout.wav

Пиковый уровень 100.0 %
Скорость извлечения 7.9 X
Качество диапазона 100.0 %
CRC теста 7DC95CF5
CRC копии 7DC95CF5
Копирование... OK

Ошибок не произошло


AccurateRip: сводка

Трек 1 : извлечено точно (доверие 1) [2E34B0A1] (AR v2)
Трек 2 : извлечено точно (доверие 1) [50398086] (AR v2)
Трек 3 : извлечено точно (доверие 1) [85B22A00] (AR v2)
Трек 4 : извлечено точно (доверие 1) [FDA7BB76] (AR v2)
Трек 5 : извлечено точно (доверие 1) [DAFD7329] (AR v2)
Трек 6 : извлечено точно (доверие 1) [D217338E] (AR v2)
Трек 7 : извлечено точно (доверие 1) [AEB6C032] (AR v2)
Трек 8 : извлечено точно (доверие 1) [BAE0874E] (AR v2)
Трек 9 : извлечено точно (доверие 1) [9738789E] (AR v2)
Трек 10 : извлечено точно (доверие 1) [8722D5ED] (AR v2)
Трек 11 : извлечено точно (доверие 1) [21291EAC] (AR v2)
Трек 12 : извлечено точно (доверие 1) [CB47E159] (AR v2)
Трек 13 : извлечено точно (доверие 1) [5C212F24] (AR v2)
Трек 14 : извлечено точно (доверие 1) [7D4BF641] (AR v2)
Трек 15 : извлечено точно (доверие 1) [5603C92D] (AR v2)
Трек 16 : извлечено точно (доверие 1) [368C6F99] (AR v2)
Трек 17 : извлечено точно (доверие 1) [9EDD8267] (AR v2)
Трек 18 : извлечено точно (доверие 1) [7AD94F33] (AR v2)
Трек 19 : извлечено точно (доверие 1) [EA223E0B] (AR v2)
Трек 20 : извлечено точно (доверие 1) [1F234718] (AR v2)
Трек 21 : извлечено точно (доверие 1) [9AF1424A] (AR v2)
Трек 22 : извлечено точно (доверие 1) [2918EEB2] (AR v2)
Трек 23 : извлечено точно (доверие 1) [DECBAD34] (AR v2)
Трек 24 : извлечено точно (доверие 1) [39BD3C62] (AR v2)
Трек 25 : извлечено точно (доверие 1) [BF9DB1F0] (AR v2)
Трек 26 : извлечено точно (доверие 1) [16B45EBF] (AR v2)
Трек 27 : извлечено точно (доверие 1) [89AF869D] (AR v2)
Трек 28 : извлечено точно (доверие 1) [ABDC75E5] (AR v2)
Трек 29 : извлечено точно (доверие 1) [B53D1A1D] (AR v2)
Трек 30 : извлечено точно (доверие 1) [3D1EAE4E] (AR v2)

Все треки извлечены точно

Конец отчёта

---- CUETools DB Plugin V2.1.4

[CTDB TOCID: TbA2Ej3659tJuwj0IoBBJWSmyOo-] found
Submit result: TbA2Ej3659tJuwj0IoBBJWSmyOo- has been confirmed
Track | CTDB Status
1 | (1/1) Accurately ripped
2 | (1/1) Accurately ripped
3 | (1/1) Accurately ripped
4 | (1/1) Accurately ripped
5 | (1/1) Accurately ripped
6 | (1/1) Accurately ripped
7 | (1/1) Accurately ripped
8 | (1/1) Accurately ripped
9 | (1/1) Accurately ripped
10 | (1/1) Accurately ripped
11 | (1/1) Accurately ripped
12 | (1/1) Accurately ripped
13 | (1/1) Accurately ripped
14 | (1/1) Accurately ripped
15 | (1/1) Accurately ripped
16 | (1/1) Accurately ripped
17 | (1/1) Accurately ripped
18 | (1/1) Accurately ripped
19 | (1/1) Accurately ripped
20 | (1/1) Accurately ripped
21 | (1/1) Accurately ripped
22 | (1/1) Accurately ripped
23 | (1/1) Accurately ripped
24 | (1/1) Accurately ripped
25 | (1/1) Accurately ripped
26 | (1/1) Accurately ripped
27 | (1/1) Accurately ripped
28 | (1/1) Accurately ripped
29 | (1/1) Accurately ripped
30 | (1/1) Accurately ripped

foobar2000 1.2.6 / Dynamic Range Meter 1.1.1
log date: 2015-07-16 21:03:16

--------------------------------------------------------------------------------
Analyzed: Brian Poole & The Tremeloes / Anthology Volume 2 - Twist And Shout
--------------------------------------------------------------------------------

DR Peak RMS Duration Track
--------------------------------------------------------------------------------
DR10 0.00 dB -10.90 dB 2:05 01-Twist And Shout
DR10 0.00 dB -10.92 dB 2:03 02-Twenty Miles
DR12 -0.01 dB -13.83 dB 2:37 03-If You Gotta Make A Fool Of Somebody
DR9 -0.02 dB -11.31 dB 2:06 04-You Don't Love Me Any More (And I Can Tell)
DR8 -0.01 dB -9.85 dB 2:22 05-Meet Me Where We Used To Meet
DR8 0.00 dB -8.54 dB 1:56 06-Don't Be Afarid Little Darlin'
DR11 0.00 dB -12.19 dB 1:52 07-We Know
DR9 0.00 dB -11.61 dB 3:23 08-Alley-Oop
DR8 -0.01 dB -9.19 dB 2:31 09-Baby Workout
DR10 0.00 dB -11.31 dB 2:26 10-Over The Moutain, Across The Sea
DR8 0.00 dB -9.70 dB 1:57 11-Twist Little Sister
DR9 -0.01 dB -10.49 dB 2:09 12-Da Doo Ron Ron
DR9 0.00 dB -10.75 dB 2:01 13-Run Back Home
DR9 -0.01 dB -10.38 dB 2:20 14-South Street
DR9 0.00 dB -10.46 dB 2:17 15-Peanuts
DR9 -0.01 dB -9.87 dB 1:59 16-Keep On Dancing
DR9 -0.01 dB -11.08 dB 2:58 17-Someone, Someone
DR7 -0.01 dB -8.25 dB 1:55 18-Till The End Of Time
DR9 -0.01 dB -10.54 dB 2:30 19-Twelve Steps To Love
DR7 -0.01 dB -8.04 dB 2:08 20-Don't Cry
DR10 -0.01 dB -11.73 dB 3:05 21-The Three Bells (The Jimmy Brown Song)
DR8 -0.01 dB -9.64 dB 1:58 22-Tell Me How You Care
DR8 -0.01 dB -9.76 dB 2:04 23-After Awhile
DR7 -0.01 dB -8.03 dB 2:09 24-You Know
DR8 -0.01 dB -8.49 dB 2:27 25-I Want Candy
DR7 0.00 dB -8.47 dB 2:05 26-Love Me Baby
DR9 -0.01 dB -9.86 dB 2:22 27-Out Of My Mind
DR8 -0.01 dB -8.92 dB 2:31 28-It's All Right
DR6 -0.01 dB -7.21 dB 2:21 29-You Don't Owe Me
DR7 -0.01 dB -8.15 dB 2:39 30-Sho' Miss You Baby
--------------------------------------------------------------------------------

Number of tracks: 30
Official DR value: DR9

Samplerate: 44100 Hz
Channels: 2
Bits per sample: 16
Bitrate: 725 kbps
Codec: FLAC
================================================================================

[CUETools log; Date: 16.07.2015 21:03:14; Version: 2.1.5]
[CTDB TOCID: TbA2Ej3659tJuwj0IoBBJWSmyOo-] found.
Track | CTDB Status
1 | (2/2) Accurately ripped
2 | (2/2) Accurately ripped
3 | (2/2) Accurately ripped
4 | (2/2) Accurately ripped
5 | (2/2) Accurately ripped
6 | (2/2) Accurately ripped
7 | (2/2) Accurately ripped
8 | (2/2) Accurately ripped
9 | (2/2) Accurately ripped
10 | (2/2) Accurately ripped
11 | (2/2) Accurately ripped
12 | (2/2) Accurately ripped
13 | (2/2) Accurately ripped
14 | (2/2) Accurately ripped
15 | (2/2) Accurately ripped
16 | (2/2) Accurately ripped
17 | (2/2) Accurately ripped
18 | (2/2) Accurately ripped
19 | (2/2) Accurately ripped
20 | (2/2) Accurately ripped
21 | (2/2) Accurately ripped
22 | (2/2) Accurately ripped
23 | (2/2) Accurately ripped
24 | (2/2) Accurately ripped
25 | (2/2) Accurately ripped
26 | (2/2) Accurately ripped
27 | (2/2) Accurately ripped
28 | (2/2) Accurately ripped
29 | (2/2) Accurately ripped
30 | (2/2) Accurately ripped
[AccurateRip ID: 0048f573-0617f756-ba103c1e] found.
Track [ CRC | V2 ] Status
01 [b985b9b4|2e34b0a1] (0+1/1) Accurately ripped
02 [db34b983|50398086] (0+1/1) Accurately ripped
03 [763a7d8e|85b22a00] (0+1/1) Accurately ripped
04 [e148a1c8|fda7bb76] (0+1/1) Accurately ripped
05 [4d74f417|dafd7329] (0+1/1) Accurately ripped
06 [eec1724a|d217338e] (0+1/1) Accurately ripped
07 [3cc3da6e|aeb6c032] (0+1/1) Accurately ripped
08 [4cd261f5|bae0874e] (0+1/1) Accurately ripped
09 [4b524b8b|9738789e] (0+1/1) Accurately ripped
10 [26c7e2c4|8722d5ed] (0+1/1) Accurately ripped
11 [e5cea69f|21291eac] (0+1/1) Accurately ripped
12 [ea008c80|cb47e159] (0+1/1) Accurately ripped
13 [4b7d8156|5c212f24] (0+1/1) Accurately ripped
14 [e1b30f88|7d4bf641] (0+1/1) Accurately ripped
15 [e1da5e54|5603c92d] (0+1/1) Accurately ripped
16 [ea3dd178|368c6f99] (0+1/1) Accurately ripped
17 [ae9daa64|9edd8267] (0+1/1) Accurately ripped
18 [4a482a98|7ad94f33] (0+1/1) Accurately ripped
19 [958ff8ba|ea223e0b] (0+1/1) Accurately ripped
20 [b22aa48a|1f234718] (0+1/1) Accurately ripped
21 [631cb15e|9af1424a] (0+1/1) Accurately ripped
22 [52ee60a2|2918eeb2] (0+1/1) Accurately ripped
23 [f5320d34|decbad34] (0+1/1) Accurately ripped
24 [1fca34d3|39bd3c62] (0+1/1) Accurately ripped
25 [6ec5aec4|bf9db1f0] (0+1/1) Accurately ripped
26 [06774ea6|16b45ebf] (0+1/1) Accurately ripped
27 [647a78f8|89af869d] (0+1/1) Accurately ripped
28 [5fb4fcad|abdc75e5] (0+1/1) Accurately ripped
29 [a8c618d5|b53d1a1d] (0+1/1) Accurately ripped
30 [9fcb9fe6|3d1eae4e] (0+1/1) Accurately ripped

Track Peak [ CRC32 ] [W/O NULL] [ LOG ]
-- 100,0 [7DC95CF5] [E8243888] CRC32
01 99,9 [C1AFA2DF] [CE1E50E2]
02 99,9 [7F04EC39] [00AEFED1]
03 99,8 [C77D12C4] [E31E73EB]
04 99,8 [CBC94E0A] [F794FE36]
05 99,8 [F2FA69CF] [6696EB2D]
06 100,0 [6C17DD5D] [0D687795]
07 100,0 [A732017D] [97A81E2B]
08 100,0 [1300E451] [F4951D3E]
09 99,8 [4F792ED7] [E3692DF9]
10 100,0 [837AF937] [CE734606]
11 99,9 [37CDB1FE] [817AB273]
12 99,8 [29D3DD48] [30108C93]
13 99,9 [0812EBDC] [90D7D3F9]
14 99,8 [9166E098] [0A775A01]
15 99,9 [06F1C116] [54027A89]
16 99,8 [D2A52BFF] [5A1B6BFF]
17 99,8 [523BDFEA] [8BF10C35]
18 99,8 [26A3D41F] [D19DE02E]
19 99,8 [42FAB1F5] [729E7A25]
20 99,8 [E9CECD5D] [E64A219C]
21 99,8 [B0E17EDF] [D4326214]
22 99,8 [C6CC9E03] [0ECB86B8]
23 99,8 [D356088A] [82B15C9C]
24 99,8 [0FADBE0F] [74F62D70]
25 99,9 [274E7040] [00B90D9E]
26 99,9 [C1FCDAF6] [49E23F18]
27 99,8 [FBD865BE] [2E5B537A]
28 99,8 [44DE2A85] [BC4ABF7F]
29 99,8 [1DA2483B] [2B21CDA7]
30 99,8 [BB9F5185] [0C476306]


All thanks go to Erik



Download:
Uploadable: | |

Hitfile: | |