Вход в свой аккаунт

Или войдите через соц. сети

David Newman - Galaxy Quest: Music from the Motion Picture (1999) Limited Edition 2012


David Newman - Galaxy Quest: Music from the Motion Picture (1999) Limited Edition 2012
EAC | FLAC | Tracks (Cue&Log) ~ 326 Mb (incl 5%) | Mp3 (CBR320) ~ 130 Mb (incl 5%) | Scans ~ 106 Mb
Genre: Soundtrack, Score | Label: La-La Land Records | # LLLCD 1208 | Time: 00:54:12

“ La-La Land Records and Paramount Pictures presents the premiere official soundtrack release of the original motion picture score to the 1999 Dreamworks sci-fi action/comedy GALAXY QUEST, starring Tim Allen, Sigourney Weaver, Alan Rickman and Sam Rockwell and directed by Dean Parisot. Acclaimed composer David Newman (SERENITY, SCOOBY DOO, ICE AGE, THE PHANTOM) pulls off an impressive musical feat, employing a comic touch while skillfully supporting the film’s legitimate, considerable sci-fi action and well-drawn character relationships. Newman continues in the rich tradition of the Newman family musical legacy, composing a score that employs big choral passages and wondrous melodic themes. Released previously only as a composer-produced promo CD, this official, longer and remastered edition, produced by Dan Goldwasser and mastered by Doug Schwartz, sounds stellar and features exclusive liner notes by film music writer Tim Greiving. This is a limited edition of 3000 units. ”









Tracklist:

01. Galaxy Quest: The Classic TV Theme (00:57)
02. TV Clip (01:32)
03. Pathetic Nesmith (00:57)
04. Galaxy Quest TV Clip #3 / Introducing Sarris / Revealing the Universe (01:50)
05. Transporting the Crew / Meet the Thermians (01:33)
06. The N.S.E.A. Protector (00:43)
07. Crew Quarters and the Bridge / The Launch (03:24)
08. Jason Takes Action / Sarris Tortures Captain (01:41)
09. Red Thingie, Green Thingie... Run! (03:30)
10. Shuttle to Planet / Trek Across Planet (04:26)
11. Rolling the Sphere / Pig Lizard / Rock Monster (06:05)
12. 'Digitize Me Fred' (01:13)
13. 'I'm So Sorry' (01:42)
14. Fight, Episode 17 (01:15)
15. The Hallway Sneak / Alex Finds Quellek (02:16)
16. Angry Sarris / Into the Ducts / Omega 13 / Heroic Guy / Reveal Chompers / Opening the Airlock (03:31)
17. Big Kiss / Happy Rock Monster / Dying Thermians / Quellek's Death / Into Reactor Room / Push the Button / A Hug Before Dying (04:08)
18. Sarris Orders Attack / The Battle (03:34)
19. Mathesar Takes Command / Sarris Kills Everybody (02:18)
20. Mathesar, Hero / Goodbye My Friends / Crash Landing (01:45)
21. Goodbye Sarris / Happy Ending (02:04)
22. The New Galaxy Quest (02:51)


Exact Audio Copy V1.0 beta 3 from 29. August 2011

EAC extraction logfile from 18. April 2012, 1:12

David Newman / Galaxy Quest

Used drive : TSSTcorpCDDVDW SH-S203N Adapter: 1 ID: 1

Read mode : Secure
Utilize accurate stream : Yes
Defeat audio cache : Yes
Make use of C2 pointers : No

Read offset correction : 6
Overread into Lead-In and Lead-Out : No
Fill up missing offset samples with silence : Yes
Delete leading and trailing silent blocks : No
Null samples used in CRC calculations : Yes
Used interface : Native Win32 interface for Win NT & 2000
Gap handling : Appended to previous track

Used output format : User Defined Encoder
Selected bitrate : 896 kBit/s
Quality : High
Add ID3 tag : No
Command line compressor : C:Program Files (x86)FLACflac.exe
Additional command line options : -8 -V -T "ARTIST=%artist%" -T "TITLE=%title%" -T "ALBUM=%albumtitle%" -T "DATE=%year%" -T "TRACKNUMBER=%tracknr%" -T "GENRE=%genre%" -T "PERFORMER=%albuminterpret%" -T "COMPOSER=%composer%" %haslyrics%--tag-from-file=LYRICS="%lyricsfile%"%haslyrics% -T "ALBUMARTIST=%albumartist%" -T "DISCNUMBER=%cdnumber%" -T "TOTALDISCS=%totalcds%" -T "TOTALTRACKS=%numtracks%" -T "COMMENT=%comment%" %source% -o %dest%


TOC of the extracted CD

Track | Start | Length | Start sector | End sector
---------------------------------------------------------
1 | 0:00.00 | 0:58.52 | 0 | 4401
2 | 0:58.52 | 1:34.27 | 4402 | 11478
3 | 2:33.04 | 1:00.74 | 11479 | 16052
4 | 3:34.03 | 1:53.22 | 16053 | 24549
5 | 5:27.25 | 1:36.46 | 24550 | 31795
6 | 7:03.71 | 0:45.65 | 31796 | 35235
7 | 7:49.61 | 3:27.49 | 35236 | 50809
8 | 11:17.35 | 1:43.14 | 50810 | 58548
9 | 13:00.49 | 3:32.61 | 58549 | 74509
10 | 16:33.35 | 4:28.65 | 74510 | 94674
11 | 21:02.25 | 6:08.47 | 94675 | 122321
12 | 27:10.72 | 1:15.55 | 122322 | 128001
13 | 28:26.52 | 1:44.09 | 128002 | 135810
14 | 30:10.61 | 1:16.26 | 135811 | 141536
15 | 31:27.12 | 2:18.73 | 141537 | 151959
16 | 33:46.10 | 3:32.65 | 151960 | 167924
17 | 37:19.00 | 4:10.12 | 167925 | 186686
18 | 41:29.12 | 3:36.48 | 186687 | 202934
19 | 45:05.60 | 2:20.15 | 202935 | 213449
20 | 47:26.00 | 1:48.08 | 213450 | 221557
21 | 49:14.08 | 2:06.19 | 221558 | 231026
22 | 51:20.27 | 2:51.66 | 231027 | 243917


Track 1

Filename E:EACGalaxy Quest - David Newman - 19991_-_Galaxy_Quest-_The_Classic_TV_Theme.wav

Pre-gap length 0:00:02.00

Peak level 97.1 %
Extraction speed 3.0 X
Track quality 100.0 %
Test CRC B02BD782
Copy CRC B02BD782
Accurately ripped (confidence 1) [E1580E6E] (AR v1)
Copy OK

Track 2

Filename E:EACGalaxy Quest - David Newman - 19992_-_TV_Clip.wav

Pre-gap length 0:00:01.40

Peak level 97.1 %
Extraction speed 3.7 X
Track quality 100.0 %
Test CRC 611306F2
Copy CRC 611306F2
Accurately ripped (confidence 1) [5F942A6C] (AR v1)
Copy OK

Track 3

Filename E:EACGalaxy Quest - David Newman - 19993_-_Pathetic_Nesmith.wav

Pre-gap length 0:00:02.02

Peak level 57.8 %
Extraction speed 3.2 X
Track quality 100.0 %
Test CRC 1D278DA6
Copy CRC 1D278DA6
Accurately ripped (confidence 1) [D9F6BFA6] (AR v1)
Copy OK

Track 4

Filename E:EACGalaxy Quest - David Newman - 19994_-_Galaxy_Quest_TV_Clip_#3,Introducing_Sarris,Revealing_the_Universe.wav

Pre-gap length 0:00:03.50

Peak level 97.1 %
Extraction speed 4.2 X
Track quality 100.0 %
Test CRC 3C6F9B31
Copy CRC 3C6F9B31
Accurately ripped (confidence 1) [FE24E8B7] (AR v1)
Copy OK

Track 5

Filename E:EACGalaxy Quest - David Newman - 19995_-_Transporting_the_Crew,Meet_the_Thermians.wav

Pre-gap length 0:00:03.21

Peak level 97.1 %
Extraction speed 2.8 X
Track quality 99.8 %
Test CRC 4B05B064
Copy CRC 4B05B064
Accurately ripped (confidence 1) [81E48980] (AR v1)
Copy OK

Track 6

Filename E:EACGalaxy Quest - David Newman - 19996_-_The_N.S.E.A._Protector.wav

Pre-gap length 0:00:02.77

Peak level 97.1 %
Extraction speed 3.3 X
Track quality 100.0 %
Test CRC BA72A079
Copy CRC BA72A079
Accurately ripped (confidence 1) [6B7C9ED8] (AR v1)
Copy OK

Track 7

Filename E:EACGalaxy Quest - David Newman - 19997_-_Crew_Quarters_&_The_Bridge,The_Launch.wav

Pre-gap length 0:00:02.21

Peak level 97.1 %
Extraction speed 5.3 X
Track quality 100.0 %
Test CRC BF74B737
Copy CRC BF74B737
Accurately ripped (confidence 1) [44C985ED] (AR v1)
Copy OK

Track 8

Filename E:EACGalaxy Quest - David Newman - 19998_-_Jason_Takes_Action,Sarris_Tortures_Captain.wav

Pre-gap length 0:00:03.05

Peak level 97.1 %
Extraction speed 4.8 X
Track quality 100.0 %
Test CRC 62623D87
Copy CRC 62623D87
Accurately ripped (confidence 1) [FC59A81A] (AR v1)
Copy OK

Track 9

Filename E:EACGalaxy Quest - David Newman - 19999_-_Red_Thingie,_Green_Thingie...Run!.wav

Pre-gap length 0:00:01.26

Peak level 97.1 %
Extraction speed 4.6 X
Track quality 99.9 %
Test CRC B3F71435
Copy CRC B3F71435
Accurately ripped (confidence 1) [4F7841A8] (AR v1)
Copy OK

Track 10

Filename E:EACGalaxy Quest - David Newman - 199910_-_Shuttle_to_Planet,Trek_Across_Planet.wav

Pre-gap length 0:00:01.86

Peak level 97.1 %
Extraction speed 6.4 X
Track quality 100.0 %
Test CRC A3D208C0
Copy CRC A3D208C0
Accurately ripped (confidence 1) [6B889717] (AR v1)
Copy OK

Track 11

Filename E:EACGalaxy Quest - David Newman - 199911_-_Rolling_the_Sphere,Pig_Lizard,Rock_Monster.wav

Pre-gap length 0:00:02.37

Peak level 97.1 %
Extraction speed 7.1 X
Track quality 100.0 %
Test CRC B8976A4E
Copy CRC B8976A4E
Accurately ripped (confidence 1) [9FD0F2A8] (AR v1)
Copy OK

Track 12

Filename E:EACGalaxy Quest - David Newman - 199912_-_''Digitize_Me_Fred''.wav

Pre-gap length 0:00:02.84

Peak level 97.1 %
Extraction speed 5.3 X
Track quality 100.0 %
Test CRC 66B04A3A
Copy CRC 66B04A3A
Accurately ripped (confidence 1) [CE7655BD] (AR v1)
Copy OK

Track 13

Filename E:EACGalaxy Quest - David Newman - 199913_-_''I'm_So_Sorry''.wav

Pre-gap length 0:00:02.25

Peak level 75.6 %
Extraction speed 6.0 X
Track quality 100.0 %
Test CRC 1E383AA8
Copy CRC 1E383AA8
Accurately ripped (confidence 1) [21A1F63B] (AR v1)
Copy OK

Track 14

Filename E:EACGalaxy Quest - David Newman - 199914_-_Fight,_Episode_17.wav

Pre-gap length 0:00:01.65

Peak level 97.1 %
Extraction speed 3.5 X
Track quality 99.8 %
Test CRC BD395AF3
Copy CRC BD395AF3
Accurately ripped (confidence 1) [81B7188A] (AR v1)
Copy OK

Track 15

Filename E:EACGalaxy Quest - David Newman - 199915_-_The_Hallway_Sneak,Alex_Finds_Quellek.wav

Pre-gap length 0:00:01.13

Peak level 97.1 %
Extraction speed 6.7 X
Track quality 100.0 %
Test CRC 121F6846
Copy CRC 121F6846
Accurately ripped (confidence 1) [B793EC57] (AR v1)
Copy OK

Track 16

Filename E:EACGalaxy Quest - David Newman - 199916_-_Angry_Sarris,Into_the_Ducts,Omega_13,Heroic_Guy,Reveal_Chompers,Opening_the_Airlock.wav

Pre-gap length 0:00:02.12

Peak level 97.1 %
Extraction speed 7.4 X
Track quality 100.0 %
Test CRC 4E03E967
Copy CRC 4E03E967
Accurately ripped (confidence 1) [8BAD24A9] (AR v1)
Copy OK

Track 17

Filename E:EACGalaxy Quest - David Newman - 199917_-_Big_Kiss,Happy_Rock_Monster,Dying_Thermians,Quellek's_Death,Into_Reactor_Room,Push_the_Button,A_Hug_Before_Dying.wav

Pre-gap length 0:00:01.54

Peak level 97.1 %
Extraction speed 7.9 X
Track quality 100.0 %
Test CRC 65927BD4
Copy CRC 65927BD4
Accurately ripped (confidence 1) [2CB7828D] (AR v1)
Copy OK

Track 18

Filename E:EACGalaxy Quest - David Newman - 199918_-_Sarris_Orders_Attack,The_Battle.wav

Pre-gap length 0:00:01.77

Peak level 97.1 %
Extraction speed 7.9 X
Track quality 100.0 %
Test CRC AF72614F
Copy CRC AF72614F
Accurately ripped (confidence 1) [1006A781] (AR v1)
Copy OK

Track 19

Filename E:EACGalaxy Quest - David Newman - 199919_-_Mathesar_Takes_Command,Sarris_Kills_Everybody.wav

Pre-gap length 0:00:01.78

Peak level 97.1 %
Extraction speed 7.4 X
Track quality 100.0 %
Test CRC 1297E06E
Copy CRC 1297E06E
Accurately ripped (confidence 1) [075AAF00] (AR v1)
Copy OK

Track 20

Filename E:EACGalaxy Quest - David Newman - 199920_-_Mathesar,_Hero,Goodbye_My_Friends,Crash_Landing.wav

Pre-gap length 0:00:02.09

Peak level 97.1 %
Extraction speed 7.0 X
Track quality 100.0 %
Test CRC 5B1FE9F9
Copy CRC 5B1FE9F9
Accurately ripped (confidence 1) [ED9F79A9] (AR v1)
Copy OK

Track 21

Filename E:EACGalaxy Quest - David Newman - 199921_-_Goodbye_Sarris,Happy_Ending.wav

Pre-gap length 0:00:02.13

Peak level 97.1 %
Extraction speed 7.6 X
Track quality 100.0 %
Test CRC 802C2F9D
Copy CRC 802C2F9D
Accurately ripped (confidence 1) [392982A7] (AR v1)
Copy OK

Track 22

Filename E:EACGalaxy Quest - David Newman - 199922_-_The_New_Galaxy_Quest.wav

Pre-gap length 0:00:01.93

Peak level 97.1 %
Extraction speed 8.1 X
Track quality 100.0 %
Test CRC 8A5FBC63
Copy CRC 8A5FBC63
Accurately ripped (confidence 1) [C9373DFC] (AR v1)
Copy OK


All tracks accurately ripped

No errors occurred

End of status report

==== Log checksum 36814A1C394348738116E004534B0DD7DB97DCCCF78AFF09EC24873B7AAAA081 ====

foobar2000 1.2 / Dynamic Range Meter 1.1.1
log date: 2015-07-24 22:55:44

--------------------------------------------------------------------------------
Analyzed: David Newman / Galaxy Quest
--------------------------------------------------------------------------------

DR Peak RMS Duration Track
--------------------------------------------------------------------------------
DR9 -0.25 dB -10.87 dB 0:59 01-Galaxy Quest: The Classic TV Theme
DR9 -0.25 dB -12.80 dB 1:34 02-TV Clip
DR12 -4.76 dB -22.77 dB 1:01 03-Pathetic Nesmith
DR8 -0.25 dB -12.18 dB 1:53 04-Galaxy Quest TV Clip #3 / Introducing Sarris / Revealing the Universe
DR9 -0.25 dB -14.68 dB 1:37 05-Transporting the Crew / Meet the Thermians
DR8 -0.25 dB -11.84 dB 0:46 06-The N.S.E.A. Protector
DR9 -0.25 dB -14.26 dB 3:28 07-Crew Quarters and the Bridge / The Launch
DR12 -0.25 dB -16.65 dB 1:43 08-Jason Takes Action / Sarris Tortures Captain
DR8 -0.25 dB -10.35 dB 3:33 09-Red Thingie, Green Thingie... Run!
DR9 -0.25 dB -15.10 dB 4:29 10-Shuttle to Planet / Trek Across Planet
DR9 -0.25 dB -13.19 dB 6:09 11-Rolling the Sphere / Pig Lizard / Rock Monster
DR9 -0.25 dB -15.50 dB 1:16 12-"Digitize Me Fred"
DR14 -2.43 dB -21.48 dB 1:44 13-"I'm So Sorry"
DR9 -0.25 dB -12.76 dB 1:16 14-Fight, Episode 17
DR11 -0.25 dB -15.62 dB 2:19 15-The Hallway Sneak / Alex Finds Quellek
DR8 -0.25 dB -11.41 dB 3:33 16-Angry Sarris / Into the Ducts / Omega 13 / Heroic Guy / Reveal Chompers / Opening the Airlock
DR9 -0.25 dB -14.03 dB 4:10 17-Big Kiss / Happy Rock Monster / Dying Thermians / Quellek's Death / Into Reactor Room / Push the Button / A Hug Before Dying
DR8 -0.25 dB -10.55 dB 3:37 18-Sarris Orders Attack / The Battle
DR8 -0.25 dB -13.28 dB 2:20 19-Mathesar Takes Command / Sarris Kills Everybody
DR8 -0.25 dB -11.34 dB 1:48 20-Mathesar, Hero / Goodbye My Friends / Crash Landing
DR7 -0.25 dB -10.05 dB 2:06 21-Goodbye Sarris / Happy Ending
DR7 -0.25 dB -9.53 dB 2:52 22-The New Galaxy Quest
--------------------------------------------------------------------------------

Number of tracks: 22
Official DR value: DR9

Samplerate: 44100 Hz
Channels: 2
Bits per sample: 16
Bitrate: 847 kbps
Codec: FLAC
================================================================================



All thanks to original releaser


Password: designol