Вход в свой аккаунт

Или войдите через соц. сети

Peter White - Caravan Of Dreams (1996) [US, Columbia CK 67730]


Peter White - Caravan Of Dreams (1996)
EAC Rip | FLAC (Img) + Cue + Log ~ 344 Mb | MP3 CBR320 ~ 144 Mb
Scans Included (JPG, 400 dpi) | RAR 5% Recovery
Smooth Jazz | Columbia #CK 67730

“ Peter White is one of those rare artists whose unique sound and natural, unpretentious musical vision encapsulate all the charm, appeal, and excitement of his genre. However one chooses to label that style -- new adult contemporary, contemporary jazz, pop instrumental -- the English-born acoustic guitarist has struck rare chords, artistically, commercially, and emotionally, in becoming a melodic mainstay at the top of every radio airplay and sales chart known to soulful, smooth jazz since launching his solo career in 1990 with reveillez-vous. White's similarly warmhearted, instantly infectious Columbia debut Caravan of Dreams continues in the R&B vein of his previous two discs (1993's Promenade and 1994's Reflections), focusing on his trademark breezes while texturing street-smart synth grooves with a free-spirited all-star ensemble to create a whimsical musical travelog. While many of his best radio hits have been very saxophone oriented, for Caravan of Dreams, White made sure that his beloved guitar is in the forefront. And to better accentuate the urban sensibilities his previous albums only hinted at, he chose to collaborate with veteran producer Paul Brown, whose street vibe with Boney James has helped make the saxman one of rhythm and jazz's premier performers. Helping add spice to White's snappy strains and Brown's Midas urban flow is a perfect complement of contemporary jazz's usual suspects, James (on sax and WX-7 windsynth) to White's longtime reed player Dave Camp (on flute), Rick Braun (flügelhorn) and urban gypsy guitarist Marc Antoine, who duets with White along the simmering, Latin-tinged edges of "Cafe Mystique." James adds a lush yet muscular harmony on tenor and soprano, respectively, to the laid-back hip-hop of the title track and the silky, romantic "Together Again." Lenny Castro's surefire percussion adds a lively rhythmic vibe to the summery pleasures of "Venice Beach," while the swirling passions of "Ready & Willing" showcase the guitarist at his most intimate. The explosive energy of "Long Ride Home," featuring artsy solo turns by Braun and Camp, perfectly reflects the drive-time lunacy of life on the road.
~ Jonathan Widran, All Music Guide
”

| | |

***************


Track List:

01. Caravan Of Dreams [06:01]
02. Together Again [05:06]
03. Venice Beach [04:52]
04. Soul Embrace [04:53]
05. Long Ride Home [05:42]
06. Just Another Day [04:41]
07. City Of Lights [05:37]
08. Cafe Mystique [03:22]
09. Bittersweet [04:30]
10. Lullaby [02:19]

Exact Audio Copy V1.0 beta 3 from 29. August 2011

EAC extraction logfile from 25. July 2015, 12:46

Peter White / Caravan Of Dreams

Used drive : PIONEER BD-RW BDR-TD03 Adapter: 0 ID: 1

Read mode : Secure
Utilize accurate stream : Yes
Defeat audio cache : Yes
Make use of C2 pointers : No

Read offset correction : 667
Overread into Lead-In and Lead-Out : No
Fill up missing offset samples with silence : Yes
Delete leading and trailing silent blocks : No
Null samples used in CRC calculations : Yes
Used interface : Native Win32 interface for Win NT & 2000

Used output format : User Defined Encoder
Selected bitrate : 768 kBit/s
Quality : High
Add ID3 tag : No
Command line compressor : C:Program Files (x86)Exact Audio CopyFLACFLAC.EXE
Additional command line options : -6 -V -T "ARTIST=%artist%" -T "TITLE=%title%" -T "ALBUM=%albumtitle%" -T "DATE=%year%" -T "TRACKNUMBER=%tracknr%" -T "GENRE=%genre%" -T "COMMENT=%comment%" -T "BAND=%albuminterpret%" -T "ALBUMARTIST=%albuminterpret%" -T "COMPOSER=%composer%" %haslyrics%--tag-from-file=LYRICS="%lyricsfile%"%haslyrics% -T "DISCNUMBER=%cdnumber%" -T "TOTALDISCS=%totalcds%" -T "TOTALTRACKS=%numtracks%" %hascover%--picture="%coverfile%"%hascover% %source% -o %dest%


TOC of the extracted CD

Track | Start | Length | Start sector | End sector
---------------------------------------------------------
1 | 0:00.00 | 6:00.27 | 0 | 27026
2 | 6:00.27 | 5:05.60 | 27027 | 49961
3 | 11:06.12 | 4:51.10 | 49962 | 71796
4 | 15:57.22 | 4:52.60 | 71797 | 93756
5 | 20:50.07 | 5:41.23 | 93757 | 119354
6 | 26:31.30 | 4:40.42 | 119355 | 140396
7 | 31:11.72 | 5:36.53 | 140397 | 165649
8 | 36:48.50 | 3:21.05 | 165650 | 180729
9 | 40:09.55 | 4:29.35 | 180730 | 200939
10 | 44:39.15 | 2:18.47 | 200940 | 211336


Range status and errors

Selected range

Filename C:UsersDerisDesktopPiwhite96Peter White - Caravan Of Dreams.wav

Peak level 96.6 %
Extraction speed 4.5 X
Range quality 100.0 %
Test CRC CA1C35A0
Copy CRC CA1C35A0
Copy OK

No errors occurred


AccurateRip summary

Track 1 accurately ripped (confidence 6) [F4A04C19] (AR v1)
Track 2 accurately ripped (confidence 5) [5B9E5A62] (AR v1)
Track 3 accurately ripped (confidence 6) [F3FF5A8F] (AR v1)
Track 4 accurately ripped (confidence 5) [5E2E6C89] (AR v1)
Track 5 accurately ripped (confidence 5) [BAAD0972] (AR v1)
Track 6 accurately ripped (confidence 4) [246AC533] (AR v1)
Track 7 accurately ripped (confidence 5) [B5685E61] (AR v1)
Track 8 accurately ripped (confidence 5) [684D6025] (AR v1)
Track 9 accurately ripped (confidence 5) [30D9E39E] (AR v1)
Track 10 accurately ripped (confidence 5) [43ED485C] (AR v1)

All tracks accurately ripped

End of status report

---- CUETools DB Plugin V2.1.3

[CTDB TOCID: BqNbDRZf4MRWJgEC54du2Q.L4VM-] found, Submit result: BqNbDRZf4MRWJgEC54du2Q.L4VM- has been confirmed
[a860e2d7] (22/23) Accurately ripped
[47138273] (01/23) No match


==== Log checksum AF80B449CABDB570D5D31491638A3B27AA414344654E423142296E7139EB28E5 ====

foobar2000 1.2.6 / Dynamic Range Meter 1.1.1
log date: 2015-07-28 01:43:20

--------------------------------------------------------------------------------
Analyzed: Peter White / Caravan Of Dreams
--------------------------------------------------------------------------------

DR Peak RMS Duration Track
--------------------------------------------------------------------------------
DR10 -0.30 dB -12.01 dB 6:00 01-Caravan Of Dreams
DR11 -0.30 dB -12.13 dB 5:06 02-Together Again
DR11 -0.30 dB -12.30 dB 4:51 03-Venice Beach
DR12 -0.30 dB -14.57 dB 4:53 04-Soul Embrace
DR12 -0.30 dB -13.47 dB 5:41 05-Long Ride Home
DR10 -0.30 dB -12.01 dB 4:41 06-Just Another Day
DR11 -0.30 dB -12.98 dB 5:37 07-City Of Lights
DR10 -0.49 dB -13.45 dB 3:21 08-CafР№ Mystique
DR10 -0.30 dB -12.30 dB 4:29 09-Bittersweet
DR13 -0.74 dB -17.29 dB 2:19 10-Lullaby
--------------------------------------------------------------------------------

Number of tracks: 10
Official DR value: DR11

Samplerate: 44100 Hz
Channels: 2
Bits per sample: 16
Bitrate: 886 kbps
Codec: FLAC
================================================================================

[CUETools log; Date: 28.07.2015 1:43:21; Version: 2.1.5]
HDCD: peak extend: yes, transient filter: none, gain: -4,0dB..0,0dB
[CTDB TOCID: BqNbDRZf4MRWJgEC54du2Q.L4VM-] found.
Track | CTDB Status
1 | (23/24) Accurately ripped
2 | (23/24) Accurately ripped
3 | (23/24) Accurately ripped
4 | (23/24) Accurately ripped
5 | (23/24) Accurately ripped
6 | (23/24) Accurately ripped
7 | (23/24) Accurately ripped
8 | (23/24) Accurately ripped
9 | (23/24) Accurately ripped
10 | (23/24) Accurately ripped
[AccurateRip ID: 00133d98-0097be7c-850b010a] found.
Track [ CRC | V2 ] Status
01 [f4a04c19|45543b9c] (06+00/86) Accurately ripped
02 [5b9e5a62|caaadf31] (05+00/84) Accurately ripped
03 [f3ff5a8f|eca3d87f] (06+00/85) Accurately ripped
04 [5e2e6c89|2e2f1471] (05+00/84) Accurately ripped
05 [baad0972|d7b660ac] (05+00/84) Accurately ripped
06 [246ac533|2a2377f2] (04+00/83) Accurately ripped
07 [b5685e61|2264f0b9] (05+00/84) Accurately ripped
08 [684d6025|0ad22657] (05+00/83) Accurately ripped
09 [30d9e39e|4ec56d56] (05+00/84) Accurately ripped
10 [43ed485c|f95e0c23] (05+00/83) Accurately ripped
Offsetted by -395:
01 [a6a73048] (18/86) Accurately ripped
02 [465feab4] (17/84) Accurately ripped
03 [dfc4f503] (18/85) Accurately ripped
04 [52defbb9] (17/84) Accurately ripped
05 [7ab08792] (17/84) Accurately ripped
06 [2b018dbc] (17/83) Accurately ripped
07 [5eb80332] (18/84) Accurately ripped
08 [d7f45569] (17/83) Accurately ripped
09 [78d5ec1d] (17/84) Accurately ripped
10 [1e35a417] (16/83) Accurately ripped
Offsetted by 310:
01 [c736dd6f] (03/86) Accurately ripped
02 [eaac0633] (03/84) Accurately ripped
03 [7e392d01] (03/85) Accurately ripped
04 [a04a6ffb] (03/84) Accurately ripped
05 [488bdb55] (03/84) Accurately ripped
06 [e65429cd] (03/83) Accurately ripped
07 [9c052786] (03/84) Accurately ripped
08 [1b9da940] (03/83) Accurately ripped
09 [132a9ff3] (03/84) Accurately ripped
10 [1f74b0a5] (03/83) Accurately ripped
Offsetted by 321:
01 [c32b15f5] (06/86) Accurately ripped
02 [83517a51] (06/84) Accurately ripped
03 [cfe2f96c] (05/85) Accurately ripped
04 [b45c6b5c] (06/84) Accurately ripped
05 [cbeff4a2] (06/84) Accurately ripped
06 [d8b1ca62] (06/83) Accurately ripped
07 [1c5a15c6] (06/84) Accurately ripped
08 [0803f51c] (06/83) Accurately ripped
09 [fc968844] (06/84) Accurately ripped
10 [9e7d10cd] (06/83) Accurately ripped
Offsetted by 55:
01 [618aefcf] (14/86) Accurately ripped
02 [9d044388] (14/84) Accurately ripped
03 [32cbcf0e] (14/85) Accurately ripped
04 [3d5b6d95] (14/84) Accurately ripped
05 [b9bb1655] (14/84) Accurately ripped
06 [54a8f3e7] (14/83) Accurately ripped
07 [d07490d0] (14/84) Accurately ripped
08 [c9bade1a] (14/83) Accurately ripped
09 [f6536002] (14/84) Accurately ripped
10 [ab4f2a01] (00/83) No match (V2 was not tested)

Track Peak [ CRC32 ] [W/O NULL] [ LOG ]
-- 96,6 [CA1C35A0] [447B108B] CRC32
01 96,6 [EFEE06CC] [FBBBF999]
02 96,6 [68CC5C4A] [3145D35E]
03 96,6 [2A88833D] [38FFED07]
04 96,5 [D31B93B3] [A8F7747B]
05 96,6 [28B2511E] [EAAE00CF]
06 96,6 [1B79C6E8] [B5CDA812]
07 96,6 [FD473825] [726C249A]
08 94,4 [F292D320] [93B6CE97]
09 96,5 [0C2B765E] [040D7099]
10 91,8 [11069C0A] [4B82452E]


All thanks go to Boris1



Download:
Uploadable: | |

Hitfile: | |