VA - It's Only Rock & Roll (2005)


VA - It's Only Rock & Roll (2005)
EAC Rip | FLAC (Img) + Cue + Log ~ 365 Mb | MP3 CBR320 ~ 160 Mb
Scans Included (JPG, 300 dpi) | RAR 5% Recovery
Rock & Roll | Going For A Song Ltd. #GFS004

23 classic Rock & Roll numbers featuring Elvis Presley, Chuck Berry, Carl Perkins, Jerry Lee Lewis, Little Richard, Bill Haley & His Comets and many more.


Track List:

01. Elvis Presley - Heartbreak Hotel [02:10]
02. Chuck Berry - Maybellene [03:26]
03. Carl Perkins - Blue Suede Shoes [02:16]
04. Jerry Lee Lewis - Great Balls of Fire [02:49]
05. The Drifters - Saturday Night at the Movies [01:57]
06. Fats Domino - Blueberry Hill [02:22]
07. Little Richard - Whole Lotta Shakin' Goin' On [02:27]
08. Bill Haley & His Comets - Rip It Up [02:32]
09. Ike & Tina Turner - Poor Little Fool [02:44]
10. Elvis Presley - I Got a Woman [02:45]
11. Chuck Berry - Memphis Tennessee [04:13]
12. Billy Fury - Maybe Baby [02:26]
13. Gene Vincent - Pistol Packing Mama [02:03]
14. Carl Perkins - This Ole House [02:08]
15. Little Richard - Good Golly Miss Molly [02:07]
16. Chuck Berry - Roll Over Beethoven [02:26]
17. Richard Berry - Louie, Louie [02:13]
18. Lloyd Price - Where Were You (On Our Wedding Day) [02:35]
19. Johnny Otis - Willie and the Hand Jive [02:43]
20. Fats Domino - Reelin' & Rockin' [02:10]
21. Little Richard - Tutti Frutti [02:24]
22. Chuck Berry - My Ding a Ling [09:22]
23. Bill Haley & His Comets - Land of a Thousand Dances [03:04]

Exact Audio Copy V1.0 beta 4 from 7. December 2014

Отчёт EAC об извлечении, выполненном 25. июля 2015, 9:12

Various Artists / It's Only Rock & Roll

Дисковод: ASUS DRW-24F1ST a Adapter: 1 ID: 0

Режим чтения : Достоверность
Использование точного потока : Да
Отключение кэша аудио : Да
Использование указателей C2 : Нет

Коррекция смещения при чтении : 6
Способность читать области Lead-in и Lead-out : Нет
Заполнение пропущенных сэмплов тишиной : Да
Удаление блоков с тишиной в начале и конце : Нет
При вычислениях CRC использовались нулевые сэмплы : Да
Интерфейс : Встроенный Win32-интерфейс для Win NT/2000

Выходной формат : Пользовательский кодировщик
Выбранный битрейт : 128 kBit/s
Качество : Высокий
Добавление ID3-тега : Нет
Утилита сжатия : C:Program FilesExact Audio CopyFlacflac.exe
Дополнительные параметры : -V -8 -T "Date=%year%" -T "Genre=%genre%" %source%


TOC извлечённого CD

Трек | Старт | Длительность | Начальный сектор | Конечный сектор
---------------------------------------------------------------------
1 | 0:00.00 | 2:09.07 | 0 | 9681
2 | 2:09.07 | 3:25.21 | 9682 | 25077
3 | 5:34.28 | 2:15.69 | 25078 | 35271
4 | 7:50.22 | 2:48.28 | 35272 | 47899
5 | 10:38.50 | 1:56.33 | 47900 | 56632
6 | 12:35.08 | 2:22.00 | 56633 | 67282
7 | 14:57.08 | 2:26.17 | 67283 | 78249
8 | 17:23.25 | 2:31.05 | 78250 | 89579
9 | 19:54.30 | 2:43.17 | 89580 | 101821
10 | 22:37.47 | 2:44.31 | 101822 | 114152
11 | 25:22.03 | 4:12.18 | 114153 | 133070
12 | 29:34.21 | 2:25.49 | 133071 | 143994
13 | 31:59.70 | 2:02.68 | 143995 | 153212
14 | 34:02.63 | 2:07.31 | 153213 | 162768
15 | 36:10.19 | 2:06.36 | 162769 | 172254
16 | 38:16.55 | 2:25.63 | 172255 | 183192
17 | 40:42.43 | 2:12.49 | 183193 | 193141
18 | 42:55.17 | 2:34.28 | 193142 | 204719
19 | 45:29.45 | 2:42.58 | 204720 | 216927
20 | 48:12.28 | 2:09.58 | 216928 | 226660
21 | 50:22.11 | 2:23.40 | 226661 | 237425
22 | 52:45.51 | 9:21.13 | 237426 | 279513
23 | 62:06.64 | 3:03.09 | 279514 | 293247


Характеристики диапазона извлечения и сообщения об ошибках

Выбранный диапазон

Имя файла C:UsersErikDesktopVarious Artists - It's Only Rock & Roll.wav

Пиковый уровень 100.0 %
Скорость извлечения 7.1 X
Качество диапазона 99.9 %
CRC теста C1FC0126
CRC копии C1FC0126
Копирование... OK

Ошибок не произошло


AccurateRip: сводка

Трек 1 точность не определена (достоверность 2) [B1BD8A9E], AccurateRip вернул [0B34E442] (AR v2)
Трек 2 точность не определена (достоверность 2) [FFC42B95], AccurateRip вернул [9E69B5D4] (AR v2)
Трек 3 точность не определена (достоверность 2) [1EF99169], AccurateRip вернул [62DC7F19] (AR v2)
Трек 4 точность не определена (достоверность 2) [6231975E], AccurateRip вернул [4949616F] (AR v2)
Трек 5 точность не определена (достоверность 2) [77A2093C], AccurateRip вернул [5F312476] (AR v2)
Трек 6 точность не определена (достоверность 2) [903DED1B], AccurateRip вернул [FCAA9174] (AR v2)
Трек 7 точность не определена (достоверность 2) [483983BF], AccurateRip вернул [68815F42] (AR v2)
Трек 8 точность не определена (достоверность 2) [2E9011B3], AccurateRip вернул [719FCDD9] (AR v2)
Трек 9 точность не определена (достоверность 2) [3EF0E24A], AccurateRip вернул [CDD2AD65] (AR v2)
Трек 10 точность не определена (достоверность 2) [84E35E43], AccurateRip вернул [A9F7D2EA] (AR v2)
Трек 11 точность не определена (достоверность 2) [B45090E1], AccurateRip вернул [3F728BA0] (AR v2)
Трек 12 точность не определена (достоверность 2) [D9E81BA0], AccurateRip вернул [E146C3AD] (AR v2)
Трек 13 точность не определена (достоверность 2) [737D917E], AccurateRip вернул [ECAD3D1C] (AR v2)
Трек 14 точность не определена (достоверность 2) [6F97D7AB], AccurateRip вернул [7D5859F7] (AR v2)
Трек 15 точность не определена (достоверность 2) [A7BB93A8], AccurateRip вернул [DEAAFC9A] (AR v2)
Трек 16 точность не определена (достоверность 2) [E9B9EB4E], AccurateRip вернул [E367171F] (AR v2)
Трек 17 точность не определена (достоверность 2) [8D4C14BC], AccurateRip вернул [233FA221] (AR v2)
Трек 18 точность не определена (достоверность 2) [5692F9FB], AccurateRip вернул [37EECDDD] (AR v2)
Трек 19 точность не определена (достоверность 2) [A20E760A], AccurateRip вернул [4392711E] (AR v2)
Трек 20 точность не определена (достоверность 2) [58E6D69C], AccurateRip вернул [8ED8D382] (AR v2)
Трек 21 точность не определена (достоверность 2) [B0CBABF8], AccurateRip вернул [44EF5FFE] (AR v2)
Трек 22 точность не определена (достоверность 2) [32E3CAC0], AccurateRip вернул [8BCD4E6E] (AR v2)
Трек 23 точность не определена (достоверность 2) [CF7DAA23], AccurateRip вернул [9FFD66EB] (AR v2)

Ни один трек не прошёл проверки на точность
В вашей базе может быть иной вариант штамповки диска

Конец отчёта

---- CUETools DB Plugin V2.1.4

[CTDB TOCID: 6uUkPIeagyla0JkgqV1gMDporWQ-] found
Submit result: 6uUkPIeagyla0JkgqV1gMDporWQ- has been confirmed
Track | CTDB Status
1 | (2/2) Accurately ripped
2 | (2/2) Accurately ripped
3 | (2/2) Accurately ripped
4 | (2/2) Accurately ripped
5 | (2/2) Accurately ripped
6 | (2/2) Accurately ripped
7 | (2/2) Accurately ripped
8 | (2/2) Accurately ripped
9 | (2/2) Accurately ripped
10 | (2/2) Accurately ripped
11 | (2/2) Accurately ripped
12 | (2/2) Accurately ripped
13 | (2/2) Accurately ripped
14 | (2/2) Accurately ripped
15 | (2/2) Accurately ripped
16 | (2/2) Accurately ripped
17 | (2/2) Accurately ripped
18 | (2/2) Accurately ripped
19 | (2/2) Accurately ripped
20 | (2/2) Accurately ripped
21 | (2/2) Accurately ripped
22 | (2/2) Accurately ripped
23 | (2/2) Accurately ripped


==== Контрольная сумма отчёта D05D5C15862839D458C674DB0B997FA0A829488FA33F5E048E1AF562D75B44EA ====

foobar2000 1.2.6 / Dynamic Range Meter 1.1.1
log date: 2015-07-28 01:43:52

--------------------------------------------------------------------------------
Analyzed: Bill Haley & His Comets / It's Only Rock & Roll
--------------------------------------------------------------------------------

DR Peak RMS Duration Track
--------------------------------------------------------------------------------
DR10 -0.21 dB -11.44 dB 2:31 08-Rip It Up
DR11 -0.10 dB -12.55 dB 3:03 23-Land of a Thousand Dances
--------------------------------------------------------------------------------

Number of tracks: 2
Official DR value: DR10

Samplerate: 44100 Hz
Channels: 2
Bits per sample: 16
Bitrate: 738 kbps
Codec: FLAC
================================================================================

--------------------------------------------------------------------------------
Statistics for: 12-Maybe Baby
Number of samples: 6423312
Duration: 2:26
--------------------------------------------------------------------------------

Left Right

Peak Value: -0.10 dB --- -0.10 dB
Avg RMS: -8.86 dB --- -9.65 dB
DR channel: 7.57 dB --- 8.37 dB
--------------------------------------------------------------------------------

Official DR Value: DR8

Samplerate: 44100 Hz
Channels: 2
Bits per sample: 16
Bitrate: 738 kbps
Codec: FLAC
================================================================================
--------------------------------------------------------------------------------
Analyzed: Carl Perkins / It's Only Rock & Roll
--------------------------------------------------------------------------------

DR Peak RMS Duration Track
--------------------------------------------------------------------------------
DR10 -0.09 dB -11.41 dB 2:16 03-Blue Suede Shoes
DR9 0.00 dB -10.31 dB 2:07 14-This Ole House
--------------------------------------------------------------------------------

Number of tracks: 2
Official DR value: DR9

Samplerate: 44100 Hz
Channels: 2
Bits per sample: 16
Bitrate: 738 kbps
Codec: FLAC
================================================================================

--------------------------------------------------------------------------------
Analyzed: Chuck Berry / It's Only Rock & Roll
--------------------------------------------------------------------------------

DR Peak RMS Duration Track
--------------------------------------------------------------------------------
DR9 -0.10 dB -10.77 dB 3:25 02-Maybellene
DR10 -0.10 dB -12.15 dB 4:12 11-Memphis Tennessee
DR10 -0.10 dB -11.05 dB 2:26 16-Roll Over Beethoven
DR14 -0.10 dB -17.86 dB 9:21 22-My Ding a Ling
--------------------------------------------------------------------------------

Number of tracks: 4
Official DR value: DR11

Samplerate: 44100 Hz
Channels: 2
Bits per sample: 16
Bitrate: 738 kbps
Codec: FLAC
================================================================================

--------------------------------------------------------------------------------
Analyzed: Elvis Presley / It's Only Rock & Roll
--------------------------------------------------------------------------------

DR Peak RMS Duration Track
--------------------------------------------------------------------------------
DR9 -0.20 dB -11.29 dB 2:09 01-Heartbreak Hotel
DR8 -0.11 dB -9.79 dB 2:44 10-I Got a Woman
--------------------------------------------------------------------------------

Number of tracks: 2
Official DR value: DR9

Samplerate: 44100 Hz
Channels: 2
Bits per sample: 16
Bitrate: 738 kbps
Codec: FLAC
================================================================================

--------------------------------------------------------------------------------
Analyzed: Fats Domino / It's Only Rock & Roll
--------------------------------------------------------------------------------

DR Peak RMS Duration Track
--------------------------------------------------------------------------------
DR9 -0.10 dB -10.38 dB 2:22 06-Blueberry Hill
DR11 -0.10 dB -13.01 dB 2:10 20-Reelin' & Rockin'
--------------------------------------------------------------------------------

Number of tracks: 2
Official DR value: DR10

Samplerate: 44100 Hz
Channels: 2
Bits per sample: 16
Bitrate: 738 kbps
Codec: FLAC
================================================================================

--------------------------------------------------------------------------------
Statistics for: 13-Pistol Packing Mama
Number of samples: 5420184
Duration: 2:03
--------------------------------------------------------------------------------

Left Right

Peak Value: -0.10 dB --- -0.10 dB
Avg RMS: -10.27 dB --- -10.46 dB
DR channel: 8.67 dB --- 8.85 dB
--------------------------------------------------------------------------------

Official DR Value: DR9

Samplerate: 44100 Hz
Channels: 2
Bits per sample: 16
Bitrate: 738 kbps
Codec: FLAC
================================================================================
--------------------------------------------------------------------------------
Statistics for: 09-Poor Little Fool
Number of samples: 7198296
Duration: 2:43
--------------------------------------------------------------------------------

Left Right

Peak Value: -0.22 dB --- -0.12 dB
Avg RMS: -9.10 dB --- -8.33 dB
DR channel: 7.42 dB --- 6.64 dB
--------------------------------------------------------------------------------

Official DR Value: DR7

Samplerate: 44100 Hz
Channels: 2
Bits per sample: 16
Bitrate: 738 kbps
Codec: FLAC
================================================================================
--------------------------------------------------------------------------------
Analyzed: Jerry Lee Lewis / It's Only Rock & Roll (1)
Johnny Otis / It's Only Rock & Roll (2)
--------------------------------------------------------------------------------

DR Peak RMS Duration Track
--------------------------------------------------------------------------------
DR8 -0.10 dB -9.02 dB 2:48 04-Great Balls of Fire
DR11 -0.10 dB -12.21 dB 2:43 19-Willie and the Hand Jive
--------------------------------------------------------------------------------

Number of tracks: 2
Official DR value: DR9

Samplerate: 44100 Hz
Channels: 2
Bits per sample: 16
Bitrate: 738 kbps
Codec: FLAC
================================================================================

--------------------------------------------------------------------------------
Analyzed: Little Richard / It's Only Rock & Roll
--------------------------------------------------------------------------------

DR Peak RMS Duration Track
--------------------------------------------------------------------------------
DR8 -0.32 dB -9.86 dB 2:26 07-Whole Lotta Shakin' Goin' On
DR7 -0.10 dB -8.54 dB 2:06 15-Good Golly Miss Molly
DR10 -0.10 dB -11.04 dB 2:24 21-Tutti Frutti
--------------------------------------------------------------------------------

Number of tracks: 3
Official DR value: DR8

Samplerate: 44100 Hz
Channels: 2
Bits per sample: 16
Bitrate: 738 kbps
Codec: FLAC
================================================================================

--------------------------------------------------------------------------------
Statistics for: 18-Where Were You (On Our Wedding Day)
Number of samples: 6807864
Duration: 2:34
--------------------------------------------------------------------------------

Left Right

Peak Value: -0.15 dB --- -0.10 dB
Avg RMS: -13.25 dB --- -13.23 dB
DR channel: 11.68 dB --- 11.75 dB
--------------------------------------------------------------------------------

Official DR Value: DR12

Samplerate: 44100 Hz
Channels: 2
Bits per sample: 16
Bitrate: 738 kbps
Codec: FLAC
================================================================================
--------------------------------------------------------------------------------
Statistics for: 17-Louie, Louie
Number of samples: 5850012
Duration: 2:13
--------------------------------------------------------------------------------

Left Right

Peak Value: -0.10 dB --- -0.77 dB
Avg RMS: -12.54 dB --- -14.13 dB
DR channel: 11.25 dB --- 11.90 dB
--------------------------------------------------------------------------------

Official DR Value: DR12

Samplerate: 44100 Hz
Channels: 2
Bits per sample: 16
Bitrate: 738 kbps
Codec: FLAC
================================================================================
--------------------------------------------------------------------------------
Statistics for: 05-Saturday Night at the Movies
Number of samples: 5135004
Duration: 1:56
--------------------------------------------------------------------------------

Left Right

Peak Value: -0.10 dB --- -0.10 dB
Avg RMS: -10.79 dB --- -11.03 dB
DR channel: 8.62 dB --- 9.05 dB
--------------------------------------------------------------------------------

Official DR Value: DR9

Samplerate: 44100 Hz
Channels: 2
Bits per sample: 16
Bitrate: 738 kbps
Codec: FLAC
================================================================================

[CUETools log; Date: 28.07.2015 1:44:09; Version: 2.1.5]
[CTDB TOCID: 6uUkPIeagyla0JkgqV1gMDporWQ-] found.
Track | CTDB Status
1 | (3/3) Accurately ripped
2 | (3/3) Accurately ripped
3 | (3/3) Accurately ripped
4 | (3/3) Accurately ripped
5 | (3/3) Accurately ripped
6 | (3/3) Accurately ripped
7 | (3/3) Accurately ripped
8 | (3/3) Accurately ripped
9 | (3/3) Accurately ripped
10 | (3/3) Accurately ripped
11 | (3/3) Accurately ripped
12 | (3/3) Accurately ripped
13 | (3/3) Accurately ripped
14 | (3/3) Accurately ripped
15 | (3/3) Accurately ripped
16 | (3/3) Accurately ripped
17 | (3/3) Accurately ripped
18 | (3/3) Accurately ripped
19 | (3/3) Accurately ripped
20 | (3/3) Accurately ripped
21 | (3/3) Accurately ripped
22 | (3/3) Accurately ripped
23 | (3/3) Accurately ripped
[AccurateRip ID: 003138bc-03391501-530f4517] found.
Track [ CRC | V2 ] Status
01 [216dee4c|b1bd8a9e] (0+0/2) No match
02 [b9155310|ffc42b95] (0+0/4) No match
03 [b6a1c8c0|1ef99169] (0+0/2) No match
04 [26567941|6231975e] (0+0/4) No match
05 [911a1246|77a2093c] (0+0/4) No match
06 [60e7db1f|903ded1b] (0+0/2) No match
07 [ec316c24|483983bf] (0+0/2) No match
08 [d60e2087|2e9011b3] (0+0/4) No match
09 [94b05853|3ef0e24a] (0+0/4) No match
10 [671526c6|84e35e43] (0+0/4) No match
11 [d366f18c|b45090e1] (0+0/4) No match
12 [37ca58f3|d9e81ba0] (0+0/4) No match
13 [e22583b0|737d917e] (0+0/4) No match
14 [bc8deacd|6f97d7ab] (0+0/4) No match
15 [db98ea47|a7bb93a8] (0+0/2) No match
16 [1f749cab|e9b9eb4e] (0+0/4) No match
17 [185e81de|8d4c14bc] (0+0/2) No match
18 [12b90a77|5692f9fb] (0+0/4) No match
19 [2436695c|a20e760a] (0+0/4) No match
20 [25650a86|58e6d69c] (0+0/4) No match
21 [e8cfaddf|b0cbabf8] (0+0/2) No match
22 [dd73acc4|32e3cac0] (0+0/4) No match
23 [7b0aabb3|cf7daa23] (0+0/4) No match
Offsetted by -2016:
01 [2c2280ec] (0/2) No match (V2 was not tested)
02 [a901fdd0] (0/4) No match (V2 was not tested)
03 [989c7540] (0/2) No match (V2 was not tested)
04 [ff5346e1] (0/4) No match (V2 was not tested)
05 [abd0c346] (0/4) No match (V2 was not tested)
06 [59f497ff] (0/2) No match (V2 was not tested)
07 [8fa26744] (0/2) No match (V2 was not tested)
08 [810d9ae7] (0/4) No match (V2 was not tested)
09 [296ae6b3] (0/4) No match (V2 was not tested)
10 [4e2da386] (0/4) No match (V2 was not tested)
11 [36f8f34c] (0/4) No match (V2 was not tested)
12 [1ac572d3] (0/4) No match (V2 was not tested)
13 [087069f0] (0/4) No match (V2 was not tested)
14 [985881ad] (0/4) No match (V2 was not tested)
15 [c8c91267] (0/2) No match (V2 was not tested)
16 [3a31406b] (0/4) No match (V2 was not tested)
17 [506f219e] (0/2) No match (V2 was not tested)
18 [6c9bc697] (0/4) No match (V2 was not tested)
19 [ead680bc] (0/4) No match (V2 was not tested)
20 [d2e233c6] (0/4) No match (V2 was not tested)
21 [02b1595f] (0/2) No match (V2 was not tested)
22 [02a37ba4] (0/4) No match (V2 was not tested)
23 [54ba9a33] (0/4) No match (V2 was not tested)
Offsetted by -1370:
01 [9e8bb06a] (0/2) No match (V2 was not tested)
02 [9e69b5d4] (2/4) Accurately ripped
03 [a0b50598] (0/2) No match (V2 was not tested)
04 [4949616f] (2/4) Accurately ripped
05 [5f312476] (2/4) Accurately ripped
06 [a9e59769] (0/2) No match (V2 was not tested)
07 [7a7ffa5a] (0/2) No match (V2 was not tested)
08 [719fcdd9] (2/4) Accurately ripped
09 [cdd2ad65] (2/4) Accurately ripped
10 [a9f7d2ea] (2/4) Accurately ripped
11 [3f728ba0] (2/4) Accurately ripped
12 [e146c3ad] (2/4) Accurately ripped
13 [ecad3d1c] (2/4) Accurately ripped
14 [7d5859f7] (2/4) Accurately ripped
15 [dcc81ded] (0/2) No match (V2 was not tested)
16 [e367171f] (2/4) Accurately ripped
17 [31843792] (0/2) No match (V2 was not tested)
18 [37eecddd] (2/4) Accurately ripped
19 [4392711e] (2/4) Accurately ripped
20 [8ed8d382] (2/4) Accurately ripped
21 [381d1987] (0/2) No match (V2 was not tested)
22 [8bcd4e6e] (2/4) Accurately ripped
23 [9ffd66eb] (2/4) Accurately ripped
Offsetted by -654:
01 [f423f026] (0/2) No match (V2 was not tested)
02 [3b7cc45c] (0/4) No match (V2 was not tested)
03 [5f2dc548] (0/2) No match (V2 was not tested)
04 [ad7dd14b] (0/4) No match (V2 was not tested)
05 [5fdcf4d6] (0/4) No match (V2 was not tested)
06 [da145e7d] (0/2) No match (V2 was not tested)
07 [5a5b6846] (0/2) No match (V2 was not tested)
08 [3a7ae8fd] (0/4) No match (V2 was not tested)
09 [aed78809] (0/4) No match (V2 was not tested)
10 [114a0c32] (0/4) No match (V2 was not tested)
11 [ff21bcc8] (0/4) No match (V2 was not tested)
12 [8a9123a1] (0/4) No match (V2 was not tested)
13 [2dce92f4] (0/4) No match (V2 was not tested)
14 [aab67ecb] (0/4) No match (V2 was not tested)
15 [488ad2b9] (0/2) No match (V2 was not tested)
16 [3d766107] (0/4) No match (V2 was not tested)
17 [95fc47fa] (0/2) No match (V2 was not tested)
18 [c3b11229] (0/4) No match (V2 was not tested)
19 [c0137d22] (0/4) No match (V2 was not tested)
20 [38578c7a] (0/4) No match (V2 was not tested)
21 [3ca2cad7] (0/2) No match (V2 was not tested)
22 [f1e57842] (0/4) No match (V2 was not tested)
23 [5022fb5b] (0/4) No match (V2 was not tested)

Track Peak [ CRC32 ] [W/O NULL] [ LOG ]
-- 100,0 [C1FC0126] [94DD3042] CRC32
01 97,7 [5E42AAAF] [FED0FB47]
02 98,8 [802878E3] [5EF28EAD]
03 98,9 [51D98988] [CEDD2803]
04 98,8 [0DBF7906] [BD35C798]
05 98,8 [5FC49772] [1AD71C33]
06 98,8 [4435F0B5] [45780899]
07 96,3 [8FE960A1] [447B12BA]
08 97,6 [79F83DF5] [B678414E]
09 98,6 [572D259D] [39955E6B]
10 98,7 [F8E3C2EF] [7A6860F3]
11 98,8 [0AE12A73] [08B34829]
12 98,8 [284736D7] [91E28F16]
13 98,8 [618C3D1D] [814E4BDE]
14 100,0 [8D58FDAD] [066D4000]
15 98,8 [A3276698] [20F93AF9]
16 98,8 [D5A7634B] [14973EC6]
17 98,8 [33401962] [82FBEA4C]
18 98,8 [0200F6E6] [388E81CE]
19 98,8 [76BE759C] [423A21C5]
20 98,8 [E5C5EE1B] [61515F77]
21 98,8 [42647B0F] [728B7C2C]
22 98,8 [9EE4D5D1] [C1D85DED]
23 98,8 [DF11AA74] [6E1F5435]


All thanks go to Erik



Download:
Uploadable: | |

Hitfile: | |