Shakin' Stevens - The Hits of Shakin' Stevens (1995)


Shakin' Stevens - The Hits of Shakin' Stevens (1995)
EAC | FLAC | Tracks (Cue&Log) ~ 345 Mb (incl 5%) | Mp3 (CBR320) ~ 143 Mb (incl 5%) | Scans included
Genre: Rock & Roll, Rockabilly, Roots Rock | Label: Epic | # EPC 466265 2 | Time: 00:47:38

Hits of Shakin' Stevens is a detailed single disc featuring 16 tracks the rock & roll revivalist recorded for Epic in the '80s. Anyone looking for a comprehensive collection of his best recordings should pick this up as it features the original versions of "This Ole House," "You Drive Me Crazy," "Oh Julie," and the Dave Alvin penned "Marie Marie."

Review by Al Campbell, Allmusic.com







Tracklist:

01. This Ole House (03:05)
02. You Drive Me Crazy (02:45)
03. It's Late (02:03)
04. Green Door (03:10)
05. Teardrops (03:54)
06. Oh Julie (02:31)
07. A Love Worth Waiting For (03:20)
08. I'll Be Satisfied (03:13)
09. Marie Marie (02:45)
10. It's Raining (03:18)
11. Give Me Your Heart Tonight (03:05)
12. Shirley (02:44)
13. Cry Just A Little Bit (03:09)
14. A Rockin' Good Way (To Mess Around And Fall In Love) (Duet with Bonnie Tyler) (02:53)
15. A Letter To You (03:10)
16. Why Do You Treat Me This Way? (02:28)


Exact Audio Copy V1.0 beta 3 from 29. August 2011

Отчёт EAC об извлечении, выполненном 24. июля 2015, 21:05

Shakin' Stevens / The Hits of Shakin' Stevens

Дисковод: ATAPI iHAS124 W Adapter: 2 ID: 0

Режим чтения : Достоверность
Использование точного потока : Да
Отключение кэша аудио : Да
Использование указателей C2 : Нет

Коррекция смещения при чтении : 48
Способность читать области Lead-in и Lead-out : Нет
Заполнение пропущенных сэмплов тишиной : Да
Удаление блоков с тишиной в начале и конце : Нет
При вычислениях CRC использовались нулевые сэмплы : Да
Интерфейс : Встроенный Win32-интерфейс для Win NT/2000
Обработка зазоров : Добавлено к предыдущему треку

Выходной формат : Пользовательский кодировщик
Выбранный битрейт : 128 kBit/s
Качество : Высокий
Добавление ID3-тега : Нет
Утилита сжатия : C:Program FilesExact Audio CopyFlacflac.exe
Дополнительные параметры : -V -8 -T "Genre=%genre%" -T "Artist=%artist%" -T "Title=%title%" -T "Album=%albumtitle%" -T "Date=%year%" -T "Tracknumber=%tracknr%" -T "Comment=%comment%" %source%


TOC извлечённого CD

Трек | Старт | Длительность | Начальный сектор | Конечный сектор
---------------------------------------------------------------------
1 | 0:00.00 | 3:05.45 | 0 | 13919
2 | 3:05.45 | 2:45.60 | 13920 | 26354
3 | 5:51.30 | 2:03.25 | 26355 | 35604
4 | 7:54.55 | 3:10.00 | 35605 | 49854
5 | 11:04.55 | 3:54.37 | 49855 | 67441
6 | 14:59.17 | 2:31.48 | 67442 | 78814
7 | 17:30.65 | 3:20.12 | 78815 | 93826
8 | 20:51.02 | 3:13.05 | 93827 | 108306
9 | 24:04.07 | 2:45.23 | 108307 | 120704
10 | 26:49.30 | 3:18.00 | 120705 | 135554
11 | 30:07.30 | 3:05.27 | 135555 | 149456
12 | 33:12.57 | 2:44.48 | 149457 | 161804
13 | 35:57.30 | 3:09.37 | 161805 | 176016
14 | 39:06.67 | 2:53.25 | 176017 | 189016
15 | 42:00.17 | 3:10.00 | 189017 | 203266
16 | 45:10.17 | 2:28.40 | 203267 | 214406


Трек 1

Имя файла C:EAC1. This Ole House.wav

Длина предзазора 0:00:02.00

Пиковый уровень 96.1 %
Скорость извлечения 1.5 X
Качество трека 99.9 %
CRC теста 71213EC2
CRC копии 71213EC2
Точное извлечение (достоверность 18) [17D88F19] (AR v2)
Копирование... OK

Трек 2

Имя файла C:EAC2. You Drive Me Crazy.wav

Пиковый уровень 97.7 %
Скорость извлечения 1.9 X
Качество трека 100.0 %
CRC теста 655AF1DE
CRC копии 655AF1DE
Точное извлечение (достоверность 18) [4F55C653] (AR v2)
Копирование... OK

Трек 3

Имя файла C:EAC3. It's Late.wav

Пиковый уровень 97.7 %
Скорость извлечения 1.9 X
Качество трека 100.0 %
CRC теста 33312864
CRC копии 33312864
Точное извлечение (достоверность 18) [91E3C2B4] (AR v2)
Копирование... OK

Трек 4

Имя файла C:EAC4. Green Door.wav

Пиковый уровень 97.7 %
Скорость извлечения 2.2 X
Качество трека 100.0 %
CRC теста 489F7496
CRC копии 489F7496
Точное извлечение (достоверность 18) [53D64C59] (AR v2)
Копирование... OK

Трек 5

Имя файла C:EAC5. Teardrops.wav

Пиковый уровень 97.7 %
Скорость извлечения 2.4 X
Качество трека 100.0 %
CRC теста B67A2432
CRC копии B67A2432
Точное извлечение (достоверность 18) [44996A9A] (AR v2)
Копирование... OK

Трек 6

Имя файла C:EAC6. Oh Julie.wav

Длина предзазора 0:00:01.01

Пиковый уровень 97.7 %
Скорость извлечения 2.3 X
Качество трека 100.0 %
CRC теста 8897CA06
CRC копии 8897CA06
Точное извлечение (достоверность 18) [BD225AF2] (AR v2)
Копирование... OK

Трек 7

Имя файла C:EAC7. A Love Worth Waiting For.wav

Пиковый уровень 95.5 %
Скорость извлечения 2.2 X
Качество трека 99.9 %
CRC теста 1F4D90D5
CRC копии 1F4D90D5
Точное извлечение (достоверность 19) [F974E0DB] (AR v2)
Копирование... OK

Трек 8

Имя файла C:EAC8. I'll Be Satisfied.wav

Длина предзазора 0:00:01.00

Пиковый уровень 96.1 %
Скорость извлечения 2.7 X
Качество трека 100.0 %
CRC теста 37324AAC
CRC копии 37324AAC
Точное извлечение (достоверность 18) [8243C695] (AR v2)
Копирование... OK

Трек 9

Имя файла C:EAC9. Marie Marie.wav

Длина предзазора 0:00:01.31

Пиковый уровень 97.7 %
Скорость извлечения 2.3 X
Качество трека 99.9 %
CRC теста 30F41940
CRC копии 30F41940
Точное извлечение (достоверность 18) [4E4DA112] (AR v2)
Копирование... OK

Трек 10

Имя файла C:EAC10. It's Raining.wav

Пиковый уровень 91.5 %
Скорость извлечения 2.9 X
Качество трека 100.0 %
CRC теста C1EC89F3
CRC копии C1EC89F3
Точное извлечение (достоверность 18) [60D78561] (AR v2)
Копирование... OK

Трек 11

Имя файла C:EAC11. Give Me Your Heart Tonight.wav

Пиковый уровень 97.7 %
Скорость извлечения 3.0 X
Качество трека 100.0 %
CRC теста E4F27C9B
CRC копии E4F27C9B
Точное извлечение (достоверность 18) [62A46128] (AR v2)
Копирование... OK

Трек 12

Имя файла C:EAC12. Shirley.wav

Длина предзазора 0:00:00.72

Пиковый уровень 97.7 %
Скорость извлечения 2.5 X
Качество трека 99.9 %
CRC теста 2EEB487E
CRC копии 2EEB487E
Точное извлечение (достоверность 18) [547CDC56] (AR v2)
Копирование... OK

Трек 13

Имя файла C:EAC13. Cry Just A Little Bit.wav

Пиковый уровень 94.7 %
Скорость извлечения 3.1 X
Качество трека 100.0 %
CRC теста 8897D770
CRC копии 8897D770
Точное извлечение (достоверность 19) [1E3B26EB] (AR v2)
Копирование... OK

Трек 14

Имя файла C:EAC14. A Rockin' Good Way (To Mess Around And Fall In Love) (Duet with Bonnie Tyler).wav

Пиковый уровень 92.5 %
Скорость извлечения 3.2 X
Качество трека 100.0 %
CRC теста 24358BC6
CRC копии 24358BC6
Точное извлечение (достоверность 17) [EA904B98] (AR v2)
Копирование... OK

Трек 15

Имя файла C:EAC15. A Letter To You.wav

Пиковый уровень 97.5 %
Скорость извлечения 3.3 X
Качество трека 100.0 %
CRC теста FA07024C
CRC копии FA07024C
Точное извлечение (достоверность 18) [F578C071] (AR v2)
Копирование... OK

Трек 16

Имя файла C:EAC16. Why Do You Treat Me This Way.wav

Пиковый уровень 97.5 %
Скорость извлечения 3.2 X
Качество трека 100.0 %
CRC теста 1928B4CF
CRC копии 1928B4CF
Точное извлечение (достоверность 18) [D4AF9329] (AR v2)
Копирование... OK


Все треки извлечены точно

Ошибок не произошло

Конец отчёта

==== Контрольная сумма отчёта 79CFDEC395B314612BF2A4B76593AC2EB22F22723ECF5EF5BC20C9ECD85E0D47 ====

foobar2000 1.2 / Dynamic Range Meter 1.1.1
log date: 2015-07-29 18:35:13

--------------------------------------------------------------------------------
Analyzed: Shakin' Stevens / The Hits of Shakin' Stevens
--------------------------------------------------------------------------------

DR Peak RMS Duration Track
--------------------------------------------------------------------------------
DR13 -0.34 dB -15.65 dB 3:06 01-This Ole House
DR13 -0.20 dB -16.46 dB 2:46 02-You Drive Me Crazy
DR15 -0.20 dB -17.58 dB 2:03 03-It's Late
DR15 -0.20 dB -18.66 dB 3:10 04-Green Door
DR14 -0.20 dB -17.28 dB 3:54 05-Teardrops
DR15 -0.20 dB -16.71 dB 2:32 06-Oh Julie
DR15 -0.40 dB -17.05 dB 3:20 07-A Love Worth Waiting For
DR15 -0.34 dB -17.95 dB 3:13 08-I'll Be Satisfied
DR15 -0.20 dB -16.28 dB 2:45 09-Marie Marie
DR15 -0.77 dB -18.39 dB 3:18 10-It's Raining
DR14 -0.20 dB -17.04 dB 3:05 11-Give Me Your Heart Tonight
DR15 -0.20 dB -17.10 dB 2:45 12-Shirley
DR15 -0.47 dB -18.80 dB 3:09 13-Cry Just A Little Bit
DR13 -0.67 dB -15.93 dB 2:53 14-A Rockin' Good Way (To Mess Around And Fall In Love) (Duet with Bonnie Tyler)
DR15 -0.22 dB -17.55 dB 3:10 15-A Letter To You
DR15 -0.22 dB -16.86 dB 2:29 16-Why Do You Treat Me This Way?
--------------------------------------------------------------------------------

Number of tracks: 16
Official DR value: DR14

Samplerate: 44100 Hz
Channels: 2
Bits per sample: 16
Bitrate: 870 kbps
Codec: FLAC
================================================================================



All thanks to original releaser - Gera1957



Password: designol