Вход в свой аккаунт

Или войдите через соц. сети

Korn - Live on the Other Side (2008) - Blu-ray


Korn - Live on the Other Side (2008) - Blu-ray
M2TS/MPEG-4 AVC, ~25 Mbps | 1920x1080, 23.976 fps | English | ~ 1.5 hours | 28 Gb
DTS-HD Master Audio, 48KHz, 5481 kbps | LPCM, 48 kHz, 1536 kbps | Dolby Digital Audio, 48 kHz, 640 kbps
Genre: Alternative metal, Nu metal

This Blu-ray contains footage from band's first American show in 2005 that was played at Hammerstein Ballroom in New York City on November 29, 2005. It also includes documentary, backstage videos, and interviews. Released on October 2008.

Songs:
“ 01. Intro
02. Here to Stay
03. Twist
04. Got the Life
05. Liar
06. A.D.I.D.A.S.
07. Coming Undone
08. Dirty
09. Falling Away from Me
10. Twisted Transistor
11. Did My Time
12. Shoots and Ladders
13. One (Metallica cover)
14. Freak on a Leash
15. Another Brick in the Wall (Parts 1, 2 & 3)/Goodbye Cruel World (Pink Floyd cover)
16. Blind
17. Somebody Someone
18. Hypocrites
19. Y'All Want a Single
20. Credits
”

DISC INFO:

Disc Title: Korn - Live on the Other Side - Blu-ray
Disc Size: 30,885,512,388 bytes
Protection: AACS
BD-Java: No
BDInfo: 0.5.8

PLAYLIST REPORT:

Name: 00006.MPLS
Length: 1:20:30.826 (h:m:s.ms)
Size: 21,546,387,456 bytes
Total Bitrate: 35.68 Mbps

VIDEO:

Codec Bitrate Description
----- ------- -----------
MPEG-4 AVC Video 25957 kbps 1080p / 23.976 fps / 16:9 / High Profile 4.1

AUDIO:

Codec Language Bitrate Description
----- -------- ------- -----------
DTS-HD Master Audio English 5481 kbps 5.1 / 48 kHz / 5481 kbps / 24-bit (DTS Core: 5.1 / 48 kHz / 1509 kbps / 24-bit)
Dolby Digital Audio English 640 kbps 5.1 / 48 kHz / 640 kbps
LPCM Audio English 1536 kbps 2.0 / 48 kHz / 1536 kbps / 16-bit

FILES:

Name Time In Length Size Total Bitrate
---- ------- ------ ---- -------------
00012.M2TS 0:00:00.000 1:20:30.826 21,546,387,456 35,681

********************
DISC INFO:

Disc Title: Korn - Live on the Other Side - Blu-ray
Disc Size: 30,885,512,388 bytes
Protection: AACS
BD-Java: No
BDInfo: 0.5.8

PLAYLIST REPORT:

Name: 00025.MPLS
Length: 0:09:43.207 (h:m:s.ms)
Size: 2,570,232,192 bytes
Total Bitrate: 35.26 Mbps

VIDEO:

Codec Bitrate Description
----- ------- -----------
MPEG-4 AVC Video 25596 kbps 1080p / 23.976 fps / 16:9 / High Profile 4.1

AUDIO:

Codec Language Bitrate Description
----- -------- ------- -----------
DTS-HD Master Audio English 5433 kbps 5.1 / 48 kHz / 5433 kbps / 24-bit (DTS Core: 5.1 / 48 kHz / 1509 kbps / 24-bit)
Dolby Digital Audio English 640 kbps 5.1 / 48 kHz / 640 kbps
LPCM Audio English 1536 kbps 2.0 / 48 kHz / 1536 kbps / 16-bit

FILES:

Name Time In Length Size Total Bitrate
---- ------- ------ ---- -------------
00012.M2TS 0:00:00.000 0:09:43.207 2,570,232,192 35,254

********************
DISC INFO:

Disc Title: Korn - Live on the Other Side - Blu-ray
Disc Size: 30,885,512,388 bytes
Protection: AACS
BD-Java: No
BDInfo: 0.5.8

PLAYLIST REPORT:

Name: 00029.MPLS
Length: 0:07:35.246 (h:m:s.ms)
Size: 2,018,477,184 bytes
Total Bitrate: 35.47 Mbps

VIDEO:

Codec Bitrate Description
----- ------- -----------
MPEG-4 AVC Video 25867 kbps 1080p / 23.976 fps / 16:9 / High Profile 4.1

AUDIO:

Codec Language Bitrate Description
----- -------- ------- -----------
DTS-HD Master Audio English 5367 kbps 5.1 / 48 kHz / 5367 kbps / 24-bit (DTS Core: 5.1 / 48 kHz / 1509 kbps / 24-bit)
Dolby Digital Audio English 640 kbps 5.1 / 48 kHz / 640 kbps
LPCM Audio English 1536 kbps 2.0 / 48 kHz / 1536 kbps / 16-bit

FILES:

Name Time In Length Size Total Bitrate
---- ------- ------ ---- -------------
00012.M2TS 0:00:00.000 0:07:35.246 2,018,477,184 35,470

********************
DISC INFO:

Disc Title: Korn - Live on the Other Side - Blu-ray
Disc Size: 30,885,512,388 bytes
Protection: AACS
BD-Java: No
BDInfo: 0.5.8

PLAYLIST REPORT:

Name: 00007.MPLS
Length: 0:06:58.042 (h:m:s.ms)
Size: 1,859,689,344 bytes
Total Bitrate: 35.59 Mbps

VIDEO:

Codec Bitrate Description
----- ------- -----------
MPEG-4 AVC Video 25970 kbps 1080p / 23.976 fps / 16:9 / High Profile 4.1

AUDIO:

Codec Language Bitrate Description
----- -------- ------- -----------
DTS-HD Master Audio English 5377 kbps 5.1 / 48 kHz / 5377 kbps / 24-bit (DTS Core: 5.1 / 48 kHz / 1509 kbps / 24-bit)
Dolby Digital Audio English 640 kbps 5.1 / 48 kHz / 640 kbps
LPCM Audio English 1536 kbps 2.0 / 48 kHz / 1536 kbps / 16-bit

FILES:

Name Time In Length Size Total Bitrate
---- ------- ------ ---- -------------
00012.M2TS 0:00:00.000 0:06:58.042 1,859,689,344 35,585

Screenshots:







http://www.nitroflare.com/view/2096B873D0C7C46/BR.KRNLVONTOTSD.part01.rar
http://www.nitroflare.com/view/CC8F388C5DE67E2/BR.KRNLVONTOTSD.part02.rar
http://www.nitroflare.com/view/8280095741CCDE1/BR.KRNLVONTOTSD.part03.rar
http://www.nitroflare.com/view/12CC9CEBF895462/BR.KRNLVONTOTSD.part04.rar
http://www.nitroflare.com/view/1C026742DDD63E3/BR.KRNLVONTOTSD.part05.rar
http://www.nitroflare.com/view/3DBD866BB54FD9C/BR.KRNLVONTOTSD.part06.rar
http://www.nitroflare.com/view/24004427B66F780/BR.KRNLVONTOTSD.part07.rar
http://www.nitroflare.com/view/5317EF388D04B9F/BR.KRNLVONTOTSD.part08.rar
http://www.nitroflare.com/view/495E464CBF914C1/BR.KRNLVONTOTSD.part09.rar
http://www.nitroflare.com/view/693067CA18A46C7/BR.KRNLVONTOTSD.part10.rar
http://www.nitroflare.com/view/18BC0536B79A623/BR.KRNLVONTOTSD.part11.rar
http://www.nitroflare.com/view/2339FBD85FC8D26/BR.KRNLVONTOTSD.part12.rar
http://www.nitroflare.com/view/A5BC143BC765D73/BR.KRNLVONTOTSD.part13.rar
http://www.nitroflare.com/view/0AC96BA3E22A01C/BR.KRNLVONTOTSD.part14.rar
http://www.nitroflare.com/view/F20ACC53343C488/BR.KRNLVONTOTSD.part15.rar
http://www.nitroflare.com/view/24971A0D824092D/BR.KRNLVONTOTSD.part16.rar
http://www.nitroflare.com/view/28322A243F433E7/BR.KRNLVONTOTSD.part17.rar
http://www.nitroflare.com/view/FE613FDFF15C5EC/BR.KRNLVONTOTSD.part18.rar
http://www.nitroflare.com/view/729D67260D514BE/BR.KRNLVONTOTSD.part19.rar
http://www.nitroflare.com/view/A05F31B99FF5197/BR.KRNLVONTOTSD.part20.rar
http://www.nitroflare.com/view/42DAB8339A30B2B/BR.KRNLVONTOTSD.part21.rar
http://www.nitroflare.com/view/6EEF4160934A130/BR.KRNLVONTOTSD.part22.rar
http://www.nitroflare.com/view/C22F9D40399A189/BR.KRNLVONTOTSD.part23.rar
http://www.nitroflare.com/view/12D2D595F9A22D2/BR.KRNLVONTOTSD.part24.rar
http://www.nitroflare.com/view/8CCA57FEBEC5380/BR.KRNLVONTOTSD.part25.rar
http://www.nitroflare.com/view/1AC97D68C9551AC/BR.KRNLVONTOTSD.part26.rar
http://www.nitroflare.com/view/85F41A4B0F17472/BR.KRNLVONTOTSD.part27.rar
http://www.nitroflare.com/view/8A2AD342085334B/BR.KRNLVONTOTSD.part28.rar
http://www.nitroflare.com/view/813791D37AFB3CF/BR.KRNLVONTOTSD.part29.rar
http://www.nitroflare.com/view/CC5FE05791C14CE/BR.KRNLVONTOTSD.part30.rar
http://www.nitroflare.com/view/83403F4D0BF1532/BR.KRNLVONTOTSD.part31.rar
http://www.nitroflare.com/view/56B0B08F07AEA98/BR.KRNLVONTOTSD.part32.rar
http://www.nitroflare.com/view/DCAC46F21995BDC/BR.KRNLVONTOTSD.part33.rar
http://www.nitroflare.com/view/F789A97D42CA08A/BR.KRNLVONTOTSD.part34.rar
http://www.nitroflare.com/view/28F13753EF434FF/BR.KRNLVONTOTSD.part35.rar
http://www.nitroflare.com/view/17C0DAA835A861D/BR.KRNLVONTOTSD.part36.rar
http://www.nitroflare.com/view/8284A519EC193D3/BR.KRNLVONTOTSD.part37.rar
http://www.nitroflare.com/view/595C41ECEF57EB4/BR.KRNLVONTOTSD.part38.rar
http://www.nitroflare.com/view/B14EEDA6651E33D/BR.KRNLVONTOTSD.part39.rar
http://www.nitroflare.com/view/540E0CC3A2C3B97/BR.KRNLVONTOTSD.part40.rar
http://www.nitroflare.com/view/24855C9CA228FCB/BR.KRNLVONTOTSD.part41.rar
http://www.nitroflare.com/view/DEDC0FB41FB4743/BR.KRNLVONTOTSD.part42.rar
http://www.nitroflare.com/view/575B3557AE5E974/BR.KRNLVONTOTSD.part43.rar
http://www.nitroflare.com/view/BE9923D584B6B29/BR.KRNLVONTOTSD.part44.rar
http://www.nitroflare.com/view/A71C5EF35E31C7A/BR.KRNLVONTOTSD.part45.rar
http://www.nitroflare.com/view/BA8CA61A34D2285/BR.KRNLVONTOTSD.part46.rar
http://www.nitroflare.com/view/611FB73C710A296/BR.KRNLVONTOTSD.part47.rar
http://www.nitroflare.com/view/9A8DC43EBE2CD51/BR.KRNLVONTOTSD.part48.rar
http://www.nitroflare.com/view/0BD4A3836CC8E2E/BR.KRNLVONTOTSD.part49.rar
http://www.nitroflare.com/view/49540DBE4ED5D4D/BR.KRNLVONTOTSD.part50.rar
http://www.nitroflare.com/view/5D6B08EB2AB5216/BR.KRNLVONTOTSD.part51.rar
http://www.nitroflare.com/view/161D13A7D6C99B7/BR.KRNLVONTOTSD.part52.rar
http://www.nitroflare.com/view/B0F88923694FEA0/BR.KRNLVONTOTSD.part53.rar
http://www.nitroflare.com/view/4A3FCD7C0D1520A/BR.KRNLVONTOTSD.part54.rar
http://www.nitroflare.com/view/7BABA5739CE79BD/BR.KRNLVONTOTSD.part55.rar
http://www.nitroflare.com/view/5C80A4FA2533AC4/BR.KRNLVONTOTSD.part56.rar
http://www.nitroflare.com/view/8B941E6A6EB6ABA/BR.KRNLVONTOTSD.part57.rar
http://www.nitroflare.com/view/03DC00852FC1DA1/BR.KRNLVONTOTSD.part58.rar
http://www.nitroflare.com/view/147E8BDA9E11AB4/BR.KRNLVONTOTSD.part59.rar
http://www.nitroflare.com/view/C883EA6C9564D67/BR.KRNLVONTOTSD.part60.rar
http://www.nitroflare.com/view/E890058000A00FD/BR.KRNLVONTOTSD.part61.rar
http://www.nitroflare.com/view/0E3CC9A2BBCC608/BR.KRNLVONTOTSD.part62.rar
http://www.nitroflare.com/view/BFF72A50E29DB7A/BR.KRNLVONTOTSD.part63.rar
http://www.nitroflare.com/view/D5D882D301CCDDA/BR.KRNLVONTOTSD.part64.rar
http://www.nitroflare.com/view/AE37250E6221E6F/BR.KRNLVONTOTSD.part65.rar
http://www.nitroflare.com/view/2C3FCDA31F59D11/BR.KRNLVONTOTSD.part66.rar