Вход в свой аккаунт

Или войдите через соц. сети

Charlie Musselwhite - Sanctuary (2004/2008)


Charlie Musselwhite - Sanctuary (2004/2008)
EAC Rip | FLAC (Img) + Cue + Log ~ 319 Mb | MP3 CBR320 ~ 141 Mb
Scans Included (JPG, 600 dpi) | RAR 5% Recovery
Electric Blues, Delta Blues | Real World Records #USCDRW117 884108 0116 2 1

“ Sanctuary is the twenty third studio album by American singer and harpist Charlie Musselwhite. It was released in 2004 on Peter Gabriel's Real World label, Musselwhite's debut release on this label. The album features two other American artists who have released on Real World: all male vocal gospel group Blind Boys of Alabama, and folk blues guitarist Ben Harper. ~ Wiki

On 1999's Continental Drifter, king harmonicat Charlie Musselwhite began stretching the boundaries of his Delta blues' heart to embrace music that encompassed the emotional and organic range of blues music without adhering to a strict formula. In that case, it was Cuban son; on 2002's One Night in America, it was roots country and Americana. In both cases, the blues were the root and the destination, but by winding in these other sounds, Musselwhite's blues heritage became more, not less organic; it was more deeply rooted in the soul of the Americas at large. On Sanctuary, Musselwhite's reach extends back to the blues from the Mississippi Delta, but his pedigree reveals the blues tradition as the true signifier of all American music, whether that music is grown from the soil itself and projects itself to the ends of the earth, or reflects its image back across the distances to the homeland, or into a mirror. Inside that tradition is the cornerstone, the "sanctuary" for all modern popular music to claim as its root. Issued on Peter Gabriel's Real World label, Musselwhite has assembled a crack band for this outing: Joined by guitarist Charlie Sexton (formerly of the Bob Dylan band), bassist Jared Michael Nickerson (Gary Lucas, Freedy Johnston, Jeff Buckley) and back from the One Night in America sessions, and Michael Jerome on drums (Jerome also played with the Five Blind Boys of Alabama who, along with Ben Harper, guest on the set). Sanctuary opens with Harper's "Homeless Child," and the composer guests on his Weissenborn guitar, ramping it down and laying out the killer slide blues for Musselwhite to wrap and moan his lyrics around and into the void of the night sky. With a skeletal chorus provided by Harper and Sexton, the tune goes from the porch to the stratosphere with only the six-string razor and the vocalist's funky harmonica to frame its flight. Harper also guests on Musselwhite's amazing swamp autobiography with the Blind Boys. The song walks the knife's edge of the sacred and profane; it's a hymn of both acceptance and repentance. There is a wonderful tension here, between the darkness of the narrative and the exuberance of the backing vocals and the shuffling drum kit. The atmospheric edges in Musselwhite's mix, though, are better-evidenced by the tunes he plays with his own band, whether it be in the nasty, guttural blues of his own "My Road Lies in Darkness," or in the spooky, laid-back humidity of Randy Newman's "Let's Burn Down the Cornfield." With a cover of Chris Youlden's "Train to Nowhere" -- a song made popular by Youlden's band at the time, Savoy Brown -- the listener travels through time and space: Savoy Brown was trying hard to capture the feel and spirit of the Delta in their version, as the music of the region traveled north to Chicago. Musselwhite, with the Blind Boys, embrace the feeling and take it right back down the Mississippi River, thereby creating a double. While there are no weak moments on the set, a couple of the other standouts include the band's instrumental "Shadow People," which evokes the dread, mystery, and sexy darkness inherent in the music's grain; a stunningly edgy version of Townes Van Zandt's "Snake Song," and a sweet, low, rumbling, sexy twitch that comes from Eddie Harris' "Alicia." Sexton contributes his own magnificent "The Neighborhood" to this; in the deep, expressive world at the bottom of Musselwhite's voice it becomes a song that opens into the shadow side of the world we inhabit everyday. The album ends with a harp solo on "Route 19 (Attala County, MS)"; the player breathing it through the subtle body channels of marrow, bone, and heart cavity, into history, making an offering to the listener as a gift. Sanctuary sets a standard for authenticity, vision, and inspired excellence. Amen.

~ Thom Jurek, All Music Guide
”

| | |

***************


Track List:

01. Homeless Child [03:00]
02. My Road Lies In Darkness [04:42]
03. Burn Down The Cornfield [03:30]
04. Train To Nowhere [05:14]
05. Shootin' For The Moon [03:16]
06. Shadow People [03:45]
07. Snake Song [03:50]
08. The Neighborhood [05:59]
09. Alicia [04:06]
10. Sanctuary [03:30]
11. I Had Trouble [04:13]
12. Route 19 (Attala County, Mississippi) [01:11]

Exact Audio Copy V1.0 beta 6 from 9. April 2015

EAC extraction logfile from 18. July 2015, 12:15

Charlie Musselwhite / Sanctuary

Used drive : PLEXTOR DVDR PX-891SA Adapter: 0 ID: 2

Read mode : Secure
Utilize accurate stream : Yes
Defeat audio cache : Yes
Make use of C2 pointers : No

Read offset correction : 6
Overread into Lead-In and Lead-Out : No
Fill up missing offset samples with silence : Yes
Delete leading and trailing silent blocks : No
Null samples used in CRC calculations : Yes
Used interface : Installed external ASPI interface

Used output format : User Defined Encoder
Selected bitrate : 320 kBit/s
Quality : High
Add ID3 tag : No
Command line compressor : C:Program FilesExact Audio Copy 1.0 b6Exact Audio CopyFlacflac.exe
Additional command line options : -V -8 -T "Date=%year%" -T "Genre=%genre%" %source%


TOC of the extracted CD

Track | Start | Length | Start sector | End sector
---------------------------------------------------------
1 | 0:00.00 | 2:59.42 | 0 | 13466
2 | 2:59.42 | 4:41.70 | 13467 | 34611
3 | 7:41.37 | 3:29.60 | 34612 | 50346
4 | 11:11.22 | 5:13.48 | 50347 | 73869
5 | 16:24.70 | 3:15.32 | 73870 | 88526
6 | 19:40.27 | 3:44.25 | 88527 | 105351
7 | 23:24.52 | 3:49.35 | 105352 | 122561
8 | 27:14.12 | 5:58.73 | 122562 | 149484
9 | 33:13.10 | 4:05.15 | 149485 | 167874
10 | 37:18.25 | 3:29.10 | 167875 | 183559
11 | 40:47.35 | 4:12.42 | 183560 | 202501
12 | 45:00.02 | 1:10.23 | 202502 | 207774


Range status and errors

Selected range

Filename L:Lossless TempCharlie Musselwhite2004. Charlie Musselwhite - Sanctuary (2004 Real World Records, USCDRW117 884108 0116 2 1, USA)Charlie Musselwhite - Sanctuary.wav

Peak level 99.7 %
Extraction speed 7.7 X
Range quality 100.0 %
Test CRC 5117657C
Copy CRC 5117657C
Copy OK

No errors occurred


AccurateRip summary

Track 1 accurately ripped (confidence 2) [4004CD78] (AR v2)
Track 2 accurately ripped (confidence 2) [69C6FB58] (AR v2)
Track 3 accurately ripped (confidence 2) [59180210] (AR v2)
Track 4 accurately ripped (confidence 2) [48D40F34] (AR v2)
Track 5 accurately ripped (confidence 2) [EEB6DE36] (AR v2)
Track 6 accurately ripped (confidence 2) [BA8EB0EF] (AR v2)
Track 7 accurately ripped (confidence 2) [CFA74842] (AR v2)
Track 8 accurately ripped (confidence 2) [D93838AA] (AR v2)
Track 9 accurately ripped (confidence 2) [70BB4772] (AR v2)
Track 10 accurately ripped (confidence 2) [8C24498C] (AR v2)
Track 11 accurately ripped (confidence 2) [676E3BFB] (AR v2)
Track 12 accurately ripped (confidence 2) [FB82BE35] (AR v2)

All tracks accurately ripped

End of status report

==== Log checksum 41462ABB18B429CAC15B7AF85D663B884FCC2F2B4F27A25DC45378F78B37E932 ====

foobar2000 1.2.6 / Dynamic Range Meter 1.1.1
log date: 2015-08-07 03:55:11

--------------------------------------------------------------------------------
Analyzed: Charlie Musselwhite / Sanctuary
--------------------------------------------------------------------------------

DR Peak RMS Duration Track
--------------------------------------------------------------------------------
DR8 -0.92 dB -10.61 dB 3:00 01-Homeless Child
DR7 -0.22 dB -9.19 dB 4:42 02-My Road Lies In Darkness
DR7 -0.11 dB -9.23 dB 3:30 03-Burn Down The Cornfield
DR6 -0.25 dB -8.22 dB 5:14 04-Train To Nowhere
DR7 -0.02 dB -8.74 dB 3:15 05-Shootin' For The Moon
DR7 -0.15 dB -9.13 dB 3:44 06-Shadow People
DR7 -0.07 dB -8.36 dB 3:49 07-Snake Song
DR7 -0.31 dB -9.89 dB 5:59 08-The Neighborhood
DR8 -0.44 dB -10.78 dB 4:05 09-Alicia
DR7 -0.02 dB -8.88 dB 3:29 10-Sanctuary
DR6 -0.02 dB -7.68 dB 4:13 11-I Had Trouble
DR8 -4.50 dB -15.02 dB 1:10 12-Route 19 (Attala County, Mississippi)
--------------------------------------------------------------------------------

Number of tracks: 12
Official DR value: DR7

Samplerate: 44100 Hz
Channels: 2
Bits per sample: 16
Bitrate: 831 kbps
Codec: FLAC
================================================================================

[CUETools log; Date: 07.08.2015 3:55:04; Version: 2.1.5]
[CTDB TOCID: 17umHFR5mepYtf3njeV_6_QuIQE-] found.
Track | CTDB Status
1 | ( 8/10) Accurately ripped
2 | ( 8/10) Accurately ripped
3 | ( 8/10) Accurately ripped
4 | ( 8/10) Accurately ripped
5 | ( 8/10) Accurately ripped
6 | ( 8/10) Accurately ripped
7 | ( 8/10) Accurately ripped
8 | ( 8/10) Accurately ripped
9 | ( 8/10) Accurately ripped
10 | ( 8/10) Accurately ripped
11 | ( 8/10) Accurately ripped
12 | ( 8/10) Accurately ripped
[AccurateRip ID: 00155c7e-00c8458d-a50ad20c] found.
Track [ CRC | V2 ] Status
01 [5f097b51|4004cd78] (4+2/8) Accurately ripped
02 [0609f702|69c6fb58] (4+2/8) Accurately ripped
03 [003e594d|59180210] (4+2/8) Accurately ripped
04 [22d5e62b|48d40f34] (4+2/8) Accurately ripped
05 [af11019a|eeb6de36] (4+2/8) Accurately ripped
06 [13571df6|ba8eb0ef] (4+2/8) Accurately ripped
07 [48727c16|cfa74842] (4+2/8) Accurately ripped
08 [b00d4696|d93838aa] (4+2/8) Accurately ripped
09 [543d802c|70bb4772] (4+2/8) Accurately ripped
10 [4332340d|8c24498c] (4+2/8) Accurately ripped
11 [e57a8f0a|676e3bfb] (4+2/8) Accurately ripped
12 [7a0e3ba8|fb82be35] (4+2/8) Accurately ripped
Offsetted by 16:
01 [1730da16] (0/8) No match (V2 was not tested)
02 [7218249d] (0/8) No match (V2 was not tested)
03 [7926cdd7] (0/8) No match (V2 was not tested)
04 [fb191b45] (0/8) No match (V2 was not tested)
05 [91a539c0] (0/8) No match (V2 was not tested)
06 [73e2370a] (0/8) No match (V2 was not tested)
07 [233cda08] (0/8) No match (V2 was not tested)
08 [37732354] (0/8) No match (V2 was not tested)
09 [ad19a981] (0/8) No match (V2 was not tested)
10 [edababc7] (0/8) No match (V2 was not tested)
11 [99c41ad9] (0/8) No match (V2 was not tested)
12 [293814b2] (0/8) No match (V2 was not tested)

Track Peak [ CRC32 ] [W/O NULL] [ LOG ]
-- 99,7 [5117657C] [4CCACFBA] CRC32
01 89,9 [D2E67F20] [959A6EF3]
02 97,5 [C5921EA1] [B7183C92]
03 98,7 [CA7ABFDD] [B606E044]
04 97,2 [5B4A486D] [925C61DF]
05 99,7 [C130AF57] [6A5126D7]
06 98,2 [C5313E69] [907EB45B]
07 99,1 [CF8D6B64] [B8B901AC]
08 96,5 [EC9946AA] [6774C8C1]
09 95,0 [57FACFCC] [D491CC50]
10 99,7 [F92751CB] [DC23DFF0]
11 99,7 [6A6B42D1] [32AFC326]
12 59,5 [C3176003] [69EBD63E]


All thanks go to Swamp Fox



Download:
Uploadable: | |

Hitfile: | |