Вход в свой аккаунт

Или войдите через соц. сети

Diane Schuur - Diane Schuur & the Count Basie Orchestra (1987) (RePost)


Diane Schuur - Diane Schuur & the Count Basie Orchestra (1987)
EAC: flac (tracks) + cue + log | RAR, 3 %, 261,13 MB
mp3, 320 kbps | RAR, 3 %, 107,57 MB | Scans | RAR, 3 %, 10,12 MB
Label: GRP Records | Cat в„–: GRP 95502

Diane Schuur's fourth album for GRP and her first with the Count basie Orchestra.

EAC extraction logfile from 1. April 2007, 20:24 for CD
Diane Schuur / Diane Schuur & The Count Basie Orchestra

Used drive : HL-DT-STDVDRAM GSA-4167B Adapter: 1 ID: 0
Read mode : Secure with NO C2, accurate stream, NO disable cache
Read offset correction : 667
Overread into Lead-In and Lead-Out : No

Used output format : C:ProgrammiExact Audio Copyflac-1.1.4-winbinflac.exe (User Defined Encoder)
320 kBit/s
Additional command line options : -8 -V -T "artist=%a" -T "title=%t" -T "album=%g" -T "date=%y" -T "tracknumber=%n" -T "genre=%m" %s
Use compression offset : 0

Other options :
Fill up missing offset samples with silence : Yes
Delete leading and trailing silent blocks : No
Native Win32 interface for Win NT & 2000


Track 1
Filename C:Documents and SettingsutenteArchivio downloadsaudioDiane Schuur and the Count Basie Orchestra [FLAC]1-Deedle's Blues.wav

Pre-gap length 0:00:02.32

Peak level 94.2 %
Track quality 100.0 %
Test CRC 496BC658
Copy CRC 496BC658
Copy OK

Track 2
Filename C:Documents and SettingsutenteArchivio downloadsaudioDiane Schuur and the Count Basie Orchestra [FLAC]2-Caught a Touch of Your Love.wav

Peak level 94.0 %
Track quality 100.0 %
Test CRC 58AA174A
Copy CRC 58AA174A
Copy OK

Track 3
Filename C:Documents and SettingsutenteArchivio downloadsaudioDiane Schuur and the Count Basie Orchestra [FLAC]3-Travelin' Light.wav

Peak level 92.8 %
Track quality 100.0 %
Test CRC 13E66E63
Copy CRC 13E66E63
Copy OK

Track 4
Filename C:Documents and SettingsutenteArchivio downloadsaudioDiane Schuur and the Count Basie Orchestra [FLAC]4-I Just Found Out About Love.wav

Peak level 82.2 %
Track quality 100.0 %
Test CRC F2F26EB9
Copy CRC F2F26EB9
Copy OK

Track 5
Filename C:Documents and SettingsutenteArchivio downloadsaudioDiane Schuur and the Count Basie Orchestra [FLAC]5-Travelin' Blues.wav

Peak level 96.8 %
Track quality 100.0 %
Test CRC 14F6D2B9
Copy CRC 14F6D2B9
Copy OK

Track 6
Filename C:Documents and SettingsutenteArchivio downloadsaudioDiane Schuur and the Count Basie Orchestra [FLAC]6-I Loves You Porgy.wav

Peak level 79.5 %
Track quality 99.9 %
Test CRC 716C672C
Copy CRC 716C672C
Copy OK

Track 7
Filename C:Documents and SettingsutenteArchivio downloadsaudioDiane Schuur and the Count Basie Orchestra [FLAC]7-You Can Have It.wav

Peak level 94.9 %
Track quality 99.9 %
Test CRC C5B2CC69
Copy CRC C5B2CC69
Copy OK

Track 8
Filename C:Documents and SettingsutenteArchivio downloadsaudioDiane Schuur and the Count Basie Orchestra [FLAC]8-Only You.wav

Peak level 98.4 %
Track quality 100.0 %
Test CRC 87BC2C13
Copy CRC 87BC2C13
Copy OK

Track 9
Filename C:Documents and SettingsutenteArchivio downloadsaudioDiane Schuur and the Count Basie Orchestra [FLAC]9-Everyday.wav

Peak level 94.9 %
Track quality 100.0 %
Test CRC 59559E05
Copy CRC 59559E05
Copy OK

Track 10
Filename C:Documents and SettingsutenteArchivio downloadsaudioDiane Schuur and the Count Basie Orchestra [FLAC]10-We'll Be Together Again.wav

Peak level 93.3 %
Track quality 99.9 %
Test CRC 66B62B0A
Copy CRC 66B62B0A
Copy OK

Track 11
Filename C:Documents and SettingsutenteArchivio downloadsaudioDiane Schuur and the Count Basie Orchestra [FLAC]11-Until I Met You.wav

Peak level 94.9 %
Track quality 100.0 %
Test CRC 9B916FFC
Copy CRC 9B916FFC
Copy OK

Track 12
Filename C:Documents and SettingsutenteArchivio downloadsaudioDiane Schuur and the Count Basie Orchestra [FLAC]12-Climbing Higher Mountains.wav

Peak level 88.4 %
Track quality 99.9 %
Test CRC F42C8939
Copy CRC F42C8939
Copy OK

No errors occured


End of status report

Tracklist:
01. Deedles' Blues [03:29]
02. Caught A Touch of Your Love [03:15]
03. Travelin' Light [04:23]
04. I Just Found Out About Love [02:47]
05. Travelin' Blues [04:05]
06. I Loves You Porgy [03:09]
07. You Can Have It [03:26]
08. Only You [04:45]
09. Everyday [03:10]
10. We'll Be Together Again [04:06]
11. Until I Met You [02:53]
12. Climbing Higher Mountains [02:32]
--------------------
Total Time: [41:59]

No mirrors, please!
Don't post these links at any web pages, please. Keep these files alive!
Not my rip! All Thanks to original ripper!



Welcome to !


NitroFlare: http://www.nitroflare.com/view/956DDCF4BCD2D66/DSATCBO_f.part1.rar http://www.nitroflare.com/view/85833B0C71E68A5/DSATCBO_f.part2.rar http://www.nitroflare.com/view/5D4B5A47FEBE7B7/DSATCBO_m.rar http://www.nitroflare.com/view/EF4CCB0A1CEAEA7/DSATCBO_s.rar
pass: kermith