Andy Williams - Greatest Hits Vol. 2 (1973)


Andy Williams - Greatest Hits Vol. 2 (1973)
EAC Rip | FLAC (Img) + Cue + Log ~ 213 Mb | MP3 CBR320 ~ 91 Mb
Scans Included (JPG, 400 dpi) | RAR 5% Recovery
Pop | Columbia #CK 32384/DIDP 071347

Following the first Andy Williams greatest-hits album on Columbia by only three years (available in a three-for-one with Vol. 2 and Love Story), Vol. 2 focused primarily on Williams singles of the early 1970s, among them the easy listening chart Top Tens "Home Lovin' Man," "(Where Do I Begin) Love Story," and "Love Theme from 'The Godfather' (Speak Softly Love)." There were also a couple of big easy listening hits from the '60s that had been left off the first volume, "Music to Watch Girls By" and "In The Arms of Love," as well as re-recordings of two of the singer's 1950s hits, "The Village of St. Bernadette" and "Lonely Street." The result was hardly adequate as a survey of Williams's best early '70s work, but it was a typical compilation of its time.

~ William Ruhlmann, All Music Guide

| |

***************


Track List:

01. (Where Do I Begin) Love Story [03:15]
02. MacArthur Park [05:07]
03. Music From Across The Way [03:46]
04. The Village of St. Bernadette [03:24]
05. Music to Watch Girls By [02:38]
06. Love Theme From The Godfather [03:04]
07. In the Arms of Love [02:59]
08. The Impossible Dream [02:38]
09. Lonely Street [02:48]
10. Home Lovin' Man [03:22]
11. A Song for You [03:09]

Exact Audio Copy V0.99 prebeta 5 from 4. May 2009

Отчёт EAC об извлечении, выполненном 13. ноября 2012, 21:00

Andy Williams / Greatest Hits Vol 2

Дисковод: Optiarc DVD RW AD-7240S Adapter: 2 ID: 0

Режим чтения : Достоверность
Использование точного потока : Да
Отключение кэша аудио : Да
Использование указателей C2 : Нет

Коррекция смещения при чтении : 48
Способность читать области Lead-in и Lead-out : Нет
Заполнение пропущенных сэмплов тишиной : Да
Удаление блоков с тишиной в начале и конце : Нет
При вычислениях CRC использовались нулевые сэмплы : Да
Интерфейс : Встроенный Win32-интерфейс для Win NT/2000

Выходной формат : Пользовательский кодировщик
Выбранный битрейт : 1024 kBit/s
Качество : Высокий
Добавление ID3-тэга : Да
Утилита сжатия : C:Program FilesExact Audio CopyFlacflac.exe
Дополнительные параметры : --best -V -T "date=%y" -T "genre=%m" %s


TOC извлечённого CD

Трек | Старт | Длительность | Начальный сектор | Конечный сектор
---------------------------------------------------------------------
1 | 0:00.00 | 3:14.25 | 0 | 14574
2 | 3:14.25 | 5:06.05 | 14575 | 37529
3 | 8:20.30 | 3:45.42 | 37530 | 54446
4 | 12:05.72 | 3:23.15 | 54447 | 69686
5 | 15:29.12 | 2:37.53 | 69687 | 81514
6 | 18:06.65 | 3:03.62 | 81515 | 95301
7 | 21:10.52 | 2:58.03 | 95302 | 108654
8 | 24:08.55 | 2:37.10 | 108655 | 120439
9 | 26:45.65 | 2:47.27 | 120440 | 132991
10 | 29:33.17 | 3:21.13 | 132992 | 148079
11 | 32:54.30 | 3:08.17 | 148080 | 162196


Характеристики диапазона извлечения и сообщения об ошибках

Выбранный диапазон

Имя файла E:ПАПИКMUSICANDY WILLIAMS - GREATEST HITS VOLUME 2Andy Williams - Greatest Hits Vol 2.wav

Пиковый уровень 100.0 %
Качество диапазона 100.0 %
CRC теста F6197A64
CRC копии F6197A64
Копирование... OK

Ошибок не произошло


AccurateRip: сводка

Трек 1 точность не определена (достоверность 2) [BE4FEB56], AccurateRip вернул [41DB0C62]
Трек 2 точность не определена (достоверность 2) [A999618F], AccurateRip вернул [922DAC9F]
Трек 3 точность не определена (достоверность 2) [B63572B3], AccurateRip вернул [59235036]
Трек 4 точность не определена (достоверность 2) [E5D83990], AccurateRip вернул [1A945AA3]
Трек 5 точность не определена (достоверность 2) [C55F4946], AccurateRip вернул [BDC49251]
Трек 6 точность не определена (достоверность 2) [6D001B99], AccurateRip вернул [59028500]
Трек 7 точность не определена (достоверность 2) [A8DA000F], AccurateRip вернул [4F44535E]
Трек 8 точность не определена (достоверность 2) [4B0D4932], AccurateRip вернул [17A39C3D]
Трек 9 точность не определена (достоверность 2) [82472C03], AccurateRip вернул [A7F0CFA9]
Трек 10 точность не определена (достоверность 2) [4A88F554], AccurateRip вернул [A13D3B6F]
Трек 11 точность не определена (достоверность 2) [864FEA39], AccurateRip вернул [EC5AA35C]

Ни один трек не прошёл проверки на точность
В вашей базе может быть иной вариант штамповки диска

Конец отчёта

foobar2000 1.2.6 / Dynamic Range Meter 1.1.1
log date: 2015-08-12 18:24:39

--------------------------------------------------------------------------------
Analyzed: Andy Williams / Greatest Hits Vol 2
--------------------------------------------------------------------------------

DR Peak RMS Duration Track
--------------------------------------------------------------------------------
DR10 -2.76 dB -14.96 dB 3:14 01-(Where Do I Begin) Love Story
DR11 0.00 dB -15.06 dB 5:06 02-MacArthur Park
DR9 -1.62 dB -14.35 dB 3:46 03-Music From Across The Way
DR9 -4.10 dB -16.79 dB 3:23 04-The Village of St. Bernadette
DR10 -1.22 dB -14.45 dB 2:38 05-Music to Watch Girls By
DR11 -3.35 dB -16.99 dB 3:04 06-Love Theme From The Godfather
DR9 -5.80 dB -17.02 dB 2:58 07-In the Arms of Love
DR9 -2.28 dB -15.89 dB 2:37 08-The Impossible Dream
DR10 -3.51 dB -16.55 dB 2:47 09-Lonely Street
DR10 -2.35 dB -14.84 dB 3:21 10-Home Lovin' Man
DR11 -1.74 dB -16.07 dB 3:08 11-A Song for You
--------------------------------------------------------------------------------

Number of tracks: 11
Official DR value: DR10

Samplerate: 44100 Hz
Channels: 2
Bits per sample: 16
Bitrate: 770 kbps
Codec: FLAC
================================================================================

[CUETools log; Date: 12.08.2015 18:24:32; Version: 2.1.5]
[CTDB TOCID: 79OY16XxxSNjB5c2dhh4S8RoTUM-] found.
Track | CTDB Status
1 | (1/1) Accurately ripped
2 | (1/1) Accurately ripped
3 | (1/1) Accurately ripped
4 | (1/1) Accurately ripped
5 | (1/1) Accurately ripped
6 | (1/1) Accurately ripped
7 | (1/1) Accurately ripped
8 | (1/1) Accurately ripped
9 | (1/1) Accurately ripped
10 | (1/1) Accurately ripped
11 | (1/1) Accurately ripped
[AccurateRip ID: 000fa58c-00851864-9608720b] found.
Track [ CRC | V2 ] Status
01 [be4feb56|0ebd26e5] (0+0/4) No match
02 [a999618f|0b8dfe21] (0+0/2) No match
03 [b63572b3|1f792156] (0+0/4) No match
04 [e5d83990|00edd887] (0+0/2) No match
05 [c55f4946|182b316a] (0+0/2) No match
06 [6d001b99|e8bbd37d] (0+0/4) No match
07 [a8da000f|c5d6e941] (0+0/2) No match
08 [4b0d4932|b27b9cb4] (0+0/2) No match
09 [82472c03|1fd99550] (0+0/2) No match
10 [4a88f554|7a922cc9] (0+0/2) No match
11 [864fea39|84a27db2] (0+0/2) No match
Offsetted by 947:
01 [41db0c62] (2/4) Accurately ripped
02 [922dac9f] (2/2) Accurately ripped
03 [59235036] (2/4) Accurately ripped
04 [1a945aa3] (2/2) Accurately ripped
05 [bdc49251] (2/2) Accurately ripped
06 [59028500] (2/4) Accurately ripped
07 [4f44535e] (2/2) Accurately ripped
08 [17a39c3d] (2/2) Accurately ripped
09 [a7f0cfa9] (2/2) Accurately ripped
10 [a13d3b6f] (2/2) Accurately ripped
11 [ec5aa35c] (2/2) Accurately ripped

Track Peak [ CRC32 ] [W/O NULL] [ LOG ]
-- 100,0 [F6197A64] [75150832] CRC32
01 72,7 [BBE4324F] [E227D98E]
02 100,0 [CDB48259] [BBE24710]
03 83,0 [CA2BC21C] [4DB7AB99]
04 62,3 [74ECA43E] [35D2A1FF]
05 86,8 [FD143D6A] [14ED82DC]
06 67,9 [73C3D85A] [5A031E36]
07 51,2 [5D0DED59] [CB31F06F]
08 76,9 [7D9AE088] [6B08666E]
09 66,7 [F0BD7965] [EE9E1884]
10 76,2 [3F049E72] [254CE6CC]
11 81,8 [576571FB] [3CC27448]


All thanks go to kukurich



Download:
Uploadable: |

Hitfile: |