Вход в свой аккаунт

Или войдите через соц. сети

Blondie - The Best Of Blondie (1981) US First Pressing


Blondie - The Best Of Blondie (1981) US First Pressing
EAC Secure Rip | FLAC (Image + Cue + Log) - 295 MB | Complete Scans (Jpeg 600 dpi) - 57.8 MB | MP3 (CBR320 Kbps) - 113 MB
New Wave, Punk Rock | Chrysalis Records | F221337/DIDX 71 | 44:11 minutes | Hosted on: NitroFlare

The Best of Blondie is the first compilation album by the band Blondie.

Blondie's producer Mike Chapman remixed four tracks specially for this album. "Heart of Glass (Special Mix)" is a version that combines elements from the original album version (also 7" single mix in the UK) and the instrumental version. "In the Flesh (Special Mix)" is a Phil Spector-esque mix, with lots of echo. "Sunday Girl (Special Mix)" mixes vocals from the previously released French language version of the song with the original English version. "Rapture (Special Mix)" is an edited version of the 12" Disco Mix released in the UK and Europe and includes an extra verse that did not appear on the album Autoamerican on which the song was originally issued.

“ Although Blondie made several first-rate albums, most of their best songs were released as singles, which makes The Best of Blondie an essential collection. The Best of Blondie glosses over their punk roots -- very little from the first album, apart from the vicious "Rip Her to Shreds" and the seductive "In the Flesh" -- but the band's pop hits are among the finest of their era and encapsulate all of the virtues of new wave. Apart from genuine chart hits like "Heart of Glass," "One Way or Another," "Dreaming," "Call Me," "Atomic," "The Tide Is High," and "Rapture," Best of Blondie picks up several of the group's best album tracks, like "(I'm Always Touched by Your) Presence, Dear" and "Hanging on the Telephone." The Best of Blondie isn't all you need to know, but it is an excellent introduction to one of the best new wave bands. Reviewed by Stephen Thomas Erlewine of allmusic.com ”


Exact Audio Copy V1.0 beta 2 from 29. April 2011

EAC extraction logfile from 15. September 2014, 23:28

Blondie / The Best Of Blondie

Used drive : HL-DT-STBD-RE BH14NS40 Adapter: 0 ID: 2

Read mode : Secure
Utilize accurate stream : Yes
Defeat audio cache : Yes
Make use of C2 pointers : No

Read offset correction : 6
Overread into Lead-In and Lead-Out : No
Fill up missing offset samples with silence : Yes
Delete leading and trailing silent blocks : No
Null samples used in CRC calculations : Yes
Used interface : Native Win32 interface for Win NT & 2000

Used output format : User Defined Encoder
Selected bitrate : 1024 kBit/s
Quality : High
Add ID3 tag : No
Command line compressor : C:Program Files (x86)Exact Audio CopyFlacflac.exe
Additional command line options : -V -5 -T "artist=%albumartist%" -T "title=%title%" -T "album=%albumtitle%" -T "date=%year%" -T "genre=%genre%" -T "tracknumber=%tracknr%" %source%


TOC of the extracted CD

Track | Start | Length | Start sector | End sector
---------------------------------------------------------
1 | 0:00.00 | 4:35.55 | 0 | 20679
2 | 4:35.55 | 3:08.10 | 20680 | 34789
3 | 7:43.65 | 4:42.10 | 34790 | 55949
4 | 12:26.00 | 2:32.10 | 55950 | 67359
5 | 14:58.10 | 3:05.05 | 67360 | 81239
6 | 18:03.15 | 2:33.05 | 81240 | 92719
7 | 20:36.20 | 5:36.70 | 92720 | 117989
8 | 26:13.15 | 3:36.30 | 117990 | 134219
9 | 29:49.45 | 2:42.65 | 134220 | 146434
10 | 32:32.35 | 3:32.67 | 146435 | 162401
11 | 36:05.27 | 4:42.18 | 162402 | 183569
12 | 40:47.45 | 3:22.70 | 183570 | 198789


Range status and errors

Selected range

Filename C:EACBlondie - (1981) The Best Of Blondie [1984 Chrysalis Remaster]Blondie - The Best Of Blondie.wav

Peak level 100.0 %
Extraction speed 4.2 X
Range quality 100.0 %
Test CRC E79E3B0D
Copy CRC E79E3B0D
Copy OK

No errors occurred


AccurateRip summary

Track 1 accurately ripped (confidence 10) [AA7CD861] (AR v2)
Track 2 accurately ripped (confidence 10) [CCB37C3D] (AR v2)
Track 3 accurately ripped (confidence 11) [8E7B24CE] (AR v2)
Track 4 accurately ripped (confidence 10) [65E5F9CA] (AR v2)
Track 5 accurately ripped (confidence 11) [0611C0C5] (AR v2)
Track 6 accurately ripped (confidence 10) [3BF1E2D6] (AR v2)
Track 7 accurately ripped (confidence 11) [4A624A95] (AR v2)
Track 8 accurately ripped (confidence 11) [4FAA48E1] (AR v2)
Track 9 accurately ripped (confidence 11) [46D749D3] (AR v2)
Track 10 accurately ripped (confidence 11) [B7504F3D] (AR v2)
Track 11 accurately ripped (confidence 11) [02F86E02] (AR v2)
Track 12 accurately ripped (confidence 11) [09166FCC] (AR v2)

All tracks accurately ripped

End of status report

==== Log checksum 11EFCB666A681ED3A10AAB744BA4282A3027A33D6CDAD05A9BBDD2298DE4C05E ====



Track Listing:

01. Heart Of Glass
02. Dreaming
03. The Tide Is High
04. In The Flesh
05. Sunday Girl
06. Hanging On The Telephone
07. Rapture
08. One Way Or Another
09. (I'm Always Touched By Your) Presence Dear
10. Call Me (Theme From American Gigolo)
11. Atomic
12. Rip Her To Shreds


Album Released: October 31, 1981


foobar2000 1.3.2 / Dynamic Range Meter 1.1.0
log date: 2015-08-10 01:38:09

--------------------------------------------------------------------------------
Analyzed: Blondie / The Best Of Blondie
--------------------------------------------------------------------------------

DR Peak RMS Duration Track
--------------------------------------------------------------------------------
DR15 -0.39 dB -17.38 dB 4:36 01-Heart Of Glass
DR13 -2.25 dB -17.31 dB 3:08 02-Dreaming
DR15 -0.01 dB -17.18 dB 4:42 03-The Tide Is High
DR12 -1.94 dB -17.12 dB 2:32 04-In The Flesh
DR13 -1.44 dB -16.69 dB 3:05 05-Sunday Girl
DR12 -2.64 dB -17.03 dB 2:33 06-Hanging On The Telephone
DR15 0.00 dB -16.81 dB 5:37 07-Rapture
DR13 -1.72 dB -16.52 dB 3:36 08-One Way Or Another
DR13 -2.25 dB -17.46 dB 2:43 09-(I'm Always Touched By Your) Presence Dear
DR13 -2.58 dB -17.50 dB 3:33 10-Call Me (Theme From American Gigolo)
DR11 -3.74 dB -18.10 dB 4:42 11-Atomic
DR14 -2.24 dB -18.46 dB 3:23 12-Rip Her To Shreds
--------------------------------------------------------------------------------

Number of tracks: 12
Official DR value: DR13

Samplerate: 44100 Hz
Channels: 2
Bits per sample: 16
Bitrate: 887 kbps
Codec: FLAC
================================================================================


5% WinRar Recovery
If you experience any problems or broken links, PLEASE SEND PM to flac jacket.