VA - Stereoplay: Die besten Hörtest-Aufnahmen aus 30 Jahren (2008, Stereoplay Magazine Promo)


VA - Stereoplay: Die besten Hörtest-Aufnahmen aus 30 Jahren
VA - Stereoplay: The best test-recordings of 30 years
EAC+LOG+CUE | FLAC: 218 MB | Full Artwork: 16 MB | 5% Recovery Info
Label/Cat#: Stereoplay Magazine Promo | Country/Year: Germany 2008
Genre: Rock, Pop, Jazz, Classical | Style: Test, Technical

MD5 [X] CUE [X] LOG [X] INFO TEXT [X] ARTWORK [X]

my rip [X] not my rip [ ]



Exact Audio Copy V1.0 beta 3 from 29. August 2011

EAC extraction logfile from 19. September 2013, 9:06

Various Artists / Stereoplay: Die besten Hörtest-Aufnahmen aus 30 Jahren

Used drive : PLEXTOR CD-R PX-W1210A Adapter: 1 ID: 0

Read mode : Secure
Utilize accurate stream : Yes
Defeat audio cache : Yes
Make use of C2 pointers : No

Read offset correction : 99
Overread into Lead-In and Lead-Out : No
Fill up missing offset samples with silence : Yes
Delete leading and trailing silent blocks : No
Null samples used in CRC calculations : Yes
Used interface : Native Win32 interface for Win NT & 2000

Used output format : User Defined Encoder
Selected bitrate : 1024 kBit/s
Quality : High
Add ID3 tag : Yes
Command line compressor : C:Program FilesFLACflac.exe
Additional command line options : -5 -T "Artist=%artist%" -T "Title=%title%" -T "Album=%albumtitle%" -T "Date=%year%" -T "Tracknumber=%tracknr%" -T "Genre=%genre%" %source% -o %dest%


TOC of the extracted CD

Track | Start | Length | Start sector | End sector
---------------------------------------------------------
1 | 0:00.00 | 8:06.00 | 0 | 36449
2 | 8:06.00 | 5:03.45 | 36450 | 59219
3 | 13:09.45 | 5:03.00 | 59220 | 81944
4 | 18:12.45 | 5:04.00 | 81945 | 104744
5 | 23:16.45 | 4:20.00 | 104745 | 124244
6 | 27:36.45 | 5:04.00 | 124245 | 147044
7 | 32:40.45 | 10:33.00 | 147045 | 194519
8 | 43:13.45 | 0:19.00 | 194520 | 195944
9 | 43:32.45 | 0:19.00 | 195945 | 197369
10 | 43:51.45 | 0:43.30 | 197370 | 200624


Range status and errors

Selected range

Filename F:=== VINYL RIPS ====== EAC===X FRESH RIPVA - Stereoplay- Die besten Hörtest-Aufnahmen aus 30 Jahren.wav

Peak level 96.6 %
Extraction speed 3.5 X
Range quality 100.0 %
Test CRC 51855558
Copy CRC 51855558
Copy OK

No errors occurred


AccurateRip summary

Track 1 accurately ripped (confidence 50) [5BAD0E2D] (AR v2)
Track 2 accurately ripped (confidence 56) [A539CF45] (AR v2)
Track 3 accurately ripped (confidence 56) [3E87B6D9] (AR v2)
Track 4 accurately ripped (confidence 56) [B145BFC1] (AR v2)
Track 5 accurately ripped (confidence 56) [939584A7] (AR v2)
Track 6 accurately ripped (confidence 57) [F063BCEB] (AR v2)
Track 7 accurately ripped (confidence 54) [55B6A914] (AR v2)
Track 8 accurately ripped (confidence 45) [DF099372] (AR v2)
Track 9 accurately ripped (confidence 45) [D15F9D2F] (AR v2)
Track 10 accurately ripped (confidence 45) [3225E355] (AR v2)

All tracks accurately ripped

End of status report

---- CUETools DB Plugin V2.1.3

[CTDB TOCID: wPE_LjyWTUOC5MpxcQ9tErfdDfk-] found, Submit result: wPE_LjyWTUOC5MpxcQ9tErfdDfk- has been confirmed
[0509c6a4] (24/25) Accurately ripped
[5bcbeb4b] (01/25) No match


==== Log checksum CC716D617F8EE35F5366A7B6993E0BEF5EB3326C4C8632D42215CF95E4462C4C ====

foobar2000 1.1.14a / Dynamic Range Meter 1.1.1
log date: 2013-09-21 15:08:05

--------------------------------------------------------------------------------
Statistics for: 04-Knock Out
Number of samples: 13406400
Duration: 5:04
--------------------------------------------------------------------------------

Left Right

Peak Value: -1.39 dB --- -0.30 dB
Avg RMS: -21.67 dB --- -21.26 dB
DR channel: 17.00 dB --- 17.62 dB
--------------------------------------------------------------------------------

Official DR Value: DR17

Samplerate: 44100 Hz
Channels: 2
Bits per sample: 16
Bitrate: 685 kbps
Codec: FLAC
================================================================================


foobar2000 1.1.14a / Dynamic Range Meter 1.1.1
log date: 2013-09-21 15:08:07

--------------------------------------------------------------------------------
Analyzed: Chuck Mangione / Stereoplay: Die besten Hörtest-Aufnahmen aus 30 Jahren (1)
Jazz At The Pawnshop / Stereoplay: Die besten Hörtest-Aufnahmen aus 30 Jahren (2)
--------------------------------------------------------------------------------

DR Peak RMS Duration Track
--------------------------------------------------------------------------------
DR15 -0.30 dB -18.51 dB 5:03 03-Children Of Sanchez
DR14 -3.79 dB -21.61 dB 5:04 06-Limehouse Blues
--------------------------------------------------------------------------------

Number of tracks: 2
Official DR value: DR15

Samplerate: 44100 Hz
Channels: 2
Bits per sample: 16
Bitrate: 685 kbps
Codec: FLAC
================================================================================

--------------------------------------------------------------------------------
Analyzed: Marianne Mellnäs / Stereoplay: Die besten Hörtest-Aufnahmen aus 30 Jahren (1)
Modest Mussorgsky / Stereoplay: Die besten Hörtest-Aufnahmen aus 30 Jahren (2)
--------------------------------------------------------------------------------

DR Peak RMS Duration Track
--------------------------------------------------------------------------------
DR10 -0.30 dB -15.76 dB 4:20 05-Julsang
DR15 -1.29 dB -22.66 dB 10:33 07-Nacht auf dem kahlen Berge
--------------------------------------------------------------------------------

Number of tracks: 2
Official DR value: DR12

Samplerate: 44100 Hz
Channels: 2
Bits per sample: 16
Bitrate: 685 kbps
Codec: FLAC
================================================================================

--------------------------------------------------------------------------------
Analyzed: Stereoplay / Stereoplay: Die besten Hörtest-Aufnahmen aus 30 Jahren
--------------------------------------------------------------------------------

DR Peak RMS Duration Track
--------------------------------------------------------------------------------
DR15 -0.30 dB -20.44 dB 8:06 01-Hörparcours-Musikblock
DR9 -10.44 dB -24.59 dB 0:19 08-Pegel-Einstellton - Rauschen links
DR10 -10.52 dB -24.78 dB 0:19 09-Pegel-Einstellton - Rauschen rechts
DR10 -10.10 dB -20.35 dB 0:43 10-Pegel Einstelltöne - Rauschen stereo gleichphasig/gegenphasig
--------------------------------------------------------------------------------

Number of tracks: 4
Official DR value: DR11

Samplerate: 44100 Hz
Channels: 2
Bits per sample: 16
Bitrate: 685 kbps
Codec: FLAC
================================================================================

--------------------------------------------------------------------------------
Statistics for: 02-Tiden Bara Gar
Number of samples: 13388760
Duration: 5:04
--------------------------------------------------------------------------------

Left Right

Peak Value: -1.42 dB --- -0.98 dB
Avg RMS: -19.68 dB --- -21.20 dB
DR channel: 14.76 dB --- 16.51 dB
--------------------------------------------------------------------------------

Official DR Value: DR16

Samplerate: 44100 Hz
Channels: 2
Bits per sample: 16
Bitrate: 685 kbps
Codec: FLAC
================================================================================


CD Info:

VA - Stereoplay- Die besten Hörtest-Aufnahmen aus 30 Jahren: Die audiophile Hörtest CD

Label: Stereoplay
Catalog#: -
Format: CD, Compilation, Promo
Country: Germany
Released: 2008
Genre: Rock, Pop, Jazz, Classical
Style: Test, Technical

Tracklist:

1 Stereoplay - Hörparcours-Musikblock 8:06
2 Thérèse Juel - Tiden Bara Gar 5:04
3 Chuck Mangione - Children Of Sanchez 5:03
4 Charlie Antolini - Knock Out 5:04
5 Marianne Mellnäs - Julsang 4:20
6 Jazz At The Pawnshop - Limehouse Blues 5:04
7 Modest Mussorgsky - Nacht auf dem kahlen Berge 10:33
8 Stereoplay - Pegel-Einstellton - Rauschen links 0:19
9 Stereoplay - Pegel-Einstellton - Rauschen rechts 0:19
10 Stereoplay - Pegel Einstelltöne - Rauschen stereo gleichphasig/gegenphasig 0:43

Seit über 35 Jahren ist stereoplay die Pflichtlektüre für Klangenthusiasten und die HiFi- und High-End-Branche. Das 1978 gegründete Magazin hat sich als eines der marktführenden Publikationen rund um die technische Dimension von HiFi etabliert.

stereoplay richtet sich an alle, die ganz genau verstehen wollen, wie HiFi funktioniert und die sich für Detailwissen und faszinierende Technikfeatures begeistern.

stereoplay differenziert sich durch Produkttests auf höchstem Niveau. In enger Zusammenarbeit mit dem verlagseigenen Testlabor werden hier neue Messungen entwickelt, die noch mehr Transparenz in die Faszination der Welt des Klangs bringen.