Вход в свой аккаунт

Или войдите через соц. сети

Ronnie Hawkins - Ronnie Rocks (2008) Re-uploaD


Ronnie Hawkins - Ronnie Rocks (2008)
EAC Rip | FLAC+CUE+LOG - 441 MB | Covers | MP3 CBR 320 Kbps - 169 MB
Rock & Roll / Rockabilly | 76:40 mins | Label: Bear Family Records # BCD 16873 AR

The very best of Ronnie's Rock 'N' Roll recordings for Quality and Roulette, including the hits 'Mary Lou' and 'Forty Days'. The all-time wildest Rock 'N' Roll from the golden era! Includes a previously unissued rockabilly gem from 1958 and the very first recordings by The Band. "The last of the original Rock 'N' Rollers" - beyond essential!

“ Ronnie Hawkins is a rockabilly singer who formed his original backing band, the Hawks, while attending the University of Arkansas. After auditioning unsuccessfully for Sun in 1957, he started working regularly in Canada the following year, eventually taking up permanent residence there. After one release on the Canadian Quality label, he signed with Roulette in New York in 1959, having hits with "Forty Days" and "Mary Lou." The live fervor of Hawkins (known as Mr. Dynamo) and the Hawks' show continued in Canada after all the original members except Levon Helm headed back to the U.S. Hawkins quickly hired Canadian players Robbie Robertson, Garth Hudson, Rick Danko, and Richard Manuel as the new Hawks. They stayed with him until 1963, but later became Bob Dylan's backing group and went on to a career of their own as the Band. Hawkins has remained a legend in Canada, recording unrepentant rockabilly sides and gigging constantly. He's still the original Mr. Dynamo, capable of shaking the walls down any old time he feels like it. ”

“ Running a generous 32 tracks, Bear Family's Ronnie Rocks is an excellent collection of Ronnie Hawkins' rockabilly for Roulette Records. There are many other compilations that cover the same ground but no others cover it quite so extensively -- which might not quite be the same thing as thoroughly, as the title is a tipoff that the music here is all high-octane rock & roll. Often, this comes in the guise of covers -- Hawkins runs through the Chuck Berry ("Thirty Days," "Forty Days") and Bo Diddley ("Hey Bo Diddley," "Bo Diddley," "Who Do You Love") songbooks, and picks up some Sun records ("Matchbox," "Honey Don't," "My Gal Is Red Hot"), a bunch of R&B sides (Hank Ballard's "Sexy Ways," Larry Williams' "Dizzy Miss Lizzy"), and some Dixie-fried rockabilly ("Suzie Q"). All this is confirmation that Hawkins was perhaps the epitome of a working roadhouse rock & roller during the late '50s and early '60s: not someone who innovated but one who gave the people what they wanted, bashing out crowd-pleasers one after another. He had an excellent ear for material that extended into being an excellent bandleader, both traits in evidence here and both of which make these covers rousing. But when Hawkins had his own song -- as he did on the slinky minor-key rocker "Mary Lou" -- he was truly outstanding. And this has the most of his outstanding material in one big package.

-- Stephen Thomas Erlewine, allmusic.com
”


Tracklist:

01. Thirty Days
02. Hey Bo Diddley
03. Ruby Baby
04. Forty Days
05. Horace
06. One Of These Days
07. Wild Little Willy
08. Whatcha Gonna Do (When The Creek Runs Dry)
09. Mary Lou
10. Oh Sugar
11. Odessa
12. My Gal Is Red Hot
13. Need Your Lovin' (Oh So Bad)
14. Dizzy Miss Lizzy
15. Hay Ride
16. Baby Jean
17. Southern Love
18. Hey Boba Lou
19. Clara
20. Honey Don't
21. Sick & Tired
22. You Know I Love You
23. Sexy Ways
24. Come Love
25. I Feel Good
26. Suzie Q
27. Matchbox
28. High Blood Pressure
29. Mojo Man
30. Bo Diddley
31. Who Do You Love
32. Horace

Tracks 1-2 > Ronnie Hawkins Quartet
Tracks 3-21 > Ronnie Hawkins & The Hawks
Tracks 22-32 > Ronnie Hawkins

Exact Audio Copy V1.0 beta 2 from 29. April 2011

EAC extraction logfile from 4. March 2012, 12:24

Ronnie Hawkins / Ronnie Rocks

Used drive : _NEC DVD_RW ND-3550A Adapter: 1 ID: 0

Read mode : Secure
Utilize accurate stream : Yes
Defeat audio cache : Yes
Make use of C2 pointers : No

Read offset correction : 48
Overread into Lead-In and Lead-Out : No
Fill up missing offset samples with silence : Yes
Delete leading and trailing silent blocks : No
Null samples used in CRC calculations : Yes
Used interface : Native Win32 interface for Win NT & 2000

Used output format : User Defined Encoder
Selected bitrate : 768 kBit/s
Quality : High
Add ID3 tag : No
Command line compressor : C:Program FilesExact Audio CopyFLACFLAC.EXE
Additional command line options : -6 -V -T "ARTIST=%artist%" -T "TITLE=%title%" -T "ALBUM=%albumtitle%" -T "DATE=%year%" -T "TRACKNUMBER=%tracknr%" -T "GENRE=%genre%" -T "COMMENT=%comment%" -T "BAND=%albuminterpret%" -T "COMPOSER=%composer%" %haslyrics%--ta


TOC of the extracted CD

Track | Start | Length | Start sector | End sector
---------------------------------------------------------
1 | 0:00.00 | 2:35.52 | 0 | 11676
2 | 2:35.52 | 2:47.13 | 11677 | 24214
3 | 5:22.65 | 2:16.05 | 24215 | 34419
4 | 7:38.70 | 2:16.62 | 34420 | 44681
5 | 9:55.57 | 2:34.48 | 44682 | 56279
6 | 12:30.30 | 2:32.65 | 56280 | 67744
7 | 15:03.20 | 2:17.02 | 67745 | 78021
8 | 17:20.22 | 1:59.00 | 78022 | 86946
9 | 19:19.22 | 2:09.00 | 86947 | 96621
10 | 21:28.22 | 2:15.33 | 96622 | 106779
11 | 23:43.55 | 2:16.30 | 106780 | 117009
12 | 26:00.10 | 1:51.65 | 117010 | 125399
13 | 27:52.00 | 2:22.47 | 125400 | 136096
14 | 30:14.47 | 1:56.55 | 136097 | 144851
15 | 32:11.27 | 2:15.68 | 144852 | 155044
16 | 34:27.20 | 2:18.60 | 155045 | 165454
17 | 36:46.05 | 2:46.32 | 165455 | 177936
18 | 39:32.37 | 2:34.43 | 177937 | 189529
19 | 42:07.05 | 2:35.47 | 189530 | 201201
20 | 44:42.52 | 2:25.03 | 201202 | 212079
21 | 47:07.55 | 2:30.30 | 212080 | 223359
22 | 49:38.10 | 2:46.60 | 223360 | 235869
23 | 52:24.70 | 2:26.22 | 235870 | 246841
24 | 54:51.17 | 3:04.48 | 246842 | 260689
25 | 57:55.65 | 1:58.10 | 260690 | 269549
26 | 59:54.00 | 2:19.07 | 269550 | 279981
27 | 62:13.07 | 2:11.23 | 279982 | 289829
28 | 64:24.30 | 2:28.40 | 289830 | 300969
29 | 66:52.70 | 1:57.72 | 300970 | 309816
30 | 68:50.67 | 2:52.68 | 309817 | 322784
31 | 71:43.60 | 2:41.37 | 322785 | 334896
32 | 74:25.22 | 2:15.00 | 334897 | 345021


Range status and errors

Selected range

Filename D:1Ronnie Hawkins - Ronnie Rocks (2008)Ronnie Hawkins - Ronnie Rocks.wav

Peak level 99.9 %
Extraction speed 2.3 X
Range quality 100.0 %
Test CRC E4522AFB
Copy CRC E4522AFB
Copy OK

No errors occurred


AccurateRip summary

Track 1 not present in database
Track 2 not present in database
Track 3 not present in database
Track 4 not present in database
Track 5 not present in database
Track 6 not present in database
Track 7 not present in database
Track 8 not present in database
Track 9 not present in database
Track 10 not present in database
Track 11 not present in database
Track 12 not present in database
Track 13 not present in database
Track 14 not present in database
Track 15 not present in database
Track 16 not present in database
Track 17 not present in database
Track 18 not present in database
Track 19 not present in database
Track 20 not present in database
Track 21 not present in database
Track 22 not present in database
Track 23 not present in database
Track 24 not present in database
Track 25 not present in database
Track 26 not present in database
Track 27 not present in database
Track 28 not present in database
Track 29 not present in database
Track 30 not present in database
Track 31 not present in database
Track 32 not present in database

None of the tracks are present in the AccurateRip database

End of status report

==== Log checksum 298744D0A752BF464D5494045FEF044C11A9A775D0504B2638F7EC3C9A8B1E6D ====


Re-Issue Produced & Tape researching by Bill Millar.
Mastered by JГјrgen Crasser.

Thanks to audelas!
UPLOADABLE




NITRO
http://www.nitroflare.com/view/463D16659CB3168/RonnieHawkins2008LOS.rar
http://www.nitroflare.com/view/B54E20676716FAB/RonnieHawkins2008MP3.rar

LQ Covers included in both types of archives.