Вход в свой аккаунт

Или войдите через соц. сети

Jimmy Witherspoon - Jay's Blues: The Complete Federal Sessions (1997)


Jimmy Witherspoon - Jay's Blues: The Complete Federal Sessions (1997)
EAC | FLAC | Tracks (Cue&Log) ~ 231 Mb (incl 5%) | Mp3 (CBR320) ~ 182 Mb (incl 5%) | Scans included
Genre: Jump Blues, Jazz Blues, Rhythm & Blues | Label: King Records | # KCD 6008 | Time: 01:03:07

“ Jays Blues is a fine collection of early-'50s jump blues sides that Jimmy Witherspoon cut for Federal Records. This 23-track collection offers a good retrospective of one of Witherspoon's most neglected -- and admittedly, uneven -- periods.

Thom Owens, Allmusic.com
”


“ One of the great blues singers of the post-World War II period, Jimmy Witherspoon was also versatile enough to fit comfortably into the jazz world. Witherspoon was born on August 8, 1920, in Gurdon, AR. As a child, he sang in a church choir, and made his debut recordings with Jay McShann for Philo and Mercury in 1945 and 1946. His own first recordings, using McShann's band, resulted in a number one R&B hit in 1949 with "Ain't Nobody's Business, Pts. 1 & 2" on Supreme Records. Live performances of "No Rollin' Blues" and "Big Fine Girl" provided 'Spoon with two more hits in 1950.

The mid-'50s were a lean time, with his style of shouting blues temporarily out of fashion; singles were tried for Federal, Chess, Atco, Vee Jay, and others, with little success. Jimmy Witherspoon at the Monterey Jazz Festival (HiFi Jazz) from 1959 lifted him back into the limelight. Partnerships with Ben Webster or Groove Holmes were recorded, and he toured Europe in 1961 with Buck Clayton, performing overseas many more times in the decades to follow; some memorable music resulted, but Witherspoon's best 1960s album is Evening Blues (Prestige), which features T-Bone Walker on guitar and Clifford Scott on saxophone. As the '70s began, Witherspoon decided to take a short break from live performances, settled in Los Angeles, took a job as a disc jockey, and continued making records. In 1971 Witherspoon teamed up with former Animals vocalist Eric Burdon for the album Guilty. Unfortunately it sold poorly. By 1973 his short retirement from live performances was over. Witherspoon was ready to get back on the road and assembled an amazing band featuring a young Robben Ford on lead guitar. Those live shows had received positive reviews, rejuvenating Witherspoon's move toward a definite rock/soul sound. He traveled to London in 1974 to record Love Is a Five Letter Word with British blues producer Mike Vernon. Vernon had produced critically acclaimed British blues albums by John Mayall, Fleetwood Mac, and Ten Years After. By the early '80s, Witherspoon was diagnosed with throat cancer. Although he remained active and was a popular concert attraction, the effect of the disease on his vocals was obvious. Witherspoon passed away on September 18, 1997, at the age of 77.

Biography by Bob Porter, Allmusic.com
”






Tracklist:

01. Foolish Prayer (02:00)
02. Lucille (02:34)
03. One Fine Gal (02:23)
04. Blues In Trouble (02:50)
05. Two Little Girls (02:33)
06. Corn Whiskey (02:13)
07. Don't Tell Me How (03:01)
08. The Day Is Dawning (02:59)
09. Jay's Blues Pt.1 (02:37)
10. Jay's Blues Pt.2 (02:47)
11. Miss Miss Mistreater (02:14)
12. Back Home (03:26)
13. The Last Mile (02:56)
14. It (02:24)
15. Back Door Blues (03:10)
16. Fast Woman Slow Gin (02:32)
17. 24 Sad Hours (02:39)
18. Just For You (02:24)
19. Sad Life (02:51)
20. Move Me Baby (02:33)
21. I'm Not Too Young (02:14)
22. Highway To Happiness (02:36)
23. I Done Told You (02:37)
24. Oh Boy (02:22)


Exact Audio Copy V1.0 beta 1 from 15. November 2010

EAC extraction logfile from 17. October 2014, 23:25

Jimmy Witherspoon / Jay's Blues

Used drive : PLEXTOR DVDR PX-891SA Adapter: 4 ID: 1

Read mode : Secure
Utilize accurate stream : Yes
Defeat audio cache : Yes
Make use of C2 pointers : No

Read offset correction : 6
Overread into Lead-In and Lead-Out : No
Fill up missing offset samples with silence : Yes
Delete leading and trailing silent blocks : No
Null samples used in CRC calculations : Yes
Used interface : Native Win32 interface for Win NT & 2000
Gap handling : Appended to previous track

Used output format : User Defined Encoder
Selected bitrate : 128 kBit/s
Quality : High
Add ID3 tag : No
Command line compressor : D:Exact Audio CopyFlacflac.exe
Additional command line options : -8 -V -T "ARTIST=%a" -T "TITLE=%t" -T "ALBUM=%g" -T "DATE=%y" -T "TRACKNUMBER=%n" -T "TOTALTRACKS=%x" -T "GENRE=%m" -T "ALBUMARTIST=%v" -T "ALBUM ARTIST=%v" -T "COMMENT=EAC Secure Mode, Test & Copy, AccurateRip, FLAC -8" %s


TOC of the extracted CD

Track | Start | Length | Start sector | End sector
---------------------------------------------------------
1 | 0:00.00 | 2:00.37 | 0 | 9036
2 | 2:00.37 | 2:34.63 | 9037 | 20649
3 | 4:35.25 | 2:23.49 | 20650 | 31423
4 | 6:58.74 | 2:50.03 | 31424 | 44176
5 | 9:49.02 | 2:33.39 | 44177 | 55690
6 | 12:22.41 | 2:13.44 | 55691 | 65709
7 | 14:36.10 | 3:01.08 | 65710 | 79292
8 | 17:37.18 | 2:59.55 | 79293 | 92772
9 | 20:36.73 | 2:37.16 | 92773 | 104563
10 | 23:14.14 | 2:47.60 | 104564 | 117148
11 | 26:01.74 | 2:14.71 | 117149 | 127269
12 | 28:16.70 | 3:26.43 | 127270 | 142762
13 | 31:43.38 | 2:56.35 | 142763 | 155997
14 | 34:39.73 | 2:24.61 | 155998 | 166858
15 | 37:04.59 | 3:10.19 | 166859 | 181127
16 | 40:15.03 | 2:32.45 | 181128 | 192572
17 | 42:47.48 | 2:39.25 | 192573 | 204522
18 | 45:26.73 | 2:24.64 | 204523 | 215386
19 | 47:51.62 | 2:51.31 | 215387 | 228242
20 | 50:43.18 | 2:33.16 | 228243 | 239733
21 | 53:16.34 | 2:14.33 | 239734 | 249816
22 | 55:30.67 | 2:36.56 | 249817 | 261572
23 | 58:07.48 | 2:37.44 | 261573 | 273391
24 | 60:45.17 | 2:22.00 | 273392 | 284041


Track 1

Filename D:1 - Foolish Prayer.wav

Pre-gap length 0:00:02.00

Peak level 94.2 %
Extraction speed 0.9 X
Track quality 100.0 %
Test CRC 9403FFEB
Copy CRC 9403FFEB
Track not present in AccurateRip database
Copy OK

Track 2

Filename D:2 - Lucille.wav

Pre-gap length 0:00:01.32

Peak level 93.1 %
Extraction speed 1.0 X
Track quality 100.0 %
Test CRC 3161DAC7
Copy CRC 3161DAC7
Track not present in AccurateRip database
Copy OK

Track 3

Filename D:3 - One Fine Gal.wav

Pre-gap length 0:00:01.32

Peak level 94.4 %
Extraction speed 1.0 X
Track quality 100.0 %
Test CRC 345582CC
Copy CRC 345582CC
Track not present in AccurateRip database
Copy OK

Track 4

Filename D:4 - Blues In Trouble.wav

Pre-gap length 0:00:01.32

Peak level 94.3 %
Extraction speed 1.0 X
Track quality 100.0 %
Test CRC 16452282
Copy CRC 16452282
Track not present in AccurateRip database
Copy OK

Track 5

Filename D:5 - Two Little Girls.wav

Pre-gap length 0:00:01.32

Peak level 94.3 %
Extraction speed 1.0 X
Track quality 100.0 %
Test CRC 40CE1C77
Copy CRC 40CE1C77
Track not present in AccurateRip database
Copy OK

Track 6

Filename D:6 - Corn Whiskey.wav

Pre-gap length 0:00:01.32

Peak level 94.3 %
Extraction speed 0.9 X
Track quality 100.0 %
Test CRC 9A6E855B
Copy CRC 9A6E855B
Track not present in AccurateRip database
Copy OK

Track 7

Filename D:7 - Don't Tell Me How.wav

Pre-gap length 0:00:01.32

Peak level 94.2 %
Extraction speed 1.0 X
Track quality 100.0 %
Test CRC D9F30731
Copy CRC D9F30731
Track not present in AccurateRip database
Copy OK

Track 8

Filename D:8 - The Day Is Dawning.wav

Pre-gap length 0:00:01.32

Peak level 94.2 %
Extraction speed 1.0 X
Track quality 100.0 %
Test CRC F33F371A
Copy CRC F33F371A
Track not present in AccurateRip database
Copy OK

Track 9

Filename D:9 - Jay's Blues Pt.1.wav

Pre-gap length 0:00:01.32

Peak level 94.3 %
Extraction speed 1.0 X
Track quality 100.0 %
Test CRC B1000AF3
Copy CRC B1000AF3
Track not present in AccurateRip database
Copy OK

Track 10

Filename D:10 - Jay's Blues Pt.2.wav

Pre-gap length 0:00:01.32

Peak level 94.2 %
Extraction speed 1.0 X
Track quality 100.0 %
Test CRC 3411F83B
Copy CRC 3411F83B
Track not present in AccurateRip database
Copy OK

Track 11

Filename D:11 - Miss Miss Mistreater.wav

Pre-gap length 0:00:01.32

Peak level 94.2 %
Extraction speed 1.0 X
Track quality 100.0 %
Test CRC FB8419EB
Copy CRC FB8419EB
Track not present in AccurateRip database
Copy OK

Track 12

Filename D:12 - Back Home.wav

Pre-gap length 0:00:01.32

Peak level 94.2 %
Extraction speed 1.0 X
Track quality 100.0 %
Test CRC A433B299
Copy CRC A433B299
Track not present in AccurateRip database
Copy OK

Track 13

Filename D:13 - The Last Mile.wav

Pre-gap length 0:00:01.32

Peak level 94.2 %
Extraction speed 1.0 X
Track quality 100.0 %
Test CRC A2DF54BA
Copy CRC A2DF54BA
Track not present in AccurateRip database
Copy OK

Track 14

Filename D:14 - It.wav

Pre-gap length 0:00:01.32

Peak level 94.3 %
Extraction speed 1.0 X
Track quality 100.0 %
Test CRC A6D05ECE
Copy CRC A6D05ECE
Track not present in AccurateRip database
Copy OK

Track 15

Filename D:15 - Back Door Blues.wav

Pre-gap length 0:00:01.32

Peak level 94.3 %
Extraction speed 0.9 X
Track quality 99.9 %
Test CRC 1E7864F7
Copy CRC 1E7864F7
Track not present in AccurateRip database
Copy OK

Track 16

Filename D:16 - Fast Woman Slow Gin.wav

Pre-gap length 0:00:01.32

Peak level 94.3 %
Extraction speed 1.0 X
Track quality 100.0 %
Test CRC FF9E43A5
Copy CRC FF9E43A5
Track not present in AccurateRip database
Copy OK

Track 17

Filename D:17 - 24 Sad Hours.wav

Pre-gap length 0:00:01.32

Peak level 94.2 %
Extraction speed 1.0 X
Track quality 100.0 %
Test CRC 5274B437
Copy CRC 5274B437
Track not present in AccurateRip database
Copy OK

Track 18

Filename D:18 - Just For You.wav

Pre-gap length 0:00:01.32

Peak level 94.2 %
Extraction speed 1.0 X
Track quality 100.0 %
Test CRC 6D55027D
Copy CRC 6D55027D
Track not present in AccurateRip database
Copy OK

Track 19

Filename D:19 - Sad Life.wav

Pre-gap length 0:00:01.32

Peak level 93.2 %
Extraction speed 1.0 X
Track quality 100.0 %
Test CRC 44F2CE9D
Copy CRC 44F2CE9D
Track not present in AccurateRip database
Copy OK

Track 20

Filename D:20 - Move Me Baby.wav

Pre-gap length 0:00:01.32

Peak level 94.2 %
Extraction speed 1.0 X
Track quality 100.0 %
Test CRC 6654425C
Copy CRC 6654425C
Track not present in AccurateRip database
Copy OK

Track 21

Filename D:21 - I'm Not Too Young.wav

Pre-gap length 0:00:01.32

Peak level 94.3 %
Extraction speed 0.9 X
Track quality 100.0 %
Test CRC 216403DC
Copy CRC 216403DC
Track not present in AccurateRip database
Copy OK

Track 22

Filename D:22 - Highway To Happiness.wav

Pre-gap length 0:00:01.32

Peak level 94.2 %
Extraction speed 0.8 X
Track quality 99.9 %
Test CRC ADCA5077
Copy CRC ADCA5077
Track not present in AccurateRip database
Copy OK

Track 23

Filename D:23 - I Done Told You.wav

Pre-gap length 0:00:01.32

Peak level 94.2 %
Extraction speed 1.0 X
Track quality 100.0 %
Test CRC 6C71705A
Copy CRC 6C71705A
Track not present in AccurateRip database
Copy OK

Track 24

Filename D:24 - Oh Boy.wav

Pre-gap length 0:00:01.32

Peak level 94.3 %
Extraction speed 1.0 X
Track quality 100.0 %
Test CRC 57687312
Copy CRC 57687312
Track not present in AccurateRip database
Copy OK


None of the tracks are present in the AccurateRip database

No errors occurred

End of status report

==== Log checksum 0FE53AB4B20FC30376E5DC5EBE6DEC752D2BB33988EDC9D3DA3EA20B3B9E4036 ====

foobar2000 1.2 / Dynamic Range Meter 1.1.1
log date: 2015-08-27 02:31:43

--------------------------------------------------------------------------------
Analyzed: Jimmy Witherspoon / Jay's Blues
--------------------------------------------------------------------------------

DR Peak RMS Duration Track
--------------------------------------------------------------------------------
DR10 -0.51 dB -12.41 dB 2:00 01-Foolish Prayer
DR11 -0.61 dB -13.08 dB 2:35 02-Lucille
DR13 -0.50 dB -16.18 dB 2:24 03-One Fine Gal
DR10 -0.51 dB -12.15 dB 2:50 04-Blues In Trouble
DR13 -0.51 dB -15.47 dB 2:34 05-Two Little Girls
DR17 -0.51 dB -18.91 dB 2:14 06-Corn Whiskey
DR11 -0.51 dB -14.52 dB 3:01 07-Don't Tell Me How
DR11 -0.51 dB -14.62 dB 3:00 08-The Day Is Dawning
DR12 -0.51 dB -15.22 dB 2:37 09-Jay's Blues Pt.1
DR13 -0.51 dB -15.51 dB 2:48 10-Jay's Blues Pt.2
DR12 -0.51 dB -13.96 dB 2:15 11-Miss Miss Mistreater
DR13 -0.51 dB -15.57 dB 3:27 12-Back Home
DR12 -0.51 dB -14.49 dB 2:56 13-The Last Mile
DR11 -0.51 dB -13.42 dB 2:25 14-It
DR11 -0.51 dB -14.14 dB 3:10 15-Back Door Blues
DR12 -0.51 dB -14.18 dB 2:33 16-Fast Woman Slow Gin
DR12 -0.51 dB -14.49 dB 2:39 17-24 Sad Hours
DR12 -0.51 dB -14.82 dB 2:25 18-Just For You
DR12 -0.61 dB -15.11 dB 2:51 19-Sad Life
DR11 -0.51 dB -13.33 dB 2:33 20-Move Me Baby
DR12 -0.51 dB -14.13 dB 2:14 21-I'm Not Too Young
DR12 -0.51 dB -14.54 dB 2:37 22-Highway To Happiness
DR11 -0.51 dB -13.57 dB 2:38 23-I Done Told You
DR10 -0.51 dB -12.43 dB 2:22 24-Oh Boy
--------------------------------------------------------------------------------

Number of tracks: 24
Official DR value: DR12

Samplerate: 44100 Hz
Channels: 2
Bits per sample: 16
Bitrate: 452 kbps
Codec: FLAC
================================================================================



All thanks to original releaser - Smal_AV










Password: designol