VA - Screaming and Crying: 75 Masterpieces By 35 Blues Guitar Heroes (2012) 3CD Box Set [Re-Up]


VA - Screaming and Crying: 75 Masterpieces By 35 Blues Guitar Heroes (2012) 3CD Box Set
EAC | FLAC | Image (Cue&Log) ~ 645 Mb (incl 5%) | Mp3 (CBR320) ~ 497 Mb (incl 5%) | Scans ~ 152 Mb
Genre: Blues, R&B, Rock'n'Roll | Label: Fantastic Voyage | # FVTD137, 5055311001371 | Time: 03:27:02

Rarely has the primal excitement of the electric blues guitar been so voraciously and expertly illustrated on one compilation than on Screaming And Crying, renowned British blues buff Neil Slaven s monumental homage to the music which shaped both his life and a whole generation. Over three discs and 75 tracks, the set straddles the spectrum of the electrified blues which fuelled the British R&B boom of the 1960s and beyond, mixing much-feted names such as Chuck Berry and Bo Diddley with more deliciously obscure outings by the likes of Doctor Ross and Guitar Shorty. Slaven s liner notes outline the story behind the roughshod classics which bust out of the set, whether screaming with the joy of musical release, or crying in a pool of despair, both amplified through jacked-up guitar strings. Selections are explained using a thread which shows how the trail-blazing T-Bone Walker (represented by tracks which avoid overlap with Fantastic Voyage s much-lauded T-Bone collection You re My Best Poker Hand, FVTD099) influenced the likes of Pee Wee Crayton, Clarence Gatemouth Brown, Johnny Copeland and Johnny Guitar Watson, whose aptly-named Space Guitar was obviously a big influence on Hendrix (as were many of the names on show). Noted guitar abusers are present and incorrect, including over-loading Pat Hare in James Cotton s band, Johnny Otis Pete Guitar Lewis distorting through Midnight In The Barrel House , while the mighty John Lee Hooker and Elmore James display their inimitable axe attacks on several outings. The fearsome triumvirate of Kings - B.B., Albert and Freddie - get three tracks apiece, as do Bo Diddley and Chuck Berry, whose lesser-known Mad Lad is a lesson in controlled virtuosity. Other guitarists very much plugged in through the fifties to the sixties include Buddy Guy, Little Milton, Muddy Waters, Otis Rush, Tiny Grimes, Earl Hooker, Hop Wilson, Magic Sam, Lowell Fulson, Jimmy Reed s Eddie Taylor, Mickey Baker, Guitar Slim, Goree Carter and Ike Turner (showing how underrated his savage guitar style was). Neil Slaven has constructed a veritable dizzbuster of a collection, exuding the kind of glow and continuity which can only come from knowledge and passion. As he says in his notes, Some of these recordings have become cornerstones of a long life and not one of them has diminished with the ensuing years. That s something for you to look forward to.



Tracklist:

CD1:

01. B.B. 'Blues Boy' King & His Orchestra - You Upset Me Baby - 1954 - 3:04
02. Johnny Otis Orchectra feat. Pete Lewis & His Guitars - Midnight In The Barrel House - 1947 - 3:06
03. Buddy Guy - First Time I Met The Blues - 1960 - 2:20
04. James Cotton feat. Pat Hare (Guitar) - Cotton Crop Blues - 1954 - 3:03
05. Little Milton - Lookin For My Baby - 1955 - 2:37
06. Muddy Waters - Rock Me - 1961 - 3:16
07. Freddy King - The Stumble - 1961 - 3:14
08. Otis Rush & His Band - All Your Love (I Miss Loving) - 1959 - 2:39
09. Clarence Samuels feat. Johnny Copeland (Guitar) - Chicken-Hearted Woman - 1956 - 2:43
10. Guitar Slim & His Band - The Story Of My Life - 1954 - 3:02
11. Clarence 'Gatemouth' Brown His Guitar & Orchestra - Atomic Energy - 1949 - 2:27
12. Bo Diddley - Pretty Thing - 1955 - 2:51
13. John Lee Hooker - You ve Taken My Woman - 1958 - 2:30
14. Elmore James & His Broomdusters - Coming Home - 1957 - 2:31
15. Johnny 'Guitar' Watson - Three Hours Past Midnight - 1956 - 3:25
16. Chuck Berry - Bye Bye Johnny - 1960 - 2:07
17. Tiny Grimes His Guitars & Rocking Highlanders - Tiny's Boogie - 1954 - 2:59
18. T-Bone Walker & His Orchestra - Travelin Blues - 1950 - 2:23
19. Albert King - I Walked All Night Long - 1960 - 2:55
20. Pete 'Guitar' Lewis - Louisiana Hop - 1952 - 2:35
21. Morris Pejoe - Screaming And Crying - 1956 - 2:46
22. Earl Hooker - Blues In D Natural - 1960 - 2:14
23. Poppa Hop & His Orchestra (Hop Wilson) - My Woman Has A Black Cat Bone - 1960 - 2:25
24. Magic Sam - All Your Love - 1954 - 2:57
25. Eddie Taylor - Don't Knock At My Door - 1956 - 2:46

CD2:

01. Buddy Guy - Let Me Love You Baby - 1961 - 2:55
02. Lowell Fulson - Reconsider Baby - 1954 - 3:11
03. B.B. King - She's Dynamite - 1951 - 2:32
04. Pee Wee Crayton & His Guitars - Texas Hop - 1948 - 3:07
05. Little Milton - If You Love Me Baby - 1954 - 2:36
06. Doctor Ross - The Boogie Disease - 1954 - 2:37
07. Rudy Green - Cool Lovin Mama - 1956 - 2:53
08. Icky Renrut (Ike Turner) - Ho...Ho - 1959 - 2:29
09. Jimmy Reed feat. Eddie Taylor (Guitar) - Ain't That Lovin You Baby - 1956 - 2:15
10. T-Bone Walker - Blues Is A Woman - 1952 - 2:49
11. Bo Diddley - Nursery Rhyme - 1961 - 2:50
12. Albert King - I've Made Nights By Myself - 1960 - 2:37
13. Jimmy Nolen - Strollin With Nolen - 1956 - 2:26
14. Guitar Slim & His Band - A Letter To My Girl Friend - 1954 - 2:11
15. Mickey Baker With Bill Hendricks Orchestra - Spinnin Rock Boogie - 1957 - 2:18
16. Jerry Thomas (Lafayette Thomas) - Jumpin In The Heart Of Town - 1954 - 2:43
17. Elmore James - I Can't Hold Out - 1960 - 2:18
18. Chuck Berry - Mad Lad - 1960 - 2:23
19. Freddy King - Have You Ever Loved A Woman - 1960 - 3:08
20. Otis Rush & His Band - Double Trouble - 1959 - 2:45
21. Clarence 'Gatemouth' Brown - Dirty Work At The Crossroads - 1953 - 2:51
22. Rocky Thompson (Goree Carter) - Bull Corn Blues - 1951 - 2:38
23. John Lee Hooker - Wobbling Baby - 1959 - 2:40
24. Guitar Shorty - Irma Lee - 1957 - 2:10
25. Young John Watson (Johnny 'Guitar' Watson) - Space Guitar - 1954 - 2:40

CD3:

01. John Lee Hooker - Gotta Boogie - 1954 - 2:27
02. T-Bone Walker - Through With Women - 1961 - 3:10
03. Earl Hooker - Blue Guitar - 1953 - 2:48
04. Freddy King - You've Got To Love Her With A Feeling - 1961 - 3:16
05. Muddy Waters - Blow Wind Blow - 1961 - 2:57
06. Tiny Grimes His Guitar & Rocking Highlanders - Rockin The Blues Away - 1952 - 2:57
07. Elmore James - The Sun Is Shining - 1960 - 2:45
08. Jimmy Reed feat. Eddie Taylor (Guitar) - Honey, Where You Going - 1957 - 3:13
09. L. J. Thomas & His Louisiana Playboy (Lafayette Thomas) - Sam's Drag - 1952 - 2:53
10. Little Milton - I Found Me A New Love - 1959 - 3:12
11. B.B. 'Blues Boy' King & His Orchestra - When My Heart Beats Like A Hammer - 1954 - 2:55
12. Jimmy Nolen - After Hours - 1956 - 2:40
13. Poppa Hop & His Orchestra (Hop Wilson) - I'm A Stranger - 1960 - 3:49
14. Magic Sam - Look Whatcha Done - 1958 - 2:16
15. Bo Diddley - Mumblin Guitar - 1960 - 2:51
16. Lowell Fulson & His Orchestra - Chuck With The Boys - 1953 - 2:22
17. Albert King - Ooh-Ee Baby - 1959 - 3:55
18. Cal Green & His Orchestra - The Big Push - 1958 - 2:33
19. Goree Carter - Hoy-Hoy - 1949 - 2:58
20. Otis Rush - So Many Roads, So Many Trains - 1960 - 3:13
21. Pee Wee Crayton - A Frosty Night - 1956 - 3:07
22. Larry Dale feat. Mickey Baker (Guitar) - Please Tell Me - 1954 - 2:34
23. Guitar Shorty - You Don't Treat Me Right - 1957 - 2:15
24. Eddie Taylor - You'll Always Have A Home - 1956 - 2:33
25. Chuck Berry & His Combo - Roll Over Beethoven - 1956 - 2:24


Exact Audio Copy V1.0 beta 1 from 15. November 2010

EAC extraction logfile from 10. August 2012, 21:52

Various / Screaming and Crying (CD1)

Used drive : Optiarc DVD RW AD-5200S Adapter: 2 ID: 0

Read mode : Secure
Utilize accurate stream : Yes
Defeat audio cache : Yes
Make use of C2 pointers : No

Read offset correction : 48
Overread into Lead-In and Lead-Out : No
Fill up missing offset samples with silence : Yes
Delete leading and trailing silent blocks : No
Null samples used in CRC calculations : Yes
Used interface : Native Win32 interface for Win NT & 2000

Used output format : User Defined Encoder
Selected bitrate : 1024 kBit/s
Quality : High
Add ID3 tag : No
Command line compressor : C:Program Files (x86)Exact Audio CopyFLACFLAC.EXE
Additional command line options : -8 -V %s


TOC of the extracted CD

Track | Start | Length | Start sector | End sector
---------------------------------------------------------
1 | 0:00.00 | 3:04.00 | 0 | 13799
2 | 3:04.00 | 3:06.33 | 13800 | 27782
3 | 6:10.33 | 2:19.43 | 27783 | 38250
4 | 8:30.01 | 3:03.12 | 38251 | 51987
5 | 11:33.13 | 2:37.02 | 51988 | 63764
6 | 14:10.15 | 3:15.70 | 63765 | 78459
7 | 17:26.10 | 3:14.33 | 78460 | 93042
8 | 20:40.43 | 2:38.71 | 93043 | 104963
9 | 23:19.39 | 2:42.39 | 104964 | 117152
10 | 26:02.03 | 3:02.10 | 117153 | 130812
11 | 29:04.13 | 2:26.63 | 130813 | 141825
12 | 31:31.01 | 2:51.33 | 141826 | 154683
13 | 34:22.34 | 2:30.03 | 154684 | 165936
14 | 36:52.37 | 2:30.56 | 165937 | 177242
15 | 39:23.18 | 3:25.06 | 177243 | 192623
16 | 42:48.24 | 2:06.67 | 192624 | 202140
17 | 44:55.16 | 2:58.61 | 202141 | 215551
18 | 47:54.02 | 2:22.41 | 215552 | 226242
19 | 50:16.43 | 2:54.71 | 226243 | 239363
20 | 53:11.39 | 2:34.73 | 239364 | 250986
21 | 55:46.37 | 2:46.01 | 250987 | 263437
22 | 58:32.38 | 2:13.55 | 263438 | 273467
23 | 60:46.18 | 2:24.68 | 273468 | 284335
24 | 63:11.11 | 2:56.70 | 284336 | 297605
25 | 66:08.06 | 2:46.22 | 297606 | 310077


Range status and errors

Selected range

Filename G:DownloadМузыка LossLessVarious Artists - Screaming and CryingCD1Various - Screaming and Crying (CD1).wav

Peak level 100.0 %
Extraction speed 0.1 X
Range quality 100.0 %
Test CRC DC632101
Copy CRC DC632101
Copy OK

No errors occurred


AccurateRip summary

Track 1 not present in database
Track 2 not present in database
Track 3 not present in database
Track 4 not present in database
Track 5 not present in database
Track 6 not present in database
Track 7 not present in database
Track 8 not present in database
Track 9 not present in database
Track 10 not present in database
Track 11 not present in database
Track 12 not present in database
Track 13 not present in database
Track 14 not present in database
Track 15 not present in database
Track 16 not present in database
Track 17 not present in database
Track 18 not present in database
Track 19 not present in database
Track 20 not present in database
Track 21 not present in database
Track 22 not present in database
Track 23 not present in database
Track 24 not present in database
Track 25 not present in database

None of the tracks are present in the AccurateRip database

End of status report

foobar2000 1.2 / Dynamic Range Meter 1.1.1
log date: 2015-08-27 18:54:16

--------------------------------------------------------------------------------
Analyzed: B.B. 'Blues Boy' King & His Orchestra / Screaming and Crying (CD1) (1)
Bo Diddley / Screaming and Crying (CD1) (2)
--------------------------------------------------------------------------------

DR Peak RMS Duration Track
--------------------------------------------------------------------------------
DR12 0.00 dB -14.76 dB 3:04 01-You Upset Me Baby - 1954
DR10 -0.90 dB -12.75 dB 2:51 12-Pretty Thing - 1955
--------------------------------------------------------------------------------

Number of tracks: 2
Official DR value: DR11

Samplerate: 44100 Hz
Channels: 2
Bits per sample: 16
Bitrate: 431 kbps
Codec: FLAC
================================================================================

--------------------------------------------------------------------------------
Analyzed: Buddy Guy / Screaming and Crying (CD1) (1)
Chuck Berry / Screaming and Crying (CD1) (2)
--------------------------------------------------------------------------------

DR Peak RMS Duration Track
--------------------------------------------------------------------------------
DR12 0.00 dB -13.73 dB 2:20 03-First Time I Met The Blues - 1960
DR8 -2.50 dB -11.26 dB 2:07 16-Bye Bye Johnny - 1960
--------------------------------------------------------------------------------

Number of tracks: 2
Official DR value: DR10

Samplerate: 44100 Hz
Channels: 2
Bits per sample: 16
Bitrate: 431 kbps
Codec: FLAC
================================================================================

--------------------------------------------------------------------------------
Statistics for: 11-Atomic Energy - 1949
Number of samples: 6475644
Duration: 2:27
--------------------------------------------------------------------------------

Left Right

Peak Value: 0.00 dB --- 0.00 dB
Avg RMS: -10.09 dB --- -10.09 dB
DR channel: 8.75 dB --- 8.75 dB
--------------------------------------------------------------------------------

Official DR Value: DR9

Samplerate: 44100 Hz
Channels: 2
Bits per sample: 16
Bitrate: 431 kbps
Codec: FLAC
================================================================================
--------------------------------------------------------------------------------
Analyzed: Clarence Samuels feat. Johnny Copeland (Guitar) / Screaming and Crying (CD1) (1)
Earl Hooker / Screaming and Crying (CD1) (2)
Eddie Taylor / Screaming and Crying (CD1) (3)
--------------------------------------------------------------------------------

DR Peak RMS Duration Track
--------------------------------------------------------------------------------
DR7 -1.68 dB -11.35 dB 2:43 09-Chicken-Hearted Woman - 1956
DR9 0.00 dB -9.87 dB 2:14 22-Blues In D Natural - 1960
DR11 0.00 dB -14.33 dB 2:46 25-Don't Knock At My Door - 1956
--------------------------------------------------------------------------------

Number of tracks: 3
Official DR value: DR9

Samplerate: 44100 Hz
Channels: 2
Bits per sample: 16
Bitrate: 431 kbps
Codec: FLAC
================================================================================

--------------------------------------------------------------------------------
Statistics for: 14-Coming Home - 1957
Number of samples: 6647928
Duration: 2:31
--------------------------------------------------------------------------------

Left Right

Peak Value: -0.99 dB --- -0.99 dB
Avg RMS: -11.77 dB --- -11.77 dB
DR channel: 9.54 dB --- 9.54 dB
--------------------------------------------------------------------------------

Official DR Value: DR10

Samplerate: 44100 Hz
Channels: 2
Bits per sample: 16
Bitrate: 431 kbps
Codec: FLAC
================================================================================
--------------------------------------------------------------------------------
Analyzed: Freddy King / Screaming and Crying (CD1) (1)
Guitar Slim & His Band / Screaming and Crying (CD1) (2)
--------------------------------------------------------------------------------

DR Peak RMS Duration Track
--------------------------------------------------------------------------------
DR14 -0.05 dB -14.97 dB 3:14 07-The Stumble - 1961
DR12 -0.14 dB -14.73 dB 3:02 10-The Story Of My Life - 1954
--------------------------------------------------------------------------------

Number of tracks: 2
Official DR value: DR13

Samplerate: 44100 Hz
Channels: 2
Bits per sample: 16
Bitrate: 431 kbps
Codec: FLAC
================================================================================

--------------------------------------------------------------------------------
Analyzed: James Cotton feat. Pat Hare (Guitar) / Screaming and Crying (CD1) (1)
John Lee Hooker / Screaming and Crying (CD1) (2)
Johnny 'Guitar' Watson / Screaming and Crying (CD1) (3)
--------------------------------------------------------------------------------

DR Peak RMS Duration Track
--------------------------------------------------------------------------------
DR11 0.00 dB -12.59 dB 3:03 04-Cotton Crop Blues - 1954
DR13 -0.01 dB -14.73 dB 2:30 13-You ve Taken My Woman - 1958
DR12 0.00 dB -14.82 dB 3:25 15-Three Hours Past Midnight - 1956
--------------------------------------------------------------------------------

Number of tracks: 3
Official DR value: DR12

Samplerate: 44100 Hz
Channels: 2
Bits per sample: 16
Bitrate: 431 kbps
Codec: FLAC
================================================================================

--------------------------------------------------------------------------------
Analyzed: Johnny Otis Orchectra feat. Pete Lewis & His Guitars / Screaming and Crying (CD1) (1)
Little Milton / Screaming and Crying (CD1) (2)
Magic Sam / Screaming and Crying (CD1) (3)
--------------------------------------------------------------------------------

DR Peak RMS Duration Track
--------------------------------------------------------------------------------
DR9 -2.99 dB -13.90 dB 3:06 02-Midnight In The Barrel House - 1947
DR11 -0.30 dB -14.09 dB 2:37 05-Lookin For My Baby - 1955
DR9 -1.22 dB -11.97 dB 2:57 24-All Your Love - 1954
--------------------------------------------------------------------------------

Number of tracks: 3
Official DR value: DR10

Samplerate: 44100 Hz
Channels: 2
Bits per sample: 16
Bitrate: 431 kbps
Codec: FLAC
================================================================================

--------------------------------------------------------------------------------
Statistics for: 21-Screaming And Crying - 1956
Number of samples: 7321188
Duration: 2:46
--------------------------------------------------------------------------------

Left Right

Peak Value: 0.00 dB --- 0.00 dB
Avg RMS: -12.20 dB --- -12.20 dB
DR channel: 10.66 dB --- 10.66 dB
--------------------------------------------------------------------------------

Official DR Value: DR11

Samplerate: 44100 Hz
Channels: 2
Bits per sample: 16
Bitrate: 431 kbps
Codec: FLAC
================================================================================
--------------------------------------------------------------------------------
Analyzed: Muddy Waters / Screaming and Crying (CD1) (1)
Otis Rush & His Band / Screaming and Crying (CD1) (2)
Pete 'Guitar' Lewis / Screaming and Crying (CD1) (3)
Poppa Hop & His Orchestra (Hop Wilson) / Screaming and Crying (CD1) (4)
--------------------------------------------------------------------------------

DR Peak RMS Duration Track
--------------------------------------------------------------------------------
DR11 0.00 dB -13.39 dB 3:16 06-Rock Me - 1961
DR9 -0.66 dB -10.69 dB 2:39 08-All Your Love (I Miss Loving) - 1959
DR11 -1.11 dB -13.37 dB 2:35 20-Louisiana Hop - 1952
DR11 0.00 dB -13.12 dB 2:25 23-My Woman Has A Black Cat Bone - 1960
--------------------------------------------------------------------------------

Number of tracks: 4
Official DR value: DR11

Samplerate: 44100 Hz
Channels: 2
Bits per sample: 16
Bitrate: 431 kbps
Codec: FLAC
================================================================================

--------------------------------------------------------------------------------
Statistics for: 18-Travelin Blues - 1950
Number of samples: 6286308
Duration: 2:23
--------------------------------------------------------------------------------

Left Right

Peak Value: -4.20 dB --- -4.20 dB
Avg RMS: -11.04 dB --- -11.04 dB
DR channel: 4.96 dB --- 4.96 dB
--------------------------------------------------------------------------------

Official DR Value: DR5

Samplerate: 44100 Hz
Channels: 2
Bits per sample: 16
Bitrate: 431 kbps
Codec: FLAC
================================================================================
--------------------------------------------------------------------------------
Statistics for: 17-Tiny's Boogie - 1954
Number of samples: 7885668
Duration: 2:59
--------------------------------------------------------------------------------

Left Right

Peak Value: 0.00 dB --- 0.00 dB
Avg RMS: -12.11 dB --- -12.11 dB
DR channel: 10.90 dB --- 10.90 dB
--------------------------------------------------------------------------------

Official DR Value: DR11

Samplerate: 44100 Hz
Channels: 2
Bits per sample: 16
Bitrate: 431 kbps
Codec: FLAC
================================================================================
foobar2000 1.2 / Dynamic Range Meter 1.1.1
log date: 2015-08-27 18:54:15

--------------------------------------------------------------------------------
Statistics for: 19-I Walked All Night Long - 1960
Number of samples: 7715148
Duration: 2:55
--------------------------------------------------------------------------------

Left Right

Peak Value: 0.00 dB --- 0.00 dB
Avg RMS: -12.82 dB --- -12.82 dB
DR channel: 10.93 dB --- 10.93 dB
--------------------------------------------------------------------------------

Official DR Value: DR11

Samplerate: 44100 Hz
Channels: 2
Bits per sample: 16
Bitrate: 431 kbps
Codec: FLAC
================================================================================


Exact Audio Copy V1.0 beta 1 from 15. November 2010

EAC extraction logfile from 10. August 2012, 22:38

Various / Screaming and Crying (CD2)

Used drive : Optiarc DVD RW AD-5200S Adapter: 2 ID: 0

Read mode : Secure
Utilize accurate stream : Yes
Defeat audio cache : Yes
Make use of C2 pointers : No

Read offset correction : 48
Overread into Lead-In and Lead-Out : No
Fill up missing offset samples with silence : Yes
Delete leading and trailing silent blocks : No
Null samples used in CRC calculations : Yes
Used interface : Native Win32 interface for Win NT & 2000

Used output format : User Defined Encoder
Selected bitrate : 1024 kBit/s
Quality : High
Add ID3 tag : No
Command line compressor : C:Program Files (x86)Exact Audio CopyFLACFLAC.EXE
Additional command line options : -8 -V %s


TOC of the extracted CD

Track | Start | Length | Start sector | End sector
---------------------------------------------------------
1 | 0:00.00 | 2:55.06 | 0 | 13130
2 | 2:55.06 | 3:11.23 | 13131 | 27478
3 | 6:06.29 | 2:32.37 | 27479 | 38915
4 | 8:38.66 | 3:07.32 | 38916 | 52972
5 | 11:46.23 | 2:35.38 | 52973 | 64635
6 | 14:21.61 | 2:36.38 | 64636 | 76373
7 | 16:58.24 | 2:52.60 | 76374 | 89333
8 | 19:51.09 | 2:29.28 | 89334 | 100536
9 | 22:20.37 | 2:15.23 | 100537 | 110684
10 | 24:35.60 | 2:48.62 | 110685 | 123346
11 | 27:24.47 | 2:50.26 | 123347 | 136122
12 | 30:14.73 | 2:36.48 | 136123 | 147870
13 | 32:51.46 | 2:25.49 | 147871 | 158794
14 | 35:17.20 | 2:11.01 | 158795 | 168620
15 | 37:28.21 | 2:18.20 | 168621 | 178990
16 | 39:46.41 | 2:43.18 | 178991 | 191233
17 | 42:29.59 | 2:18.09 | 191234 | 201592
18 | 44:47.68 | 2:23.20 | 201593 | 212337
19 | 47:11.13 | 3:08.06 | 212338 | 226443
20 | 50:19.19 | 2:44.43 | 226444 | 238786
21 | 53:03.62 | 2:51.19 | 238787 | 251630
22 | 55:55.06 | 2:38.22 | 251631 | 263502
23 | 58:33.28 | 2:39.58 | 263503 | 275485
24 | 61:13.11 | 2:10.32 | 275486 | 285267
25 | 63:23.43 | 2:40.31 | 285268 | 297298


Range status and errors

Selected range

Filename G:DownloadМузыка LossLessVarious Artists - Screaming and CryingCD2Various - Screaming and Crying (CD2).wav

Peak level 100.0 %
Extraction speed 0.1 X
Range quality 100.0 %
Test CRC 217842FB
Copy CRC 217842FB
Copy OK

No errors occurred


AccurateRip summary

Track 1 not present in database
Track 2 not present in database
Track 3 not present in database
Track 4 not present in database
Track 5 not present in database
Track 6 not present in database
Track 7 not present in database
Track 8 not present in database
Track 9 not present in database
Track 10 not present in database
Track 11 not present in database
Track 12 not present in database
Track 13 not present in database
Track 14 not present in database
Track 15 not present in database
Track 16 not present in database
Track 17 not present in database
Track 18 not present in database
Track 19 not present in database
Track 20 not present in database
Track 21 not present in database
Track 22 not present in database
Track 23 not present in database
Track 24 not present in database
Track 25 not present in database

None of the tracks are present in the AccurateRip database

End of status report

foobar2000 1.2 / Dynamic Range Meter 1.1.1
log date: 2015-08-27 18:59:21

--------------------------------------------------------------------------------
Analyzed: B.B. King / Screaming and Crying (CD2) (1)
Bo Diddley / Screaming and Crying (CD2) (2)
--------------------------------------------------------------------------------

DR Peak RMS Duration Track
--------------------------------------------------------------------------------
DR9 -1.18 dB -11.05 dB 2:32 03-She's Dynamite - 1951
DR13 -0.35 dB -16.36 dB 2:50 11-Nursery Rhyme - 1961
--------------------------------------------------------------------------------

Number of tracks: 2
Official DR value: DR11

Samplerate: 44100 Hz
Channels: 2
Bits per sample: 16
Bitrate: 400 kbps
Codec: FLAC
================================================================================

--------------------------------------------------------------------------------
Analyzed: Buddy Guy / Screaming and Crying (CD2) (1)
Chuck Berry / Screaming and Crying (CD2) (2)
Clarence 'Gatemouth' Brown / Screaming and Crying (CD2) (3)
--------------------------------------------------------------------------------

DR Peak RMS Duration Track
--------------------------------------------------------------------------------
DR10 -1.53 dB -13.52 dB 2:55 01-Let Me Love You Baby - 1961
DR9 -1.49 dB -12.94 dB 2:23 18-Mad Lad - 1960
DR10 -1.05 dB -12.97 dB 2:51 21-Dirty Work At The Crossroads - 1953
--------------------------------------------------------------------------------

Number of tracks: 3
Official DR value: DR10

Samplerate: 44100 Hz
Channels: 2
Bits per sample: 16
Bitrate: 400 kbps
Codec: FLAC
================================================================================

--------------------------------------------------------------------------------
Analyzed: Doctor Ross / Screaming and Crying (CD2) (1)
Elmore James / Screaming and Crying (CD2) (2)
Freddy King / Screaming and Crying (CD2) (3)
Guitar Shorty / Screaming and Crying (CD2) (4)
--------------------------------------------------------------------------------

DR Peak RMS Duration Track
--------------------------------------------------------------------------------
DR12 -0.27 dB -14.68 dB 2:37 06-The Boogie Disease - 1954
DR8 -2.04 dB -11.61 dB 2:18 17-I Can't Hold Out - 1960
DR12 -1.52 dB -15.30 dB 3:08 19-Have You Ever Loved A Woman - 1960
DR9 0.00 dB -10.37 dB 2:10 24-Irma Lee - 1957
--------------------------------------------------------------------------------

Number of tracks: 4
Official DR value: DR10

Samplerate: 44100 Hz
Channels: 2
Bits per sample: 16
Bitrate: 400 kbps
Codec: FLAC
================================================================================

--------------------------------------------------------------------------------
Statistics for: 14-A Letter To My Girl Friend - 1954
Number of samples: 5777688
Duration: 2:11
--------------------------------------------------------------------------------

Left Right

Peak Value: 0.00 dB --- 0.00 dB
Avg RMS: -13.63 dB --- -13.63 dB
DR channel: 11.20 dB --- 11.20 dB
--------------------------------------------------------------------------------

Official DR Value: DR11

Samplerate: 44100 Hz
Channels: 2
Bits per sample: 16
Bitrate: 400 kbps
Codec: FLAC
================================================================================
--------------------------------------------------------------------------------
Analyzed: Icky Renrut (Ike Turner) / Screaming and Crying (CD2) (1)
Jerry Thomas (Lafayette Thomas) / Screaming and Crying (CD2) (2)
--------------------------------------------------------------------------------

DR Peak RMS Duration Track
--------------------------------------------------------------------------------
DR7 -3.86 dB -12.11 dB 2:29 08-Ho...Ho - 1959
DR8 -1.31 dB -12.10 dB 2:43 16-Jumpin In The Heart Of Town - 1954
--------------------------------------------------------------------------------

Number of tracks: 2
Official DR value: DR8

Samplerate: 44100 Hz
Channels: 2
Bits per sample: 16
Bitrate: 400 kbps
Codec: FLAC
================================================================================

--------------------------------------------------------------------------------
Statistics for: 13-Strollin With Nolen - 1956
Number of samples: 6423312
Duration: 2:26
--------------------------------------------------------------------------------

Left Right

Peak Value: -0.76 dB --- -0.76 dB
Avg RMS: -13.56 dB --- -13.56 dB
DR channel: 10.81 dB --- 10.81 dB
--------------------------------------------------------------------------------

Official DR Value: DR11

Samplerate: 44100 Hz
Channels: 2
Bits per sample: 16
Bitrate: 400 kbps
Codec: FLAC
================================================================================
--------------------------------------------------------------------------------
Analyzed: Jimmy Reed feat. Eddie Taylor (Guitar) / Screaming and Crying (CD2) (1)
John Lee Hooker / Screaming and Crying (CD2) (2)
--------------------------------------------------------------------------------

DR Peak RMS Duration Track
--------------------------------------------------------------------------------
DR11 0.00 dB -12.59 dB 2:15 09-Ain't That Lovin You Baby - 1956
DR10 0.00 dB -12.24 dB 2:40 23-Wobbling Baby - 1959
--------------------------------------------------------------------------------

Number of tracks: 2
Official DR value: DR11

Samplerate: 44100 Hz
Channels: 2
Bits per sample: 16
Bitrate: 400 kbps
Codec: FLAC
================================================================================

--------------------------------------------------------------------------------
Statistics for: 05-If You Love Me Baby - 1954
Number of samples: 6857844
Duration: 2:36
--------------------------------------------------------------------------------

Left Right

Peak Value: 0.00 dB --- 0.00 dB
Avg RMS: -12.63 dB --- -12.63 dB
DR channel: 10.64 dB --- 10.64 dB
--------------------------------------------------------------------------------

Official DR Value: DR11

Samplerate: 44100 Hz
Channels: 2
Bits per sample: 16
Bitrate: 400 kbps
Codec: FLAC
================================================================================
--------------------------------------------------------------------------------
Analyzed: Lowell Fulson / Screaming and Crying (CD2) (1)
Mickey Baker With Bill Hendricks Orchestra / Screaming and Crying (CD2) (2)
Otis Rush & His Band / Screaming and Crying (CD2) (3)
--------------------------------------------------------------------------------

DR Peak RMS Duration Track
--------------------------------------------------------------------------------
DR12 -1.41 dB -14.36 dB 3:11 02-Reconsider Baby - 1954
DR10 -0.14 dB -11.85 dB 2:18 15-Spinnin Rock Boogie - 1957
DR9 -0.31 dB -11.20 dB 2:45 20-Double Trouble - 1959
--------------------------------------------------------------------------------

Number of tracks: 3
Official DR value: DR10

Samplerate: 44100 Hz
Channels: 2
Bits per sample: 16
Bitrate: 400 kbps
Codec: FLAC
================================================================================

--------------------------------------------------------------------------------
Analyzed: Pee Wee Crayton & His Guitars / Screaming and Crying (CD2) (1)
Rocky Thompson (Goree Carter) / Screaming and Crying (CD2) (2)
--------------------------------------------------------------------------------

DR Peak RMS Duration Track
--------------------------------------------------------------------------------
DR8 -1.51 dB -11.20 dB 3:07 04-Texas Hop - 1948
DR12 -0.56 dB -14.28 dB 2:38 22-Bull Corn Blues - 1951
--------------------------------------------------------------------------------

Number of tracks: 2
Official DR value: DR10

Samplerate: 44100 Hz
Channels: 2
Bits per sample: 16
Bitrate: 400 kbps
Codec: FLAC
================================================================================

--------------------------------------------------------------------------------
Analyzed: Rudy Green / Screaming and Crying (CD2) (1)
T-Bone Walker / Screaming and Crying (CD2) (2)
Young John Watson (Johnny 'Guitar' Watson) / Screaming and Crying (CD2) (3)
--------------------------------------------------------------------------------

DR Peak RMS Duration Track
--------------------------------------------------------------------------------
DR8 -1.91 dB -12.53 dB 2:53 07-Cool Lovin Mama - 1956
DR13 -0.61 dB -15.76 dB 2:49 10-Blues Is A Woman - 1952
DR9 -0.48 dB -12.18 dB 2:40 25-Space Guitar - 1954
--------------------------------------------------------------------------------

Number of tracks: 3
Official DR value: DR10

Samplerate: 44100 Hz
Channels: 2
Bits per sample: 16
Bitrate: 400 kbps
Codec: FLAC
================================================================================

foobar2000 1.2 / Dynamic Range Meter 1.1.1
log date: 2015-08-27 18:59:19

--------------------------------------------------------------------------------
Statistics for: 12-I've Made Nights By Myself - 1960
Number of samples: 6907824
Duration: 2:37
--------------------------------------------------------------------------------

Left Right

Peak Value: -0.05 dB --- -0.05 dB
Avg RMS: -13.72 dB --- -13.72 dB
DR channel: 12.01 dB --- 12.01 dB
--------------------------------------------------------------------------------

Official DR Value: DR12

Samplerate: 44100 Hz
Channels: 2
Bits per sample: 16
Bitrate: 400 kbps
Codec: FLAC
================================================================================


Exact Audio Copy V1.0 beta 1 from 15. November 2010

EAC extraction logfile from 11. August 2012, 0:07

Various / Screaming and Crying (CD3)

Used drive : Optiarc DVD RW AD-5200S Adapter: 2 ID: 0

Read mode : Secure
Utilize accurate stream : Yes
Defeat audio cache : Yes
Make use of C2 pointers : No

Read offset correction : 48
Overread into Lead-In and Lead-Out : No
Fill up missing offset samples with silence : Yes
Delete leading and trailing silent blocks : No
Null samples used in CRC calculations : Yes
Used interface : Native Win32 interface for Win NT & 2000

Used output format : User Defined Encoder
Selected bitrate : 1024 kBit/s
Quality : High
Add ID3 tag : No
Command line compressor : C:Program Files (x86)Exact Audio CopyFLACFLAC.EXE
Additional command line options : -8 -V %s


TOC of the extracted CD

Track | Start | Length | Start sector | End sector
---------------------------------------------------------
1 | 0:00.00 | 2:27.22 | 0 | 11046
2 | 2:27.22 | 3:09.63 | 11047 | 25284
3 | 5:37.10 | 2:47.40 | 25285 | 37849
4 | 8:24.50 | 3:15.56 | 37850 | 52530
5 | 11:40.31 | 2:57.18 | 52531 | 65823
6 | 14:37.49 | 2:57.21 | 65824 | 79119
7 | 17:34.70 | 2:45.33 | 79120 | 91527
8 | 20:20.28 | 3:13.06 | 91528 | 106008
9 | 23:33.34 | 2:52.50 | 106009 | 118958
10 | 26:26.09 | 3:12.23 | 118959 | 133381
11 | 29:38.32 | 2:55.14 | 133382 | 146520
12 | 32:33.46 | 2:40.23 | 146521 | 158543
13 | 35:13.69 | 3:49.21 | 158544 | 175739
14 | 39:03.15 | 2:15.40 | 175740 | 185904
15 | 41:18.55 | 2:50.55 | 185905 | 198709
16 | 44:09.35 | 2:21.48 | 198710 | 209332
17 | 46:31.08 | 3:54.57 | 209333 | 226939
18 | 50:25.65 | 2:33.17 | 226940 | 238431
19 | 52:59.07 | 2:57.58 | 238432 | 251764
20 | 55:56.65 | 3:13.35 | 251765 | 266274
21 | 59:10.25 | 3:07.24 | 266275 | 280323
22 | 62:17.49 | 2:33.52 | 280324 | 291850
23 | 64:51.26 | 2:14.66 | 291851 | 301966
24 | 67:06.17 | 2:33.12 | 301967 | 313453
25 | 69:39.29 | 2:24.13 | 313454 | 324266


Range status and errors

Selected range

Filename G:DownloadМузыка LossLessVarious Artists - Screaming and CryingCD3Various - Screaming and Crying (CD3).wav

Peak level 100.0 %
Extraction speed 0.1 X
Range quality 100.0 %
Test CRC B84F7E0C
Copy CRC B84F7E0C
Copy OK

No errors occurred


AccurateRip summary

Track 1 not present in database
Track 2 not present in database
Track 3 not present in database
Track 4 not present in database
Track 5 not present in database
Track 6 not present in database
Track 7 not present in database
Track 8 not present in database
Track 9 not present in database
Track 10 not present in database
Track 11 not present in database
Track 12 not present in database
Track 13 not present in database
Track 14 not present in database
Track 15 not present in database
Track 16 not present in database
Track 17 not present in database
Track 18 not present in database
Track 19 not present in database
Track 20 not present in database
Track 21 not present in database
Track 22 not present in database
Track 23 not present in database
Track 24 not present in database
Track 25 not present in database

None of the tracks are present in the AccurateRip database

End of status report

foobar2000 1.2 / Dynamic Range Meter 1.1.1
log date: 2015-08-27 18:59:37

--------------------------------------------------------------------------------
Analyzed: B.B. 'Blues Boy' King & His Orchestra / Screaming and Crying (CD3) (1)
Bo Diddley / Screaming and Crying (CD3) (2)
Cal Green & His Orchestra / Screaming and Crying (CD3) (3)
Chuck Berry & His Combo / Screaming and Crying (CD3) (4)
--------------------------------------------------------------------------------

DR Peak RMS Duration Track
--------------------------------------------------------------------------------
DR12 0.00 dB -14.57 dB 2:55 11-When My Heart Beats Like A Hammer - 1954
DR14 -1.49 dB -17.21 dB 2:51 15-Mumblin Guitar - 1960
DR10 -0.71 dB -12.76 dB 2:33 18-The Big Push - 1958
DR6 -3.57 dB -12.43 dB 2:24 25-Roll Over Beethoven - 1956
--------------------------------------------------------------------------------

Number of tracks: 4
Official DR value: DR10

Samplerate: 44100 Hz
Channels: 2
Bits per sample: 16
Bitrate: 410 kbps
Codec: FLAC
================================================================================

--------------------------------------------------------------------------------
Analyzed: Earl Hooker / Screaming and Crying (CD3) (1)
Eddie Taylor / Screaming and Crying (CD3) (2)
--------------------------------------------------------------------------------

DR Peak RMS Duration Track
--------------------------------------------------------------------------------
DR10 -0.87 dB -12.49 dB 2:48 03-Blue Guitar - 1953
DR12 0.00 dB -14.40 dB 2:33 24-You'll Always Have A Home - 1956
--------------------------------------------------------------------------------

Number of tracks: 2
Official DR value: DR11

Samplerate: 44100 Hz
Channels: 2
Bits per sample: 16
Bitrate: 410 kbps
Codec: FLAC
================================================================================

--------------------------------------------------------------------------------
Statistics for: 07-The Sun Is Shining - 1960
Number of samples: 7295904
Duration: 2:45
--------------------------------------------------------------------------------

Left Right

Peak Value: -1.53 dB --- -1.53 dB
Avg RMS: -13.55 dB --- -13.55 dB
DR channel: 10.13 dB --- 10.13 dB
--------------------------------------------------------------------------------

Official DR Value: DR10

Samplerate: 44100 Hz
Channels: 2
Bits per sample: 16
Bitrate: 410 kbps
Codec: FLAC
================================================================================
--------------------------------------------------------------------------------
Analyzed: Freddy King / Screaming and Crying (CD3) (1)
Goree Carter / Screaming and Crying (CD3) (2)
Guitar Shorty / Screaming and Crying (CD3) (3)
--------------------------------------------------------------------------------

DR Peak RMS Duration Track
--------------------------------------------------------------------------------
DR13 -1.22 dB -16.85 dB 3:16 04-You've Got To Love Her With A Feeling - 1961
DR11 0.00 dB -12.80 dB 2:58 19-Hoy-Hoy - 1949
DR10 0.00 dB -10.73 dB 2:15 23-You Don't Treat Me Right - 1957
--------------------------------------------------------------------------------

Number of tracks: 3
Official DR value: DR11

Samplerate: 44100 Hz
Channels: 2
Bits per sample: 16
Bitrate: 410 kbps
Codec: FLAC
================================================================================

--------------------------------------------------------------------------------
Statistics for: 12-After Hours - 1956
Number of samples: 7069524
Duration: 2:40
--------------------------------------------------------------------------------

Left Right

Peak Value: 0.00 dB --- 0.00 dB
Avg RMS: -13.61 dB --- -13.61 dB
DR channel: 11.45 dB --- 11.45 dB
--------------------------------------------------------------------------------

Official DR Value: DR11

Samplerate: 44100 Hz
Channels: 2
Bits per sample: 16
Bitrate: 410 kbps
Codec: FLAC
================================================================================
--------------------------------------------------------------------------------
Statistics for: 08-Honey, Where You Going - 1957
Number of samples: 8514828
Duration: 3:13
--------------------------------------------------------------------------------

Left Right

Peak Value: 0.00 dB --- 0.00 dB
Avg RMS: -16.59 dB --- -16.59 dB
DR channel: 13.59 dB --- 13.59 dB
--------------------------------------------------------------------------------

Official DR Value: DR14

Samplerate: 44100 Hz
Channels: 2
Bits per sample: 16
Bitrate: 410 kbps
Codec: FLAC
================================================================================
--------------------------------------------------------------------------------
Analyzed: John Lee Hooker / Screaming and Crying (CD3) (1)
L. J. Thomas & His Louisiana Playboy (Lafayette Thomas) / Screaming and Crying (CD3) (2)
Larry Dale feat. Mickey Baker (Guitar) / Screaming and Crying (CD3) (3)
--------------------------------------------------------------------------------

DR Peak RMS Duration Track
--------------------------------------------------------------------------------
DR9 -1.78 dB -12.51 dB 2:27 01-Gotta Boogie - 1954
DR12 0.00 dB -12.92 dB 2:53 09-Sam's Drag - 1952
DR7 -4.35 dB -12.01 dB 2:34 22-Please Tell Me - 1954
--------------------------------------------------------------------------------

Number of tracks: 3
Official DR value: DR9

Samplerate: 44100 Hz
Channels: 2
Bits per sample: 16
Bitrate: 410 kbps
Codec: FLAC
================================================================================

--------------------------------------------------------------------------------
Analyzed: Little Milton / Screaming and Crying (CD3) (1)
Lowell Fulson & His Orchestra / Screaming and Crying (CD3) (2)
--------------------------------------------------------------------------------

DR Peak RMS Duration Track
--------------------------------------------------------------------------------
DR11 -1.79 dB -14.26 dB 3:12 10-I Found Me A New Love - 1959
DR12 -1.87 dB -16.35 dB 2:22 16-Chuck With The Boys - 1953
--------------------------------------------------------------------------------

Number of tracks: 2
Official DR value: DR12

Samplerate: 44100 Hz
Channels: 2
Bits per sample: 16
Bitrate: 410 kbps
Codec: FLAC
================================================================================

--------------------------------------------------------------------------------
Statistics for: 14-Look Whatcha Done - 1958
Number of samples: 5977020
Duration: 2:16
--------------------------------------------------------------------------------

Left Right

Peak Value: -1.05 dB --- -1.05 dB
Avg RMS: -13.79 dB --- -13.79 dB
DR channel: 11.03 dB --- 11.03 dB
--------------------------------------------------------------------------------

Official DR Value: DR11

Samplerate: 44100 Hz
Channels: 2
Bits per sample: 16
Bitrate: 410 kbps
Codec: FLAC
================================================================================
--------------------------------------------------------------------------------
Analyzed: Muddy Waters / Screaming and Crying (CD3) (1)
Otis Rush / Screaming and Crying (CD3) (2)
Pee Wee Crayton / Screaming and Crying (CD3) (3)
--------------------------------------------------------------------------------

DR Peak RMS Duration Track
--------------------------------------------------------------------------------
DR12 -0.40 dB -16.10 dB 2:57 05-Blow Wind Blow - 1961
DR13 -0.32 dB -14.64 dB 3:13 20-So Many Roads, So Many Trains - 1960
DR12 0.00 dB -13.81 dB 3:07 21-A Frosty Night - 1956
--------------------------------------------------------------------------------

Number of tracks: 3
Official DR value: DR12

Samplerate: 44100 Hz
Channels: 2
Bits per sample: 16
Bitrate: 410 kbps
Codec: FLAC
================================================================================

--------------------------------------------------------------------------------
Statistics for: 13-I'm A Stranger - 1960
Number of samples: 10111248
Duration: 3:49
--------------------------------------------------------------------------------

Left Right

Peak Value: -1.51 dB --- -1.51 dB
Avg RMS: -15.27 dB --- -15.27 dB
DR channel: 11.99 dB --- 11.99 dB
--------------------------------------------------------------------------------

Official DR Value: DR12

Samplerate: 44100 Hz
Channels: 2
Bits per sample: 16
Bitrate: 410 kbps
Codec: FLAC
================================================================================
--------------------------------------------------------------------------------
Analyzed: T-Bone Walker / Screaming and Crying (CD3) (1)
Tiny Grimes His Guitar & Rocking Highlanders / Screaming and Crying (CD3) (2)
--------------------------------------------------------------------------------

DR Peak RMS Duration Track
--------------------------------------------------------------------------------
DR12 0.00 dB -15.32 dB 3:10 02-Through With Women - 1961
DR11 0.00 dB -12.27 dB 2:57 06-Rockin The Blues Away - 1952
--------------------------------------------------------------------------------

Number of tracks: 2
Official DR value: DR12

Samplerate: 44100 Hz
Channels: 2
Bits per sample: 16
Bitrate: 410 kbps
Codec: FLAC
================================================================================
foobar2000 1.2 / Dynamic Range Meter 1.1.1
log date: 2015-08-27 18:59:35

--------------------------------------------------------------------------------
Statistics for: 17-Ooh-Ee Baby - 1959
Number of samples: 10352916
Duration: 3:55
--------------------------------------------------------------------------------

Left Right

Peak Value: -1.66 dB --- -1.66 dB
Avg RMS: -15.52 dB --- -15.52 dB
DR channel: 11.56 dB --- 11.56 dB
--------------------------------------------------------------------------------

Official DR Value: DR12

Samplerate: 44100 Hz
Channels: 2
Bits per sample: 16
Bitrate: 410 kbps
Codec: FLAC
================================================================================



All thanks to original releaser - gerrV





Password: designol