Donna Summer - 8 Albums (1975-1979) Japanese Mini LP SHM-CD Collection 2012 [Re-Up]


Donna Summer - 8 Albums (1975-1979) Japanese Mini LP SHM-CD Collection 2012
EAC | FLAC | Image (Cue&Log) ~ 3.6 Gb (incl 5%) | Mp3 (CBR320) ~ 1.2 Gb (incl 5%) | Scans ~ 1.87 Gb
Genre: Disco, Dance Pop, R&B | Label: Universal Music Japan | # UICY-75296~75304 | Time: 08:33:10

Part of a eight-album Donna Summer SHM-CD cardboard sleeve reissue series featuring albums "Love To Love You Baby", "A Love Trilogy", "Four Seasons Of Love", "Remember Yesterday", "Once Upon a Time", "Live And More", "Bad Girls", and "On The Radio".


Donna Summer's title as the "Queen of Disco" wasn't mere hype -- she was one of the very few disco performers to enjoy a measure of career longevity, and her consistent chart success was rivaled in the disco world only by the Bee Gees. Summer was certainly a talented vocalist, trained as a powerful gospel belter, but then again, so were many of her contemporaries. Of major importance in setting Summer apart were her songwriting abilities and her choice of talented collaborators in producers/songwriters Giorgio Moroder and Pete Bellotte, which resulted in a steady supply of high-quality (and, often, high-concept) material. But what was more, few vocalists could match the sultry, unfettered eroticism Summer brought to many of her best recordings, which seemed to embody the spirit of the disco era perfectly. The total package made Summer the ultimate disco diva, one of the few whose star power was even bigger than the music.

Summer was born LaDonna Andre Gaines on December 31, 1948, and grew up in Boston's Mission Hill section. Part of a religious family, she first sang in her church's gospel choir, and as a teenager performed with a rock group called the Crow. After high school, she moved to New York to sing and act in stage productions, and soon landed a role in a German production of Hair. She moved to Europe around 1968-1969, and spent a year in the German cast, after which she became part of the Hair company in Vienna. She joined the Viennese Folk Opera, and later returned to Germany, where she settled in Munich and met and married Helmut Sommer, adopting an Anglicized version of his last name. Summer performed in various stage musicals and worked as a studio vocalist in Munich, recording demos and background vocals. Her first solo recording was 1971's "Sally Go 'Round the Roses," but success would not come until 1974, when she met producers/songwriters Giorgio Moroder and Pete Bellotte while working on a Three Dog Night record. The three teamed up for the single "The Hostage," which became a hit around Western Europe, and Summer released her first album, Lady of the Night, in Europe only. In 1975, the trio recorded "Love to Love You Baby," a disco-fied reimagining of Serge Gainsbourg and Jane Birkin's lush, heavy-breathing opus "Je T'aime...Moi Non Plus." Powered by Summer's graphic moans, "Love to Love You Baby" became a massive hit in Europe, and drew the attention of Casablanca Records, which put the track out in America. It climbed to number two on the singles charts, and became a dance club sensation when Moroder remixed the track into a 17-minute, side-long epic on the LP of the same name.

In the wake of "Love to Love You Baby," albums (as opposed to just singles) became an important forum for Summer and her producers. The 1976 follow-up Love Trilogy contained another side-long suite in "Try Me (I Know We Can Make It Work)," and demonstrated Moroder and Bellotte's growing sophistication as arrangers with its lush, sweeping strings. Four Seasons of Love, released later in the year, was a concept album with one track dedicated to each season, and 1977's I Remember Yesterday featured a variety of genre exercises. Despite the album's title, it produced the most forward-looking single in Summer and Moroder's catalog, the monumental "I Feel Love." Eschewing the strings and typical disco excess, "I Feel Love" was the first major pop hit recorded with an entirely synthesized backing track; its lean, sleek arrangement and driving, hypnotic pulse laid the groundwork not only for countless Euro-dance imitators, but also for the techno revolution of the '80s and '90s. It became Summer's second Top Ten hit in the U.S., and she followed it with Once Upon a Time, another concept album, this one retelling the story of Cinderella for the disco era.

Summer's albums were selling well, bolstered by her popularity in the dance clubs, and she was poised to become a major pop hitmaker as well. Her acting turn in the 1978 disco-themed comedy Thank God It's Friday produced another hit in "Last Dance," which won her a Grammy for Best Female R&B Vocal (as well as an Oscar for songwriter Paul Jabara). Doubtlessly benefiting from the added exposure, the double-LP set Live and More became Summer's first number one album later that year. It featured one side of new studio material, including a disco cover of the psychedelic pop epic "MacArthur Park" that became her first number one pop single early the next year. Her 1979 double-LP Bad Girls featured more of her songwriting contributions than ever, and went straight to number one, as did the lusty singles "Bad Girls" and the rock-oriented "Hot Stuff," which made Summer the first female artist ever to score three number one singles in the same calendar year. Her greatest-hits package On the Radio also topped the charts, the first time any artist had ever hit number one with three consecutive double LPs; the newly recorded title track became another hit, and Summer's duet with Barbra Streisand, "No More Tears (Enough Is Enough)," became her fourth number one single.

At the peak of her success, Summer decided to leave Casablanca, and became the first artist signed to the new Geffen label. Sensing that the disco era was coming to a close, Summer attempted to modify her style to include more R&B and pop/rock on her first Geffen album, 1980's The Wanderer; the album and its title track were both hits. Not wanting to alienate her core audience, Summer returned to pure dance music on an attempted follow-up; however, Geffen deemed I'm a Rainbow not worthy of release (it was finally issued in 1996). Instead, Summer ended her collaboration with Moroder and Bellotte and teamed up with Quincy Jones for 1982's Donna Summer. "Love Is in Control (Finger on the Trigger)" was a significant hit, but none of its follow-ups did very well. With producer Michael Omartian, Summer moved back into post-disco dance music and urban R&B with 1983's She Works Hard for the Money; its title track was a smash and became a feminist anthem of sorts.

However, with her career momentum slowing, it also marked the end of Summer's prime. Despite winning a gospel Grammy for "Forgive Me," Summer's 1984 follow-up Cats Without Claws flopped, as did the 1987 comeback effort All Systems Go. Hiring the British production team of Stock, Aitken & Waterman, Summer scored her last major success with the 1989 Top Ten single "This Time I Know It's for Real," from the album Another Place & Time; around the same time, she began denouncing her earlier, "sinful" disco material. Released in 1991, the lackluster, urban-styled Mistaken Identity effectively killed her career momentum, and none of her new '90s albums produced that elusive hit. However, she did make some noise on the dance charts with "Melody of Love," from the excellent 1994 retrospective Endless Summer, and reunited with Moroder for the 1997 non-LP single "Carry On," which won the inaugural Grammy for Best Dance Recording. Summer subsequently signed a deal with Sony, which primed her for re-establishment with the 1999 greatest-hits live album VH1 Presents: Live and More Encore!; it featured the new song "I Will Go With You (Con Te Partiro)," which had some success on the dance charts. The energetic and eclectic Crayons, her first proper studio album since Mistaken Identity, was released on the Burgundy label in 2008. She remained intermittently active with concert and TV appearances during the next several years, and released the "To Paris with Love" single in August 2010. After battling lung cancer, Donna Summer died at her home in Naples, Florida on May 17, 2012; she was 63 years old.

Biography by Steve Huey, Allmusic.com




-------------------------------------------------------------------------------



Donna Summer - Love To Love You Baby (1975) Mini LP SHM-CD Reissue 2012
EAC | FLAC | Image (Cue&Log) ~ 254 Mb (incl 5%) | Mp3 (CBR320) ~ 87 Mb (incl 5%) | Scans ~ 148 Mb
Label: Universal Music Japan | # UICY-75296 | Time: 00:36:31

"Love to Love You Baby"'s 16 minutes and 48 seconds of arousal and refill -- ticklishly sensitive rhythm and fusion -- threw disco into a tizzy overnight, but the tonally starved blues-of-isolation on the B-side isn't to be missed, either: the broken promises Donna Summer bemoans in "Full of Emptiness"; "Need-a-Man Blues," with its unrequitedly sexy guitar rhythm as out of range of Summer's voice as she of satisfaction; the imaginary seaside hold-me in "Whispering Waves"; and "Pandora's Box," where Summer and guitar scream icily at one another as they turn their backs on each other's body music. Hunger without recourse; essential disco.

Review by Michael Freedberg, Allmusic.com


Tracklist:

01. Love To Love You Baby (16:49)
02. Full Of Emptiness (02:30)
03. Need-A-Man Blues (04:46)
04. Whispering Waves (05:00)
05. Pandora's Box (05:01)
06. Full Of Emptiness (Reprise) (02:22)


Exact Audio Copy V1.0 beta 3 from 29. August 2011

EAC extraction logfile from 16. August 2012, 19:11

Donna Summer / Love To Love You Baby

Used drive : HL-DT-STDVDRAM GSA-H60N Adapter: 2 ID: 0

Read mode : Secure
Utilize accurate stream : Yes
Defeat audio cache : Yes
Make use of C2 pointers : No

Read offset correction : 667
Overread into Lead-In and Lead-Out : No
Fill up missing offset samples with silence : Yes
Delete leading and trailing silent blocks : No
Null samples used in CRC calculations : Yes
Used interface : Native Win32 interface for Win NT & 2000

Used output format : Internal WAV Routines
Sample format : 44.100 Hz; 16 Bit; Stereo


TOC of the extracted CD

Track | Start | Length | Start sector | End sector
---------------------------------------------------------
1 | 0:00.00 | 16:49.34 | 0 | 75708
2 | 16:49.34 | 2:30.55 | 75709 | 87013
3 | 19:20.14 | 4:46.14 | 87014 | 108477
4 | 24:06.28 | 5:00.25 | 108478 | 131002
5 | 29:06.53 | 5:01.67 | 131003 | 153644
6 | 34:08.45 | 2:22.57 | 153645 | 164351


Range status and errors

Selected range

Filename C:Documents and SettingsAdminРабочий столRip by ALLexxessDonna Summer1975 Love To Love You Baby (Universal Music Japan Mini LP SHM-CD 2012)Donna Summer - Love To Love You Baby.wav

Peak level 100.0 %
Extraction speed 5.0 X
Range quality 100.0 %
Test CRC D19CECDD
Copy CRC D19CECDD
Copy OK

No errors occurred


AccurateRip summary

Track 1 not present in database
Track 2 not present in database
Track 3 not present in database
Track 4 not present in database
Track 5 not present in database
Track 6 not present in database

None of the tracks are present in the AccurateRip database

End of status report

==== Log checksum 240D853A232515CA02683BB3BF7F90E68D1B94E2733CD48A73018F3867652DF7 ====


-------------------------------------------------------------------------------



Donna Summer - A Love Trilogy (1976) Mini LP SHM-CD Reissue 2012
EAC | FLAC | Image (Cue&Log) ~ 246 Mb (incl 5%) | Mp3 (CBR320) ~ 81 Mb (incl 5%) | Scans ~ 151 Mb
Label: Universal Music Japan | # UICY-75297 | Time: 00:33:54

Donna Summer's quizzical "Try Me, I Know We Can Make It" wings her nervous little falsetto from risk to dare and from dare to mad hope, and her rhythm section gropes from testy touch-beats to tightrope walkers' guitar figures and safety-net harmonies. The remaining four tracks substitute dances with imaginary lovers for her debut album's love starvation blues. Don't dismiss these subtle mood poems the way fans of "Love to Love You" sped right past the B-side of Summer's debut; the flightier Summer plays a rhythm, the dicier her resolution.

Review by Michael Freedberg, Allmusic.com


Tracklist:

01. Try Me, I Know We Can Make It (17:55)
02. Prelude To Love (01:06)
03. Could It Be Magic (05:17)
04. Wasted (05:12)
05. Come With Me (04:21)


Exact Audio Copy V1.0 beta 3 from 29. August 2011

EAC extraction logfile from 16. August 2012, 17:53

Donna Summer / A Love Trilogy

Used drive : HL-DT-STDVDRAM GSA-H60N Adapter: 2 ID: 0

Read mode : Secure
Utilize accurate stream : Yes
Defeat audio cache : Yes
Make use of C2 pointers : No

Read offset correction : 667
Overread into Lead-In and Lead-Out : No
Fill up missing offset samples with silence : Yes
Delete leading and trailing silent blocks : No
Null samples used in CRC calculations : Yes
Used interface : Native Win32 interface for Win NT & 2000

Used output format : Internal WAV Routines
Sample format : 44.100 Hz; 16 Bit; Stereo


TOC of the extracted CD

Track | Start | Length | Start sector | End sector
---------------------------------------------------------
1 | 0:00.00 | 17:55.67 | 0 | 80691
2 | 17:55.67 | 1:06.49 | 80692 | 85690
3 | 19:02.41 | 5:17.41 | 85691 | 109506
4 | 24:20.07 | 5:12.56 | 109507 | 132962
5 | 29:32.63 | 4:21.35 | 132963 | 152572


Range status and errors

Selected range

Filename C:Documents and SettingsAdminРабочий столRip by ALLexxessDonna Summer1976 A Love Trilogy (Universal Music Japan Mini LP SHM-CD 2012)Donna Summer - A Love Trilogy.wav

Peak level 100.0 %
Extraction speed 5.4 X
Range quality 100.0 %
Test CRC DE3F4659
Copy CRC DE3F4659
Copy OK

No errors occurred


AccurateRip summary

Track 1 not present in database
Track 2 not present in database
Track 3 not present in database
Track 4 not present in database
Track 5 not present in database

None of the tracks are present in the AccurateRip database

End of status report

==== Log checksum 5C197D8F1FAA3746AD484D5FAE247498EB8345BB39E78251E75F3709A660F963 ====


-------------------------------------------------------------------------------



Donna Summer - Four Seasons Of Love (1976) Mini LP SHM-CD Reissue 2012
EAC | FLAC | Image (Cue&Log) ~ 224 Mb (incl 5%) | Mp3 (CBR320) ~ 77 Mb (incl 5%) | Scans ~ 147 Mb
Label: Universal Music Japan | # UICY-75298 | Time: 00:32:25

One is inclined to resist this package of self-conscious stardom concepts -- the LP version sported its own 1977 calendar featuring La Summer dressed up as winter, spring, summer, and Marilyn Monroe vamping on the subway grating (fall, presumably), and the four "seasonal" dancey suites promise more and say less than the typical Summer intimate "touch-me" would deliver without any hype. Fortunately, the music has a mind of its own. The rhythms push and go poof as delicately as ever; the horn section mutes and jazzes the melody; the beats stop, run, and stop again whenever they damn please; and Summer expresses private rapture in falsetto as she smooches, oohs, and ahs onto the mix like lipstick traces. Oh, rapture indeed.

Review by Michael Freedberg, Allmusic.com


Tracklist:

01. Spring Affair (08:31)
02. Summer Fever (08:03)
03. Autumn Changes (05:29)
04. Winter Melody (06:33)
05. Spring Reprise (03:47)


Exact Audio Copy V1.0 beta 3 from 29. August 2011

EAC extraction logfile from 16. August 2012, 8:57

Donna Summer / Four Seasons Of Love

Used drive : HL-DT-STDVDRAM GSA-H60N Adapter: 2 ID: 0

Read mode : Secure
Utilize accurate stream : Yes
Defeat audio cache : Yes
Make use of C2 pointers : No

Read offset correction : 667
Overread into Lead-In and Lead-Out : No
Fill up missing offset samples with silence : Yes
Delete leading and trailing silent blocks : No
Null samples used in CRC calculations : Yes
Used interface : Native Win32 interface for Win NT & 2000

Used output format : Internal WAV Routines
Sample format : 44.100 Hz; 16 Bit; Stereo


TOC of the extracted CD

Track | Start | Length | Start sector | End sector
---------------------------------------------------------
1 | 0:00.00 | 8:31.20 | 0 | 38344
2 | 8:31.20 | 8:03.55 | 38345 | 74624
3 | 16:35.00 | 5:29.15 | 74625 | 99314
4 | 22:04.15 | 6:33.23 | 99315 | 128812
5 | 28:37.38 | 3:47.01 | 128813 | 145838


Range status and errors

Selected range

Filename C:Documents and SettingsAdminРабочий столRip by ALLexxessDonna Summer1976 Four Seasons Of Love (Universal Music Japan Mini LP SHM-CD 2012)Donna Summer - Four Seasons Of Love.wav

Peak level 100.0 %
Extraction speed 5.2 X
Range quality 99.9 %
Test CRC 28D6FA5C
Copy CRC 28D6FA5C
Copy OK

No errors occurred


AccurateRip summary

Track 1 not present in database
Track 2 not present in database
Track 3 not present in database
Track 4 not present in database
Track 5 not present in database

None of the tracks are present in the AccurateRip database

End of status report

==== Log checksum C7309EC87D699E47EA18D2F7C2614B7503209BF683E448A8CB0C8C1AE5C215F4 ====


-------------------------------------------------------------------------------



Donna Summer - I Remember Yesterday (1977) Mini LP SHM-CD Reissue 2012
EAC | FLAC | Image (Cue&Log) ~ 253 Mb (incl 5%) | Mp3 (CBR320) ~ 86 Mb (incl 5%) | Scans ~ 156 Mb
Label: Universal Music Japan | # UICY-75299 | Time: 00:34:48

Donna Summer continued her climb to superstardom with this late-'70s album, her first since the attention-grabbing Love To Love You Baby album in 1975 to crack the pop Top 20. The single "I Feel Love" was her second Top 10 R&B and pop hit, and paved the way for Summer to emerge shortly after as disco's reigning queen.

Review by Ron Wynn, Allmusic.com


Tracklist:

01. I Remember Yesterday (04:48)
02. Love's Unkind (04:28)
03. Back In Love Again (03:58)
04. I Remember Yesterday (Reprise) (03:09)
05. Black Lady (03:51)
06. Take Me (05:06)
07. Can't We Just Sit Down (And Talk It Over) (04:28)
08. I Feel Love (05:57)


Exact Audio Copy V1.0 beta 3 from 29. August 2011

EAC extraction logfile from 16. August 2012, 17:05

Donna Summer / I Remember Yesterday

Used drive : HL-DT-STDVDRAM GSA-H60N Adapter: 2 ID: 0

Read mode : Secure
Utilize accurate stream : Yes
Defeat audio cache : Yes
Make use of C2 pointers : No

Read offset correction : 667
Overread into Lead-In and Lead-Out : No
Fill up missing offset samples with silence : Yes
Delete leading and trailing silent blocks : No
Null samples used in CRC calculations : Yes
Used interface : Native Win32 interface for Win NT & 2000

Used output format : Internal WAV Routines
Sample format : 44.100 Hz; 16 Bit; Stereo


TOC of the extracted CD

Track | Start | Length | Start sector | End sector
---------------------------------------------------------
1 | 0:00.00 | 4:48.25 | 0 | 21624
2 | 4:48.25 | 4:28.48 | 21625 | 41772
3 | 9:16.73 | 3:58.01 | 41773 | 59623
4 | 13:14.74 | 3:09.49 | 59624 | 73847
5 | 16:24.48 | 3:51.11 | 73848 | 91183
6 | 20:15.59 | 5:06.25 | 91184 | 114158
7 | 25:22.09 | 4:28.62 | 114159 | 134320
8 | 29:50.71 | 5:57.10 | 134321 | 161105


Range status and errors

Selected range

Filename C:Documents and SettingsAdminРабочий столRip by ALLexxessDonna Summer1977 I Remember Yesterday (Universal Music Japan Mini LP SHM-CD 2012)Donna Summer - I Remember Yesterday.wav

Peak level 99.9 %
Extraction speed 5.4 X
Range quality 99.9 %
Test CRC 66F6235B
Copy CRC 66F6235B
Copy OK

No errors occurred


AccurateRip summary

Track 1 not present in database
Track 2 not present in database
Track 3 not present in database
Track 4 not present in database
Track 5 not present in database
Track 6 not present in database
Track 7 not present in database
Track 8 not present in database

None of the tracks are present in the AccurateRip database

End of status report

==== Log checksum 4A4067E60CDC9EA9A119A4C9A0A1B917EFDF8F6FF58B31DCFA84CFC0895A9DF2 ====


-------------------------------------------------------------------------------



Donna Summer - Once Upon A Time (1977) Mini LP SHM-CD Reissue 2012
EAC | FLAC | Image (Cue&Log) ~ 466 Mb (incl 5%) | Mp3 (CBR320) ~ 166 Mb (incl 5%) | Scans ~ 225 Mb
Label: Universal Music Japan | # UICY-75300 | Time: 01:09:12

Donna Summer and her liberators have created one audience and redefined another, and this record's four sides of dream worlds without end sometimes manipulate each audience. The candy-girl music of "Fairy Tale High," "Queen for a Day," and "If You Got It Flaunt It" explicitly recognizes her newly created gay audience, a daring acknowledgement coming from a mainstream pop star. As for her redefined audience of naïve young things who live in the suburbs and dream of romance, adventure, and sex while they search for identity, Summer works her music into a true-to-life Cinderella story staged as four acts of impatient pulse, delirious space noise, wish-upon-a-star voice monologues, and motion.

Review by Michael Freedberg, Allmusic.com


Tracklist:

01. Once Upon A Time (04:02)
02. Faster And Faster To Nowhere (03:33)
03. Fairy Tale High (04:24)
04. Say Something Nice (04:42)
05. Now I Need You (06:07)
06. Working The Midnight Shift (05:06)
07. Queen For A Day (05:59)
08. If You Got It Flaunt It (04:43)
09. A Man Like You (03:35)
10. Sweet Romance (04:30)
11. (Theme) Once Upon A Time (00:51)
12. Dance Into My Life (04:08)
13. Rumour Has It (04:53)
14. I Love You (04:41)
15. Happily Ever After (03:53)
16. (Theme) Once Upon A Time (03:59)


Exact Audio Copy V1.0 beta 3 from 29. August 2011

EAC extraction logfile from 16. August 2012, 18:36

Donna Summer / Once Upon A Time

Used drive : HL-DT-STDVDRAM GSA-H60N Adapter: 2 ID: 0

Read mode : Secure
Utilize accurate stream : Yes
Defeat audio cache : Yes
Make use of C2 pointers : No

Read offset correction : 667
Overread into Lead-In and Lead-Out : No
Fill up missing offset samples with silence : Yes
Delete leading and trailing silent blocks : No
Null samples used in CRC calculations : Yes
Used interface : Native Win32 interface for Win NT & 2000

Used output format : Internal WAV Routines
Sample format : 44.100 Hz; 16 Bit; Stereo


TOC of the extracted CD

Track | Start | Length | Start sector | End sector
---------------------------------------------------------
1 | 0:00.00 | 4:02.04 | 0 | 18153
2 | 4:02.04 | 3:33.42 | 18154 | 34170
3 | 7:35.46 | 4:24.15 | 34171 | 53985
4 | 11:59.61 | 4:42.10 | 53986 | 75145
5 | 16:41.71 | 6:07.36 | 75146 | 102706
6 | 22:49.32 | 5:06.43 | 102707 | 125699
7 | 27:56.00 | 5:59.26 | 125700 | 152650
8 | 33:55.26 | 4:43.39 | 152651 | 173914
9 | 38:38.65 | 3:35.02 | 173915 | 190041
10 | 42:13.67 | 4:30.44 | 190042 | 210335
11 | 46:44.36 | 0:51.20 | 210336 | 214180
12 | 47:35.56 | 4:08.36 | 214181 | 232816
13 | 51:44.17 | 4:53.71 | 232817 | 254862
14 | 56:38.13 | 4:41.43 | 254863 | 275980
15 | 61:19.56 | 3:53.03 | 275981 | 293458
16 | 65:12.59 | 3:59.74 | 293459 | 311457


Range status and errors

Selected range

Filename C:Documents and SettingsAdminРабочий столRip by ALLexxessDonna Summer1977 Once Upon A Time (Universal Music Japan Mini LP SHM-CD 2012)Donna Summer - Once Upon A Time.wav

Peak level 99.9 %
Extraction speed 6.3 X
Range quality 100.0 %
Test CRC 411E0961
Copy CRC 411E0961
Copy OK

No errors occurred


AccurateRip summary

Track 1 not present in database
Track 2 not present in database
Track 3 not present in database
Track 4 not present in database
Track 5 not present in database
Track 6 not present in database
Track 7 not present in database
Track 8 not present in database
Track 9 not present in database
Track 10 not present in database
Track 11 not present in database
Track 12 not present in database
Track 13 not present in database
Track 14 not present in database
Track 15 not present in database
Track 16 not present in database

None of the tracks are present in the AccurateRip database

End of status report

==== Log checksum 0DE22CBC6B9C5941FF22BA4A5DAAD35F6ED8F2CBA4A647F26495682DB4DC3FB8 ====


-------------------------------------------------------------------------------



Donna Summer - Live And More (1978) Mini LP SHM-CD Reissue 2012
EAC | FLAC | Image (Cue&Log) ~ 557 Mb (incl 5%) | Mp3 (CBR320) ~ 188 Mb (incl 5%) | Scans ~ 396 Mb
Label: Universal Music Japan | # UICY-75301 | Time: 01:18:23

After becoming the queen of disco thanks to orgasmathon hits like "Love to Love You Baby" and "I Feel Love," Donna Summer topped off her five-year rise to fame with this live set. Certainly not a contender for first-disc choice, Live and More still works quite well as a '70s sampler for the converted. And since disco was the party music par excellence, the album's feel is one of a all-nighter in action. Featuring her signature hits and a fat chunk of disco tracks from the Once Upon a Time record, sides one and three solidify Summer's reputation as one of the most exciting and slick singers on stage. Balancing out the requisite dance material, Summer spends side two waxing nostalgic via a pop standards medley ("The Man I Love," "I Got It Bad and That Ain't Good," "Some of These Days") and some nice jazz and blues-imbued fare of her own. And ending the album on a very high note, Summer indulges in "McArthur Park Suite," a classic long-player that bookends two of Summer and producer Giorgio Moroder's pop disco numbers with a dance-friendly take on Jimmy Webb's monumental classic. Along with cloud-walking bouncers like "I Love You" and "Last Dance," this closing piece finds Summer at her sophisticated and tuneful best. There's nothing here to eclipse the original versions of these cuts -- save for the Webb cover, which is new -- but the Summer faithful will nonetheless want to pick up this very enjoyable concert recording.

Review by Stephen Cook, Allmusic.com


Tracklist:

01. Once Upon A Time (03:04)
02. Fairy Tale High (02:20)
03. Faster And Faster To Nowhere (02:09)
04. Spring Affair (02:34)
05. Rumour Has It (02:34)
06. I Love You (03:38)
07. Only One Man (02:07)
08. I Remember Yesterday (03:55)
09. Love's Unkind (02:39)
10. My Man Medley (06:28)
11. The Way We Were (03:26)
12. Mimi's Song (04:35)
13. Try Me, I Know We Can Make It (04:27)
14. Love To Love You Baby (03:25)
15. I Feel Love (06:59)
16. Last Dance (05:57)
17. Theme From The Deep (Down, Deep Inside) (17:59)


Exact Audio Copy V1.0 beta 3 from 29. August 2011

EAC extraction logfile from 16. August 2012, 11:43

Donna Summer / Live And More

Used drive : HL-DT-STDVDRAM GSA-H60N Adapter: 2 ID: 0

Read mode : Secure
Utilize accurate stream : Yes
Defeat audio cache : Yes
Make use of C2 pointers : No

Read offset correction : 667
Overread into Lead-In and Lead-Out : No
Fill up missing offset samples with silence : Yes
Delete leading and trailing silent blocks : No
Null samples used in CRC calculations : Yes
Used interface : Native Win32 interface for Win NT & 2000

Used output format : Internal WAV Routines
Sample format : 44.100 Hz; 16 Bit; Stereo


TOC of the extracted CD

Track | Start | Length | Start sector | End sector
---------------------------------------------------------
1 | 0:00.00 | 3:04.41 | 0 | 13840
2 | 3:04.41 | 2:20.20 | 13841 | 24360
3 | 5:24.61 | 2:09.39 | 24361 | 34074
4 | 7:34.25 | 2:34.20 | 34075 | 45644
5 | 10:08.45 | 2:34.52 | 45645 | 57246
6 | 12:43.22 | 3:38.08 | 57247 | 73604
7 | 16:21.30 | 2:07.60 | 73605 | 83189
8 | 18:29.15 | 3:55.35 | 83190 | 100849
9 | 22:24.50 | 2:39.11 | 100850 | 112785
10 | 25:03.61 | 6:28.38 | 112786 | 141923
11 | 31:32.24 | 3:26.01 | 141924 | 157374
12 | 34:58.25 | 4:35.19 | 157375 | 178018
13 | 39:33.44 | 4:27.63 | 178019 | 198106
14 | 44:01.32 | 3:25.47 | 198107 | 213528
15 | 47:27.04 | 6:59.21 | 213529 | 244974
16 | 54:26.25 | 5:57.29 | 244975 | 271778
17 | 60:23.54 | 17:59.20 | 271779 | 352723


Range status and errors

Selected range

Filename C:Documents and SettingsAdminРабочий столRip by ALLexxessDonna Summer1978 Live And More (Universal Music Japan Mini LP SHM-CD 2012)Donna Summer - Live And More.wav

Peak level 99.9 %
Extraction speed 6.4 X
Range quality 100.0 %
Test CRC D627D3BD
Copy CRC D627D3BD
Copy OK

No errors occurred


AccurateRip summary

Track 1 not present in database
Track 2 not present in database
Track 3 not present in database
Track 4 not present in database
Track 5 not present in database
Track 6 not present in database
Track 7 not present in database
Track 8 not present in database
Track 9 not present in database
Track 10 not present in database
Track 11 not present in database
Track 12 not present in database
Track 13 not present in database
Track 14 not present in database
Track 15 not present in database
Track 16 not present in database
Track 17 not present in database

None of the tracks are present in the AccurateRip database

End of status report

==== Log checksum 6ED347A2CB48BE119F18D79FBFEA1AF272F8BB712DF5A92C957F4CDC11E9556E ====


-------------------------------------------------------------------------------



Donna Summer - Bad Girls (1979) 2CD Deluxe Edition Remaster 2003 [SHM-CD Reissue 2012]
EAC | FLAC | Image (Cue&Log) ~ 1.04 Gb (incl 5%) | Mp3 (CBR320) ~ 373 Mb (incl 5%) | Scans ~ 415 Mb
Label: Universal Music Japan | # UICY-75302~75303 | Time: 02:35:24

Bad Girls marked the high-water mark in Donna Summer's career, spending six weeks at Number One, going double platinum, and spinning off four Top 40 singles, including the chart-topping title song and "Hot Stuff," which sold two million copies each, and the million-selling, Number Two hit "Dim All the Lights." Producers Giorgio Moroder and Pete Bellotte recognized that disco was going in different directions by the late '70s, and they gave the leadoff one-two punch of "Hot Stuff" and "Bad Girls" a rock edge derived from new wave. The two-LP set was divided into four musically consistent sides, with the rocksteady beat of the first side giving way to a more traditional disco sound on the second side, followed by a third side of ballads, and a fourth side with a more electronic, synthesizer-driven sound that recalled Summer's 1977 hit "I Feel Love." Though remembered for its hits, the album had depth and consistency, concluding with "Sunset People," one of Summer's best album-only tracks. The result was the artistic and commercial peak of her career and, arguably, of disco itself.

Review by William Ruhlmann, Allmusic.com


Tracklist:

CD1:

01. Hot Stuff (05:15)
02. Bad Girls (04:55)
03. Love Will Always Find You (03:59)
04. Walk Away (04:32)
05. Dim All The Lights (04:41)
06. Journey To The Centre Of Your Heart (04:36)
07. One Night In A Lifetime (04:12)
08. Can't Get To Sleep At Night (04:48)
09. On My Honor (03:33)
10. There Will Always Be A You (05:05)
11. All Through The Night (06:00)
12. My Baby Understands (04:00)
13. Our Love (04:53)
14. Lucky (04:37)
15. Sunset People (06:29)
16. Bad Girls (Demo Version) (03:59)

CD2:

01. I Feel Love (12'' Single) (08:16)
02. Last Dance (Promotional 12'' Single) (08:12)
03. MacArthur Park Suite (12'' Single) (17:37)
04. Hot Stuff (12'' Single) (06:47)
05. Bad Girls (12'' Single) (04:57)
06. Walk Away (Promotional 12'' Single) (07:16)
07. Dim All The Lights (Promotional 12'' Single) (07:14)
08. No More Tears (Enough Is Enough) / (12'' Single) (11:45)
09. On The Radio (Long Version) (07:34)


Exact Audio Copy V1.0 beta 3 from 29. August 2011

EAC extraction logfile from 16. August 2012, 9:51

Donna Summer / Bad Girls CD1

Used drive : HL-DT-STDVDRAM GSA-H60N Adapter: 2 ID: 0

Read mode : Secure
Utilize accurate stream : Yes
Defeat audio cache : Yes
Make use of C2 pointers : No

Read offset correction : 667
Overread into Lead-In and Lead-Out : No
Fill up missing offset samples with silence : Yes
Delete leading and trailing silent blocks : No
Null samples used in CRC calculations : Yes
Used interface : Native Win32 interface for Win NT & 2000

Used output format : Internal WAV Routines
Sample format : 44.100 Hz; 16 Bit; Stereo


TOC of the extracted CD

Track | Start | Length | Start sector | End sector
---------------------------------------------------------
1 | 0:00.00 | 5:15.58 | 0 | 23682
2 | 5:15.58 | 4:55.12 | 23683 | 45819
3 | 10:10.70 | 3:59.11 | 45820 | 63755
4 | 14:10.06 | 4:32.31 | 63756 | 84186
5 | 18:42.37 | 4:41.20 | 84187 | 105281
6 | 23:23.57 | 4:36.57 | 105282 | 126038
7 | 28:00.39 | 4:12.33 | 126039 | 144971
8 | 32:12.72 | 4:48.53 | 144972 | 166624
9 | 37:01.50 | 3:33.35 | 166625 | 182634
10 | 40:35.10 | 5:05.03 | 182635 | 205512
11 | 45:40.13 | 6:00.61 | 205513 | 232573
12 | 51:40.74 | 4:00.47 | 232574 | 250620
13 | 55:41.46 | 4:53.13 | 250621 | 272608
14 | 60:34.59 | 4:37.56 | 272609 | 293439
15 | 65:12.40 | 6:29.19 | 293440 | 322633
16 | 71:41.59 | 3:59.18 | 322634 | 340576


Range status and errors

Selected range

Filename C:Documents and SettingsAdminРабочий столRip by ALLexxessDonna Summer1979 Bad Girls (2 SHM-CD Set Universal Music Japan Mini LP)CD1Donna Summer - Bad Girls CD1.wav

Peak level 100.0 %
Extraction speed 6.2 X
Range quality 99.9 %
Test CRC FBEFFB96
Copy CRC FBEFFB96
Copy OK

No errors occurred


AccurateRip summary

Track 1 accurately ripped (confidence 6) [82392523] (AR v2)
Track 2 accurately ripped (confidence 6) [FDF690C8] (AR v2)
Track 3 accurately ripped (confidence 6) [9B1B1BD9] (AR v2)
Track 4 accurately ripped (confidence 6) [36012BFC] (AR v2)
Track 5 accurately ripped (confidence 6) [7A2D7E5E] (AR v2)
Track 6 accurately ripped (confidence 6) [C10ECAC3] (AR v2)
Track 7 accurately ripped (confidence 6) [468803AB] (AR v2)
Track 8 accurately ripped (confidence 6) [FFF81277] (AR v2)
Track 9 accurately ripped (confidence 6) [93AA40F5] (AR v2)
Track 10 accurately ripped (confidence 6) [64B9271D] (AR v2)
Track 11 accurately ripped (confidence 6) [F12408F8] (AR v2)
Track 12 accurately ripped (confidence 6) [DCF96344] (AR v2)
Track 13 accurately ripped (confidence 6) [F50F74F6] (AR v2)
Track 14 accurately ripped (confidence 6) [5F25C9C0] (AR v2)
Track 15 accurately ripped (confidence 6) [EA1BBE73] (AR v2)
Track 16 accurately ripped (confidence 6) [FD4F0394] (AR v2)

All tracks accurately ripped

End of status report

==== Log checksum 6F8004D11DC2554DA3C37060F86F0A1C5C637C3BF81FE46E4A96E15AA737F4CB ====

Exact Audio Copy V1.0 beta 3 from 29. August 2011

EAC extraction logfile from 16. August 2012, 10:48

Donna Summer / Bad Girls CD2

Used drive : HL-DT-STDVDRAM GSA-H60N Adapter: 2 ID: 0

Read mode : Secure
Utilize accurate stream : Yes
Defeat audio cache : Yes
Make use of C2 pointers : No

Read offset correction : 667
Overread into Lead-In and Lead-Out : No
Fill up missing offset samples with silence : Yes
Delete leading and trailing silent blocks : No
Null samples used in CRC calculations : Yes
Used interface : Native Win32 interface for Win NT & 2000

Used output format : Internal WAV Routines
Sample format : 44.100 Hz; 16 Bit; Stereo


TOC of the extracted CD

Track | Start | Length | Start sector | End sector
---------------------------------------------------------
1 | 0:00.00 | 8:16.72 | 0 | 37271
2 | 8:16.72 | 8:12.55 | 37272 | 74226
3 | 16:29.52 | 17:37.10 | 74227 | 153511
4 | 34:06.62 | 6:47.04 | 153512 | 184040
5 | 40:53.66 | 4:57.09 | 184041 | 206324
6 | 45:51.00 | 7:16.38 | 206325 | 239062
7 | 53:07.38 | 7:14.51 | 239063 | 271663
8 | 60:22.14 | 11:45.51 | 271664 | 324589
9 | 72:07.65 | 7:34.66 | 324590 | 358705


Range status and errors

Selected range

Filename C:Documents and SettingsAdminРабочий столRip by ALLexxessDonna Summer1979 Bad Girls (2 SHM-CD Set Universal Music Japan Mini LP)CD2Donna Summer - Bad Girls CD2.wav

Peak level 100.0 %
Extraction speed 6.4 X
Range quality 100.0 %
Test CRC 01C87D0A
Copy CRC 01C87D0A
Copy OK

No errors occurred


AccurateRip summary

Track 1 accurately ripped (confidence 4) [348F61D8] (AR v2)
Track 2 accurately ripped (confidence 4) [A8786A08] (AR v2)
Track 3 accurately ripped (confidence 4) [A42D7AE4] (AR v2)
Track 4 accurately ripped (confidence 4) [C74EF379] (AR v2)
Track 5 accurately ripped (confidence 4) [3F2D7B56] (AR v2)
Track 6 accurately ripped (confidence 4) [32D4AB5C] (AR v2)
Track 7 accurately ripped (confidence 4) [4E327F18] (AR v2)
Track 8 accurately ripped (confidence 4) [0B25B722] (AR v2)
Track 9 accurately ripped (confidence 4) [8ABDF8A3] (AR v2)

All tracks accurately ripped

End of status report

==== Log checksum AB6B730E87C702CF863F3835311A61600A0FDDE4D84C2D589AACEBF4F610D310 ====


-------------------------------------------------------------------------------



Donna Summer - On The Radio: Greatest Hits Volumes I & II (1979) Mini LP SHM-CD Reissue 2012
EAC | FLAC | Image (Cue&Log) ~ 537 Mb (incl 5%) | Mp3 (CBR320) ~ Mb (incl 5%) | Scans ~ 230 Mb
Label: Universal Music Japan | # UICY-75304 | Time: 01:11:33

On the Radio: Greatest Hits, Vols. 1-2 originally appeared as a double vinyl set in 1979 and was regarded well enough to make the transition to other formats. The release is an almost complete anthology of her popular '70s output, including the number one club singles "Love to Love You Baby," "Try Me, I Know We Can Make It," "I Remember Yesterday," "MacArthur Park," "Bad Girls," "No More Tears (Enough Is Enough)," and "Hot Stuff."

Review by Andy Kellman, Allmusic.com


Tracklist:

01. On The Radio (04:02)
02. Love To Love You Baby (04:15)
03. Try Me, I Know We Can Make It (03:18)
04. I Feel Love (03:21)
05. Our Love (03:46)
06. I Remember Yesterday (04:46)
07. I Love You (03:11)
08. Heaven Knows (03:31)
09. Last Dance (04:59)
10. MacArthur Park (03:56)
11. Hot Stuff (02:55)
12. Bad Girls (03:05)
13. Dim All The Lights (04:11)
14. Sunset People (04:35)
15. No More Tears (Enough Is Enough) (11:43)
16. On The Radio (Long Version) (05:51)


Exact Audio Copy V1.0 beta 3 from 29. August 2011

EAC extraction logfile from 16. August 2012, 12:38

Donna Summer / On The Radio: Greatest Hits Volumes I & II

Used drive : HL-DT-STDVDRAM GSA-H60N Adapter: 2 ID: 0

Read mode : Secure
Utilize accurate stream : Yes
Defeat audio cache : Yes
Make use of C2 pointers : No

Read offset correction : 667
Overread into Lead-In and Lead-Out : No
Fill up missing offset samples with silence : Yes
Delete leading and trailing silent blocks : No
Null samples used in CRC calculations : Yes
Used interface : Native Win32 interface for Win NT & 2000

Used output format : Internal WAV Routines
Sample format : 44.100 Hz; 16 Bit; Stereo


TOC of the extracted CD

Track | Start | Length | Start sector | End sector
---------------------------------------------------------
1 | 0:00.00 | 4:02.26 | 0 | 18175
2 | 4:02.26 | 4:15.36 | 18176 | 37336
3 | 8:17.62 | 3:18.25 | 37337 | 52211
4 | 11:36.12 | 3:21.41 | 52212 | 67327
5 | 14:57.53 | 3:46.25 | 67328 | 84302
6 | 18:44.03 | 4:46.30 | 84303 | 105782
7 | 23:30.33 | 3:11.74 | 105783 | 120181
8 | 26:42.32 | 3:31.21 | 120182 | 136027
9 | 30:13.53 | 4:59.41 | 136028 | 158493
10 | 35:13.19 | 3:56.26 | 158494 | 176219
11 | 39:09.45 | 2:55.51 | 176220 | 189395
12 | 42:05.21 | 3:05.33 | 189396 | 203303
13 | 45:10.54 | 4:11.70 | 203304 | 222198
14 | 49:22.49 | 4:35.44 | 222199 | 242867
15 | 53:58.18 | 11:43.34 | 242868 | 295626
16 | 65:41.52 | 5:51.39 | 295627 | 321990


Range status and errors

Selected range

Filename C:Documents and SettingsAdminРабочий столRip by ALLexxessDonna Summer1979 On The Radio (Universal Music Japan Mini LP SHM-CD 2012)Donna Summer - On The Radio.wav

Peak level 100.0 %
Extraction speed 3.6 X
Range quality 100.0 %
Test CRC 49386970
Copy CRC 49386970
Copy OK

No errors occurred


AccurateRip summary

Track 1 not present in database
Track 2 not present in database
Track 3 not present in database
Track 4 not present in database
Track 5 not present in database
Track 6 not present in database
Track 7 not present in database
Track 8 not present in database
Track 9 not present in database
Track 10 not present in database
Track 11 not present in database
Track 12 not present in database
Track 13 not present in database
Track 14 not present in database
Track 15 not present in database
Track 16 not present in database

None of the tracks are present in the AccurateRip database

End of status report

==== Log checksum 1C201976D260D69A15E9BECA195E120F4BB08EA786C5143997EDA45730FA780A ====


-------------------------------------------------------------------------------


All thanks to original releaser - ALLexxess



Password: designol

http://www.nitroflare.com/view/D0FE8167CF10F33/DSmmr75.FLAC.rar
http://www.nitroflare.com/view/5538D4EBF535EE0/DSmmr75.MP3.rar
http://www.nitroflare.com/view/C35EBE6E86CB3BC/DSmmr75.SCANS.rar

http://www.nitroflare.com/view/697064670524D43/DSmmr76.ALT.FLAC.rar
http://www.nitroflare.com/view/A65B88E1EAF0456/DSmmr76.ALT.MP3.rar
http://www.nitroflare.com/view/BE7297D137BDAC8/DSmmr76.ALT.SCANS.rar

http://www.nitroflare.com/view/5597D460D9FC878/DSmmr76.FSOL.FLAC.rar
http://www.nitroflare.com/view/F023CD81A82053E/DSmmr76.FSOL.MP3.rar
http://www.nitroflare.com/view/23636E6D99064BB/DSmmr76.FSOL.SCANS.rar

http://www.nitroflare.com/view/76AAD75C832DA5A/DSmmr77.IRY.FLAC.rar
http://www.nitroflare.com/view/D9EEE4687987073/DSmmr77.IRY.MP3.rar
http://www.nitroflare.com/view/8FC88A30651CBC7/DSmmr77.IRY.SCANS.rar

http://www.nitroflare.com/view/1C477AD4E2C471B/DSmmr77.OUAT.FLAC.rar
http://www.nitroflare.com/view/3CF38063116C225/DSmmr77.OUAT.MP3.rar
http://www.nitroflare.com/view/D702C9D24731969/DSmmr77.OUAT.SCANS.rar

http://www.nitroflare.com/view/7D1C40ADA0F0402/DSmmr78.LAM.FLAC.rar
http://www.nitroflare.com/view/9D7B2606F5BBB5C/DSmmr78.LAM.MP3.rar
http://www.nitroflare.com/view/615D744AA82DC27/DSmmr78.LAM.SCANS.rar

http://www.nitroflare.com/view/8ECF3E0434A23A3/DSmmr79.BG.FLAC.CD1.rar
http://www.nitroflare.com/view/07E419B8DE25476/DSmmr79.BG.FLAC.CD2.rar
http://www.nitroflare.com/view/A2C35A59320D0B4/DSmmr79.BG.MP3.CD1.rar
http://www.nitroflare.com/view/9D628704A0E5D2C/DSmmr79.BG.MP3.CD2.rar
http://www.nitroflare.com/view/42827FB9A616258/DSmmr79.BG.SCANS.rar

http://www.nitroflare.com/view/AE44F1E2B450F81/DSmmr79.OTR.FLAC.rar
http://www.nitroflare.com/view/020085B07551698/DSmmr79.OTR.MP3.rar
http://www.nitroflare.com/view/A9AAEA13E9DC762/DSmmr79.OTR.SCANS.rar


Password: designol



Password: designol