Вход в свой аккаунт

Или войдите через соц. сети

Sugaray Rayford - Southside (2015)


Sugaray Rayford - Southside (2015)
EAC Rip | FLAC (Img) + Cue + Log ~ 309 Mb | MP3 CBR320 ~ 108 Mb
Scans Included (JPG, 300 dpi) | RAR 5% Recovery
Electric Blues, Soul Blues | NimoySue Records #888295240253

“ Sugaray Rayford's new release 'Southside' is all original material writter by Sugaray and his writing partner Ralph Carter. Gino Matteo's guitar is as eclectic as the guitarist himself. This album has a Memphis/Stax feel to it with a tight band and inoxicating grooves. Sugaray was just nominated for BB King Entertainer Of The Year and Traditional Male Vocalist for the 2015 Blues Music Awards. He is also lead vocalist for The Mannish Boys who are also nominated for three awards. Guest performers include John Thomas on keyboards and Bob Corritore on harp.
~ amazon
”

| |

***************


Track List:

01. Southside Of Town [05:21]
02. Miss Thang [04:48]
03. Live To Love Again [04:48]
04. Texas Bluesman [05:26]
05. Take It To The Bank [04:27]
06. Call Off The Mission [04:58]
07. All I Think About [03:42]
08. Take Away These Blues [04:03]
09. Slow Motion [06:55]

Exact Audio Copy V1.1 from 23. June 2015

EAC extraction logfile from 12. August 2015, 19:59

Sugaray Rayford / Southside

Used drive : HL-DT-STDVDRAM GH22NS40 Adapter: 1 ID: 0

Read mode : Secure
Utilize accurate stream : Yes
Defeat audio cache : Yes
Make use of C2 pointers : No

Read offset correction : 667
Overread into Lead-In and Lead-Out : No
Fill up missing offset samples with silence : Yes
Delete leading and trailing silent blocks : No
Null samples used in CRC calculations : Yes
Used interface : Native Win32 interface for Win NT & 2000

Used output format : User Defined Encoder
Selected bitrate : 768 kBit/s
Quality : High
Add ID3 tag : No
Command line compressor : C:Program Files (x86)Exact Audio CopyFlacflac.exe
Additional command line options : -6 -V -T "ARTIST=%artist%" -T "TITLE=%title%" -T "ALBUM=%albumtitle%" -T "DATE=%year%" -T "TRACKNUMBER=%tracknr%" -T "GENRE=%genre%" -T "COMMENT=%comment%" -T "BAND=%albuminterpret%" -T "ALBUMARTIST=%albuminterpret%" -T "COMPOSER=%composer%" %haslyrics%--tag-from-file=LYRICS="%lyricsfile%"%haslyrics% -T "DISCNUMBER=%cdnumber%" -T "TOTALDISCS=%totalcds%" -T "TOTALTRACKS=%numtracks%" %hascover%--picture="%coverfile%"%hascover% %source% -o %dest%


TOC of the extracted CD

Track | Start | Length | Start sector | End sector
---------------------------------------------------------
1 | 0:00.00 | 5:20.55 | 0 | 24054
2 | 5:20.55 | 4:47.58 | 24055 | 45637
3 | 10:08.38 | 4:47.20 | 45638 | 67182
4 | 14:55.58 | 5:25.13 | 67183 | 91570
5 | 20:20.71 | 4:26.05 | 91571 | 111525
6 | 24:47.01 | 4:57.63 | 111526 | 133863
7 | 29:44.64 | 3:41.43 | 133864 | 150481
8 | 33:26.32 | 4:02.74 | 150482 | 168705
9 | 37:29.31 | 6:54.02 | 168706 | 199757


Range status and errors

Selected range

Filename D:musicSugaray Rayford - Southside (2015)Sugaray Rayford - Southside.wav

Peak level 100.0 %
Extraction speed 1.8 X
Range quality 100.0 %
Test CRC 79258A31
Copy CRC 79258A31
Copy OK

No errors occurred

End of status report

==== Log checksum 8E7C0AA628CBDB08993A5822159735658C5367DF9A82337F948A7B0041B15207 ====

foobar2000 1.2.6 / Dynamic Range Meter 1.1.1
log date: 2015-08-31 13:35:11

--------------------------------------------------------------------------------
Analyzed: Sugaray Rayford / Southside
--------------------------------------------------------------------------------

DR Peak RMS Duration Track
--------------------------------------------------------------------------------
DR7 0.00 dB -10.08 dB 5:21 01-Southside Of Town
DR8 0.00 dB -9.56 dB 4:48 02-Miss Thang
DR8 0.00 dB -10.25 dB 4:47 03-Live To Love Again
DR9 0.00 dB -10.36 dB 5:25 04-Texas Bluesman
DR12 0.00 dB -14.31 dB 4:26 05-Take It To The Bank
DR9 0.00 dB -10.56 dB 4:58 06-Call Off The Mission
DR9 0.00 dB -11.07 dB 3:42 07-All I Think About
DR8 0.00 dB -10.81 dB 4:03 08-Take Away These Blues
DR7 0.00 dB -10.38 dB 6:54 09-Slow Motion
--------------------------------------------------------------------------------

Number of tracks: 9
Official DR value: DR9

Samplerate: 44100 Hz
Channels: 2
Bits per sample: 16
Bitrate: 921 kbps
Codec: FLAC
================================================================================

[CUETools log; Date: 31.08.2015 13:35:11; Version: 2.1.5]
[CTDB TOCID: 38m0p2AWbVjxVKYAIWV3z3CWF.A-] disk not present in database.
[AccurateRip ID: 000f260f-006e6fe6-6f0a6709] disk not present in database.

Track Peak [ CRC32 ] [W/O NULL] [ LOG ]
-- 100,0 [79258A31] [9705E98D] CRC32
01 100,0 [A0F8B106] [49268CBF]
02 100,0 [D5144EF5] [F3538E86]
03 100,0 [98DC83D1] [B1A3215E]
04 100,0 [922F14D9] [E657C3FA]
05 100,0 [6B981B79] [05A4716F]
06 100,0 [6B6E7F7A] [23C4F27A]
07 100,0 [6BA6F3EF] [B60892CA]
08 100,0 [4F497A0C] [9F0FE499]
09 100,0 [154B125C] [80765E71]


All thanks go to the original ripper(s) ...



Download:
Uploadable: |

Hitfile: |