Saragossa Band - Cool Night - New Album 2007 (2007)


Saragossa Band - Cool Night - New Album 2007 (2007)
EAC Rip | FLAC (Img) + Cue + Log ~ 341 Mb | MP3 CBR320 ~ 104 Mb
Scans (JPG, 300 dpi) ~ 44 Mb | RAR 5% Recovery
Euro-Pop, Disco | MCP Records #CD 170.435

The Saragossa Band is a German pop band from Munich and was from the late 1970s to about the mid-1980s one of the most successful and busiest professional party-bands in Germany. They occur today at many concerts. The Music of Saragossa Band mixed pop with elements of calypso and samba and then hit the nerve of time. To this day, she still has numerous performances and plays, especially in countries like Romania, Hungary and Austria, and at big festivals. Every once the group is also to be seen on TV.

Die Saragossa Band ist eine deutsche Pop-Band aus München und war von Ende der 1970er bis etwa Mitte der 1980er Jahre eine der erfolgreichsten und meistbeschäftigten professionellen Party-Bands Deutschlands. Sie treten heute noch auf vielen Konzerten auf. Die Musik der Saragossa Band vermischte Pop mit Elementen aus Calypso und Samba und traf damals genau den Nerv der Zeit. Als einzige deutsche Band absolvierte die Saragossa Band eine äußerst erfolgreiche Südsee-Tour. Bis heute hat sie immer noch zahlreiche Auftritte und spielt vor allem in Ländern wie Rumänien, Ungarn und Österreich, auch auf großen Festivals. Hin und wieder ist die Gruppe auch im Fernsehen zu sehen.
~ Wiki


| | |

***************


Track List:

01. Cool Night [03:33]
02. You Touch Me [03:44]
03. Kiss Me All Over Again [03:41]
04. Loves Come Along [03:32]
05. Nothing Seems The Way It Used To [03:30]
06. When Im Think Of You [03:44]
07. Love Me Good [03:55]
08. Breaking Up Is Heard To You [03:17]
09. Spanish (When She Gets Drunken, She Starts Speaking Spanish) [03:42]
10. Gonna Get Along Without You Now [03:19]
11. Bahia Coco [03:51]
12. Rastaman (Radiocut) [03:22]

Exact Audio Copy V1.1 from 23. June 2015

EAC extraction logfile from 4. August 2015, 16:09

Saragossa Band / Cool Night

Used drive : SlimtypeeTAU108 2 Adapter: 1 ID: 1

Read mode : Secure
Utilize accurate stream : Yes
Defeat audio cache : Yes
Make use of C2 pointers : No

Read offset correction : 6
Overread into Lead-In and Lead-Out : No
Fill up missing offset samples with silence : Yes
Delete leading and trailing silent blocks : No
Null samples used in CRC calculations : Yes
Used interface : Native Win32 interface for Win NT & 2000

Used output format : User Defined Encoder
Selected bitrate : 1024 kBit/s
Quality : High
Add ID3 tag : No
Command line compressor : C:Program FilesExact Audio Copy 1.1Flacflac.exe
Additional command line options : -8 -V -T "ARTIST=%artist%" -T "TITLE=%title%" -T "ALBUM=%albumtitle%" -T "DATE=%year%" -T "TRACKNUMBER=%tracknr%" -T "GENRE=%genre%" -T "COMMENT=%comment%" -T "ALBUMARTIST=%albuminterpret%" -T "DISCNUMBER=%cdnumber%" -T "TOTALDISCS=%totalcds%" -T "TOTALTRACKS=%numtracks%" %source% -o %dest%


TOC of the extracted CD

Track | Start | Length | Start sector | End sector
---------------------------------------------------------
1 | 0:00.00 | 3:32.71 | 0 | 15970
2 | 3:32.71 | 3:43.06 | 15971 | 32701
3 | 7:16.02 | 3:40.22 | 32702 | 49223
4 | 10:56.24 | 3:31.15 | 49224 | 65063
5 | 14:27.39 | 3:29.36 | 65064 | 80774
6 | 17:57.00 | 3:43.04 | 80775 | 97503
7 | 21:40.04 | 3:54.17 | 97504 | 115070
8 | 25:34.21 | 3:16.08 | 115071 | 129778
9 | 28:50.29 | 3:41.39 | 129779 | 146392
10 | 32:31.68 | 3:18.34 | 146393 | 161276
11 | 35:50.27 | 3:50.06 | 161277 | 178532
12 | 39:40.33 | 3:21.17 | 178533 | 193624


Range status and errors

Selected range

Filename C:TempSaragossa Band - Cool Night (2007).wav

Peak level 95.1 %
Extraction speed 4.3 X
Range quality 99.9 %
Test CRC 226FFC26
Copy CRC 226FFC26
Copy OK

No errors occurred


AccurateRip summary

Track 1 accurately ripped (confidence 1) [7DA0B162] (AR v2)
Track 2 accurately ripped (confidence 1) [363D4BFF] (AR v2)
Track 3 accurately ripped (confidence 1) [88128F50] (AR v2)
Track 4 accurately ripped (confidence 1) [9E85B8B5] (AR v2)
Track 5 accurately ripped (confidence 1) [8D0CAC08] (AR v2)
Track 6 accurately ripped (confidence 1) [A7A597EB] (AR v2)
Track 7 accurately ripped (confidence 1) [602EF76B] (AR v2)
Track 8 accurately ripped (confidence 1) [F79895B2] (AR v2)
Track 9 accurately ripped (confidence 1) [F846B310] (AR v2)
Track 10 accurately ripped (confidence 1) [494C5240] (AR v2)
Track 11 accurately ripped (confidence 1) [0CD03F8C] (AR v2)
Track 12 accurately ripped (confidence 1) [C069A6EF] (AR v2)

All tracks accurately ripped

End of status report

---- CUETools DB Plugin V2.1.6

[CTDB TOCID: cFVmLWaRahdEH9M9G2fdTFriM0s-] found
Submit result: cFVmLWaRahdEH9M9G2fdTFriM0s- has been confirmed
Track | CTDB Status
1 | (2/2) Accurately ripped
2 | (2/2) Accurately ripped
3 | (2/2) Accurately ripped
4 | (2/2) Accurately ripped
5 | (2/2) Accurately ripped
6 | (2/2) Accurately ripped
7 | (2/2) Accurately ripped
8 | (2/2) Accurately ripped
9 | (2/2) Accurately ripped
10 | (2/2) Accurately ripped
11 | (2/2) Accurately ripped
12 | (2/2) Accurately ripped


==== Log checksum 4DEDDB2122CB2845622DD19682DDFDEE68889823A15EDBD5380EB6CC3BDFE1A9 ====

foobar2000 1.2.6 / Dynamic Range Meter 1.1.1
log date: 2015-09-02 14:23:52

--------------------------------------------------------------------------------
Analyzed: Saragossa Band / Cool Night
--------------------------------------------------------------------------------

DR Peak RMS Duration Track
--------------------------------------------------------------------------------
DR6 -1.43 dB -7.99 dB 3:33 01-Cool Night
DR6 -1.58 dB -8.11 dB 3:43 02-You Touch Me
DR5 -1.03 dB -7.41 dB 3:40 03-Kiss Me All Over Again
DR7 -0.99 dB -8.91 dB 3:31 04-Loves Come Along
DR7 -0.43 dB -8.69 dB 3:29 05-Nothing Seems The Way It Used To
DR6 -0.89 dB -8.37 dB 3:43 06-When Im Think Of You
DR6 -1.76 dB -8.47 dB 3:54 07-Love Me Good
DR6 -1.66 dB -8.42 dB 3:16 08-Breaking Up Is Heard To You
DR6 -1.29 dB -8.03 dB 3:42 09-Spanish (When She Gets Drunken, She Starts Speaking Spanish)
DR7 -0.96 dB -8.61 dB 3:18 10-Gonna Get Along Without You Now
DR6 -0.72 dB -7.73 dB 3:50 11-Bahia Coco
DR7 -1.36 dB -9.20 dB 3:21 12-Rastaman (Radiocut)
--------------------------------------------------------------------------------

Number of tracks: 12
Official DR value: DR6

Samplerate: 44100 Hz
Channels: 2
Bits per sample: 16
Bitrate: 1054 kbps
Codec: FLAC
================================================================================

[CUETools log; Date: 02.09.2015 14:23:52; Version: 2.1.5]
[CTDB TOCID: cFVmLWaRahdEH9M9G2fdTFriM0s-] found.
Track | CTDB Status
1 | (3/3) Accurately ripped
2 | (3/3) Accurately ripped
3 | (3/3) Accurately ripped
4 | (3/3) Accurately ripped
5 | (3/3) Accurately ripped
6 | (3/3) Accurately ripped
7 | (3/3) Accurately ripped
8 | (3/3) Accurately ripped
9 | (3/3) Accurately ripped
10 | (3/3) Accurately ripped
11 | (3/3) Accurately ripped
12 | (3/3) Accurately ripped
[AccurateRip ID: 001350fe-00b42350-a00a150c] found.
Track [ CRC | V2 ] Status
01 [50a409a7|7da0b162] (1+1/2) Accurately ripped
02 [1a2b57a6|363d4bff] (1+1/2) Accurately ripped
03 [56ab347c|88128f50] (1+1/2) Accurately ripped
04 [ef0cae97|9e85b8b5] (1+1/2) Accurately ripped
05 [02b6443a|8d0cac08] (1+1/2) Accurately ripped
06 [511f47dd|a7a597eb] (1+1/2) Accurately ripped
07 [44c4b7c9|602ef76b] (1+1/2) Accurately ripped
08 [55604e32|f79895b2] (1+1/2) Accurately ripped
09 [4c7560a0|f846b310] (1+1/2) Accurately ripped
10 [b7275061|494c5240] (1+1/2) Accurately ripped
11 [518ed534|0cd03f8c] (1+1/2) Accurately ripped
12 [ff2f1933|c069a6ef] (1+1/2) Accurately ripped

Track Peak [ CRC32 ] [W/O NULL] [ LOG ]
-- 95,1 [226FFC26] [EF87C402] CRC32
01 84,7 [02215154] [A7252A07]
02 83,3 [45404352] [67062C68]
03 88,7 [DE2E0E90] [7E5F5413]
04 89,2 [B6CF1A24] [E528E632]
05 95,1 [3B840B47] [C0759D6F]
06 90,3 [CCFA868C] [D5A6D88A]
07 81,6 [378DD691] [99A453EA]
08 82,5 [A99B1CF8] [ABC49046]
09 86,1 [326591F7] [9159E8A0]
10 89,5 [CE540548] [1A90F2B2]
11 92,0 [681D3555] [DE915E62]
12 85,4 [0052EF84] [43987258]


All thanks go to Ptaha



Download:
Uploadable: | | |

Hitfile: | | |