Michael Buble - Christmas (2011)


Michael Buble - Christmas (2011)
EAC Rip | FLAC (Img) + Cue + Log ~ 361 Mb | MP3 CBR320 ~ 155 Mb
Scans Included (JPG, 300 dpi) | RAR 5% Recovery
Jazz, Vocal Jazz, Holiday, Pop | 143 Records/Reprise Records #9362495540

Christmas is vocalist Michael Bublé's first full-length holiday-themed album since his 2003 EP Let It Snow. As with that album, Christmas features Bublé backed by small ensembles as well as his big band and orchestra, and includes a handful of classic Christmas songs. In that sense, the album is a rather old-school affair, with Bublé in prime Bing Crosby-meets-Dean Martin vocal style tackling such chestnuts as "It's Beginning to Look a Lot Like Christmas," "Silent Night," and "I'll Be Home for Christmas." There are also some fine, contemporary, if still retro-sounding, pop moments here including Bublé's duet with the British female pop trio the Puppini Sisters on "Jingle Bells," and his inspired, slightly melancholy reworking of Mariah Carey's "All I Want for Christmas Is You." Ultimately, Christmas is a warm and inviting album that showcases Bublé's impeccable vocal chops.
~ Matt Collar, All Music Guide

| |

***************


Track List:

01. It's Beginning To Look A Lot Like Christmas [03:28]
02. Santa Claus Is Coming To Town [02:52]
03. Jingle Bells - Michael Buble Featuring The Puppini Sisters [02:41]
04. White Christmas - Michael Buble Duet With Shania Twain [03:38]
05. All I Want For Christmas Is You [02:53]
06. Holly Jolly Christmas [02:01]
07. Santa Baby [03:53]
08. Have Yourself A Merry Little Christmas [03:52]
09. Christmas (Baby Please Come Home) [03:09]
10. Silent Night [03:49]
11. Blue Christmas [03:44]
12. Cold December Night [03:20]
13. I'll Be Home For Christmas [04:27]
14. Ave Maria [04:02]
15. Mis Deseos/Feliz Navidad - Michael Buble Duet With Thalia [04:25]
16. Michael's Christmas Greeting (hidden track) [00:05]

Exact Audio Copy V1.0 beta 3 from 29. August 2011

Отчёт EAC об извлечении, выполненном 30. июня 2014, 16:20

Michael Buble / Christmas

Дисковод: _NEC DVD_RW ND-3550A Adapter: 0 ID: 0

Режим чтения : Достоверность
Использование точного потока : Да
Отключение кэша аудио : Да
Использование указателей C2 : Нет

Коррекция смещения при чтении : 48
Способность читать области Lead-in и Lead-out : Нет
Заполнение пропущенных сэмплов тишиной : Да
Удаление блоков с тишиной в начале и конце : Нет
При вычислениях CRC использовались нулевые сэмплы : Да
Интерфейс : Встроенный Win32-интерфейс для Win NT/2000

Выходной формат : Пользовательский кодировщик
Выбранный битрейт : 128 kBit/s
Качество : Высокий
Добавление ID3-тега : Нет
Утилита сжатия : C:Program Files (x86)FLACFLAC frontend.exe
Дополнительные параметры : -V -8 -T "Date=%year%" -T "Genre=%genre%" %source%


TOC извлечённого CD

Трек | Старт | Длительность | Начальный сектор | Конечный сектор
---------------------------------------------------------------------
1 | 0:00.15 | 3:27.14 | 15 | 15553
2 | 3:27.29 | 2:51.60 | 15554 | 28438
3 | 6:19.14 | 2:40.62 | 28439 | 40500
4 | 9:00.01 | 3:37.24 | 40501 | 56799
5 | 12:37.25 | 2:52.58 | 56800 | 69757
6 | 15:30.08 | 2:00.41 | 69758 | 78798
7 | 17:30.49 | 3:52.71 | 78799 | 96269
8 | 21:23.45 | 3:51.56 | 96270 | 113650
9 | 25:15.26 | 3:08.62 | 113651 | 127812
10 | 28:24.13 | 3:48.67 | 127813 | 144979
11 | 32:13.05 | 3:43.17 | 144980 | 161721
12 | 35:56.22 | 3:19.63 | 161722 | 176709
13 | 39:16.10 | 4:26.58 | 176710 | 196717
14 | 43:42.68 | 4:01.55 | 196718 | 214847
15 | 47:44.48 | 4:24.65 | 214848 | 234712
16 | 52:09.38 | 0:04.39 | 234713 | 235051


Характеристики диапазона извлечения и сообщения об ошибках

Выбранный диапазон

Имя файла C:Users1MusicMichael Buble - Christmas.wav

Пиковый уровень 100.0 %
Скорость извлечения 4.7 X
Качество диапазона 100.0 %
CRC теста B3EC51E8
CRC копии B3EC51E8
Копирование... OK

Ошибок не произошло


AccurateRip: сводка

Трек 1 : извлечено точно (доверие 60) [7EBF599B] (AR v2)
Трек 2 : извлечено точно (доверие 59) [170BBA71] (AR v2)
Трек 3 : извлечено точно (доверие 60) [C9F22B77] (AR v2)
Трек 4 : извлечено точно (доверие 60) [B37ED0F7] (AR v2)
Трек 5 : извлечено точно (доверие 58) [5EE4D0AF] (AR v2)
Трек 6 : извлечено точно (доверие 59) [2F762F57] (AR v2)
Трек 7 : извлечено точно (доверие 60) [18AC134F] (AR v2)
Трек 8 : извлечено точно (доверие 59) [79CD7CBC] (AR v2)
Трек 9 : извлечено точно (доверие 60) [E3659B59] (AR v2)
Трек 10 : извлечено точно (доверие 60) [6B4AB9C7] (AR v2)
Трек 11 : извлечено точно (доверие 60) [06061735] (AR v2)
Трек 12 : извлечено точно (доверие 60) [83010389] (AR v2)
Трек 13 : извлечено точно (доверие 60) [1E65969E] (AR v2)
Трек 14 : извлечено точно (доверие 59) [29306E8B] (AR v2)
Трек 15 : извлечено точно (доверие 60) [414FC535] (AR v2)
Трек 16 отсутствует в базе данных

15 трек(и) скопированы точно
1 трек(и) не содержатся в базе AccurateRip

Некоторые треки не прошли проверку на точность

Конец отчёта

==== Контрольная сумма отчёта 2A428203C0D355116BC7E47BD1E27131F744E66002B1451399BF9B322842AAFC ====

foobar2000 1.2.6 / Dynamic Range Meter 1.1.1
log date: 2015-09-04 22:31:15

--------------------------------------------------------------------------------
Analyzed: Michael Buble / Christmas
--------------------------------------------------------------------------------

DR Peak RMS Duration Track
--------------------------------------------------------------------------------
DR7 0.00 dB -9.97 dB 3:27 01-It's Beginning To Look A Lot Like Christmas - Michael Buble
DR7 0.00 dB -9.49 dB 2:52 02-Santa Claus Is Coming To Town - Michael Buble
DR6 0.00 dB -8.32 dB 2:41 03-Jingle Bells - Michael Buble Featuring The Puppini Sisters
DR6 0.00 dB -8.00 dB 3:37 04-White Christmas - Michael Buble Duet With Shania Twain
DR8 0.00 dB -10.38 dB 2:53 05-All I Want For Christmas Is You - Michael Buble
DR8 0.00 dB -9.27 dB 2:01 06-Holly Jolly Christmas - Michael Buble
DR10 0.00 dB -12.69 dB 3:53 07-Santa Baby - Michael Buble
DR9 0.00 dB -11.49 dB 3:52 08-Have Yourself A Merry Little Christmas - Michael Buble
DR7 0.00 dB -8.68 dB 3:09 09-Christmas (Baby Please Come Home) - Michael Buble
DR6 -0.07 dB -9.85 dB 3:49 10-Silent Night - Michael Buble
DR5 0.00 dB -7.73 dB 3:43 11-Blue Christmas - Michael Buble
DR8 0.00 dB -9.49 dB 3:20 12-Cold December Night - Michael Buble
DR9 0.00 dB -11.64 dB 4:27 13-I'll Be Home For Christmas - Michael Buble
DR7 0.00 dB -10.45 dB 4:02 14-Ave Maria - Michael Buble
DR5 0.00 dB -8.55 dB 4:25 15-Mis Deseos/Feliz Navidad - Michael Buble Duet With Thalia
DR19 -4.81 dB -23.98 dB 0:05 16-Michael's Christmas Greeting - Michael Buble
--------------------------------------------------------------------------------

Number of tracks: 16
Official DR value: DR8

Samplerate: 44100 Hz
Channels: 2
Bits per sample: 16
Bitrate: 844 kbps
Codec: FLAC
================================================================================

[CUETools log; Date: 04.09.2015 22:31:17; Version: 2.1.5]
Pregap length 00:00:15.
[CTDB TOCID: FG9q2qVGGqtmp1oDvvPbQq6LczA-] found.
Track | CTDB Status
1 | (77/78) Accurately ripped
2 | (77/78) Accurately ripped
3 | (77/78) Accurately ripped
4 | (76/78) Accurately ripped
5 | (77/78) Accurately ripped
6 | (77/78) Accurately ripped
7 | (77/78) Accurately ripped
8 | (77/78) Accurately ripped
9 | (77/78) Accurately ripped
10 | (77/78) Accurately ripped
11 | (77/78) Accurately ripped
12 | (77/78) Accurately ripped
13 | (77/78) Accurately ripped
14 | (77/78) Accurately ripped
15 | (77/78) Accurately ripped
16 | (78/78) Accurately ripped
[AccurateRip ID: 001e6697-0170b878-db0c3e10] found.
Track [ CRC | V2 ] Status
01 [126ec3b2|7ebf599b] (013+074/440) Accurately ripped
02 [86b8b3ca|170bba71] (012+072/437) Accurately ripped
03 [6aa39824|c9f22b77] (013+073/439) Accurately ripped
04 [085bf0f3|b37ed0f7] (012+073/440) Accurately ripped
05 [81eb2393|5ee4d0af] (012+071/435) Accurately ripped
06 [0950ff87|2f762f57] (012+072/438) Accurately ripped
07 [f3f659f6|18ac134f] (012+073/437) Accurately ripped
08 [b72ac577|79cd7cbc] (012+072/437) Accurately ripped
09 [62e059f0|e3659b59] (012+073/438) Accurately ripped
10 [4494dbee|6b4ab9c7] (011+073/439) Accurately ripped
11 [1c5b03bb|06061735] (013+073/441) Accurately ripped
12 [d2a2f43b|83010389] (012+073/438) Accurately ripped
13 [b0bec303|1e65969e] (012+073/436) Accurately ripped
14 [1e116c4b|29306e8b] (013+073/434) Accurately ripped
15 [396d3ffb|414fc535] (012+073/436) Accurately ripped
16 [05fdbb96|3b538e44] (005+035/219) Accurately ripped
Offsetted by -12:
01 [6583004c] (023/440) Accurately ripped
02 [429ed6af] (023/437) Accurately ripped
03 [8ad1369b] (023/439) Accurately ripped
04 [ab2139a0] (023/440) Accurately ripped
05 [d3149927] (023/435) Accurately ripped
06 [69a34bc7] (023/438) Accurately ripped
07 [19c13490] (023/437) Accurately ripped
08 [f6a9f15a] (023/437) Accurately ripped
09 [5562d2f2] (023/438) Accurately ripped
10 [a6f19920] (024/439) Accurately ripped
11 [9aedecd8] (023/441) Accurately ripped
12 [29c3ed34] (024/438) Accurately ripped
13 [9cfd7f2f] (022/436) Accurately ripped
14 [22862a1a] (022/434) Accurately ripped
15 [a7f20935] (023/436) Accurately ripped
16 [9054022a] (003/219) Accurately ripped
Offsetted by -6:
01 [f76137eb] (022/440) Accurately ripped
02 [328492d9] (023/437) Accurately ripped
03 [33d783d3] (021/439) Accurately ripped
04 [ff27d211] (023/440) Accurately ripped
05 [943c1b70] (022/435) Accurately ripped
06 [e6117895] (023/438) Accurately ripped
07 [6733c746] (022/437) Accurately ripped
08 [d037546b] (022/437) Accurately ripped
09 [dbe28e43] (023/438) Accurately ripped
10 [f99840f6] (023/439) Accurately ripped
11 [38c6f84a] (022/441) Accurately ripped
12 [427d63da] (022/438) Accurately ripped
13 [eb47195a] (022/436) Accurately ripped
14 [a0c3cb2f] (021/434) Accurately ripped
15 [ef4cadc2] (022/436) Accurately ripped
16 [4b21dee0] (007/219) Accurately ripped
Offsetted by -716:
01 [73762df1] (000/440) No match (V2 was not tested)
02 [c9774453] (000/437) No match (V2 was not tested)
03 [a6dc92ec] (000/439) No match (V2 was not tested)
04 [8b00faf6] (000/440) No match (V2 was not tested)
05 [1d3bdc74] (000/435) No match (V2 was not tested)
06 [6f5f3bd8] (000/438) No match (V2 was not tested)
07 [ac2d7b75] (000/437) No match (V2 was not tested)
08 [ee47a8fc] (000/437) No match (V2 was not tested)
09 [31b57e53] (000/438) No match (V2 was not tested)
10 [cc3a0be2] (000/439) No match (V2 was not tested)
11 [23b407c1] (000/441) No match (V2 was not tested)
12 [232e59f6] (000/438) No match (V2 was not tested)
13 [739704e8] (000/436) No match (V2 was not tested)
14 [159b8ddf] (000/434) No match (V2 was not tested)
15 [7ee9c0b2] (000/436) No match (V2 was not tested)
16 [b2b7cfe8] (000/219) No match
Offsetted by -78:
01 [efa47b7f] (000/440) No match (V2 was not tested)
02 [5a10d9f0] (000/437) No match (V2 was not tested)
03 [59898e72] (000/439) No match (V2 was not tested)
04 [c78bfbcc] (000/440) No match (V2 was not tested)
05 [54b0f175] (000/435) No match (V2 was not tested)
06 [1810247a] (000/438) No match (V2 was not tested)
07 [ca596863] (000/437) No match (V2 was not tested)
08 [82a4c13b] (000/437) No match (V2 was not tested)
09 [3325e0f7] (000/438) No match (V2 was not tested)
10 [c8e61c21] (000/439) No match (V2 was not tested)
11 [959afa9a] (000/441) No match (V2 was not tested)
12 [881798db] (000/438) No match (V2 was not tested)
13 [e9d7b120] (000/436) No match (V2 was not tested)
14 [5d6becd3] (000/434) No match (V2 was not tested)
15 [376065ad] (000/436) No match (V2 was not tested)
16 [8d838659] (000/219) No match

Track Peak [ CRC32 ] [W/O NULL] [ LOG ]
-- 100,0 [B3EC51E8] [0DA97375] CRC32
01 100,0 [1B5A6C3B] [E46DAA52]
02 100,0 [8B01A67A] [6842CBD7]
03 100,0 [34E2375C] [58CFBC08]
04 100,0 [8AB728D6] [C4B63E70]
05 100,0 [C471D6D1] [F23FE5A4]
06 100,0 [148B8F5C] [4E24E9CF]
07 100,0 [8ECB8B29] [D0DEC815]
08 100,0 [04CB3936] [62264AE8]
09 100,0 [F6B72024] [324CD1BE]
10 99,2 [1F90A85F] [D3414350]
11 100,0 [044BCC23] [CB5513B7]
12 100,0 [742AE8B1] [523AC6BA]
13 100,0 [6DA39F29] [BD397827]
14 100,0 [557EE50D] [FCB0A477]
15 100,0 [A872927D] [5BA5A9B9]
16 57,4 [0EB85972] [8C915574]


All thanks go to евгений 7676



Download:
Uploadable: | |

Hitfile: | |