Вход в свой аккаунт

Или войдите через соц. сети

Nick Curran & The Lowlifes - Reform School Girl (2010)


Nick Curran & The Lowlifes - Reform School Girl (2010)
EAC | FLAC | Image (Cue&Log) ~ 147 Mb (incl 5%) | Mp3 (CBR320) ~ 101 Mb (incl 5%) | Scans included
Genre: Blues, Retro-Rock, Rockabilly, Swing | Label: Eclecto Groove Records | # EGRCD509 | Time: 00:39:18

“ Since 2004's Player!, blues-centric guitarist/vocalist Nick Curran left his record label, joined up with Kim Wilson's latest incarnation of the Fabulous T-Birds, performed with his own punk-blues combo Deguello, and basically rumbled and tumbled through a number of sundry side projects, all the while eschewing the solo career that led to him taking home the 2004 W.C. Handy Award for Best New Artist Debut. Clearly, this allowed the ever-musically voracious Curran a chance to stretch his chops and imbibe more of the vast array of influences that spark his interests, from '40s jump blues and '50s rock & roll, to '70s punk and '80s hard rock. All of which Curran brings to bear on his fiendishly inspired, 2010 solo comeback Reform School Girl. A fiery, campy, and insanely rockin' album, Reform School Girl sounds like something along the lines of Little Richard backed by the Misfits with Phil Spector recording the proceedings in his garage. Which isn't to say that the album sounds sonically "gross" -- raw, for sure, but ain't that the point?! -- in fact, Curran has hooked up yet-again with his longtime partner in crime Billy Horton who helped deliver the old-school vintage sound that Curran has made his trademark. Further, while Curran can lay blues-pipe as good as any of the other contemporary T-Bone Walker and Jimmie Vaughan freaks, the blues is only one of many connective musical tissues he rips through here. To these ends, the title track finds Curran nodding his Wild One motorcycle cap to the Ronettes as he humorously turns the standard girl-gone-bad story on its head. Elsewhere, burners like "Kill My Baby," "Psycho," and "Baby You Crazy" are fingersnapping rockers with deliciously nasty sentiments that call into question the exact nature of Curran's romantic devotion. Also inspired is the Ritchie Valens-esque rave-up "Filthy" (a Deguello carry-over), and Curran's revelatory head-thumping take on AC/DC's "Rocker."

Review by Matt Collar, Allmusic.com
”






Tracklist:

01. Tough Lover (02:14)
02. Reel Rock Party (03:09)
03. Reform School Girl (03:53)
04. Kill My Baby (03:07)
05. Psycho (01:56)
06. Sheena's Back (02:58)
07. Baby You Crazy (02:12)
08. Ain't No Good (02:18)
09. The Lowlife (02:52)
10. Dream Girl (04:32)
11. Flyin' Blind (03:14)
12. Lusty L'il Lucy (02:31)
13. Filthy (02:48)
14. Rocker (01:28)


Exact Audio Copy V1.0 beta 6 from 9. April 2015

EAC extraction logfile from 2. September 2015, 6:53

Nick Curran / Reform School Girl

Used drive : Optiarc DVD RW AD-7240S Adapter: 1 ID: 0

Read mode : Secure
Utilize accurate stream : Yes
Defeat audio cache : Yes
Make use of C2 pointers : No

Read offset correction : 48
Overread into Lead-In and Lead-Out : No
Fill up missing offset samples with silence : Yes
Delete leading and trailing silent blocks : No
Null samples used in CRC calculations : Yes
Used interface : Native Win32 interface for Win NT & 2000

Used output format : User Defined Encoder
Selected bitrate : 896 kBit/s
Quality : High
Add ID3 tag : No
Command line compressor : C:Program Files (x86)Exact Audio CopyFlacflac.exe
Additional command line options : -6 -V -T "ARTIST=%artist%" -T "TITLE=%title%" -T "ALBUM=%albumtitle%" -T "DATE=%year%" -T "TRACKNUMBER=%tracknr%" -T "GENRE=%genre%" -T "COMMENT=%comment%" -T "BAND=%albuminterpret%" -T "COMPOSER=%composer%" %haslyrics%--tag-from-file=LYRICS="%lyricsfile%"%haslyrics% -T "DISCNUMBER=%cdnumber%" -T "TOTALDISCS=%totalcds%" -T "TOTALTRACKS=%numtracks%" %hascover%--picture="%coverfile%"%hascover% %source% -o %dest%


TOC of the extracted CD

Track | Start | Length | Start sector | End sector
---------------------------------------------------------
1 | 0:00.00 | 2:14.29 | 0 | 10078
2 | 2:14.29 | 3:09.52 | 10079 | 24305
3 | 5:24.06 | 3:53.16 | 24306 | 41796
4 | 9:17.22 | 3:07.01 | 41797 | 55822
5 | 12:24.23 | 1:56.52 | 55823 | 64574
6 | 14:21.00 | 2:58.58 | 64575 | 77982
7 | 17:19.58 | 2:12.61 | 77983 | 87943
8 | 19:32.44 | 2:18.54 | 87944 | 98347
9 | 21:51.23 | 2:52.34 | 98348 | 111281
10 | 24:43.57 | 4:32.52 | 111282 | 131733
11 | 29:16.34 | 3:14.14 | 131734 | 146297
12 | 32:30.48 | 2:31.34 | 146298 | 157656
13 | 35:02.07 | 2:48.11 | 157657 | 170267
14 | 37:50.18 | 1:28.15 | 170268 | 176882


Range status and errors

Selected range

Filename D:My Music Archive_D__My RipsNick Curran & The Lowlifes - Reform School GirlNick Curran - Reform School Girl.wav

Peak level 98.3 %
Extraction speed 3.6 X
Range quality 100.0 %
Test CRC 611DB3E0
Copy CRC 611DB3E0
Copy OK

No errors occurred


AccurateRip summary

Track 1 cannot be verified as accurate (confidence 7) [3559EE30], AccurateRip returned [2BACE492] (AR v2)
Track 2 cannot be verified as accurate (confidence 7) [2BD47D69], AccurateRip returned [226F770D] (AR v2)
Track 3 cannot be verified as accurate (confidence 7) [9F1B67B0], AccurateRip returned [44A90AA9] (AR v2)
Track 4 cannot be verified as accurate (confidence 7) [DCDF2709], AccurateRip returned [1ECE6B52] (AR v2)
Track 5 cannot be verified as accurate (confidence 7) [537C34A9], AccurateRip returned [08EFEAC7] (AR v2)
Track 6 cannot be verified as accurate (confidence 7) [5B419749], AccurateRip returned [9A1DD05D] (AR v2)
Track 7 cannot be verified as accurate (confidence 7) [96672C24], AccurateRip returned [D17A67D7] (AR v2)
Track 8 cannot be verified as accurate (confidence 7) [1A639116], AccurateRip returned [F66A692C] (AR v2)
Track 9 cannot be verified as accurate (confidence 7) [D91C6786], AccurateRip returned [AB254438] (AR v2)
Track 10 cannot be verified as accurate (confidence 7) [7CA797C2], AccurateRip returned [C241E7FD] (AR v2)
Track 11 cannot be verified as accurate (confidence 7) [91F5D311], AccurateRip returned [10254BF2] (AR v2)
Track 12 cannot be verified as accurate (confidence 7) [EC63E3F3], AccurateRip returned [0F4B0051] (AR v2)
Track 13 cannot be verified as accurate (confidence 7) [E1C81EC1], AccurateRip returned [E00720AE] (AR v2)
Track 14 cannot be verified as accurate (confidence 7) [43A0592A], AccurateRip returned [ED2C02AE] (AR v2)

No tracks could be verified as accurate
You may have a different pressing from the one(s) in the database

End of status report

==== Log checksum 7B4C722F43C600460FA95C5F1C80B7534A2DA6AD1BD6AF42E08ABAB44D8C64BF ====

foobar2000 1.2 / Dynamic Range Meter 1.1.1
log date: 2015-09-05 20:23:25

--------------------------------------------------------------------------------
Analyzed: Nick Curran / Reform School Girl
--------------------------------------------------------------------------------

DR Peak RMS Duration Track
--------------------------------------------------------------------------------
DR7 -0.15 dB -8.32 dB 2:14 01-Tough Lover
DR7 -0.15 dB -8.64 dB 3:10 02-Reel Rock Party
DR7 -0.14 dB -8.93 dB 3:53 03-Reform School Girl
DR7 -0.15 dB -8.32 dB 3:07 04-Kill My Baby
DR6 -0.15 dB -7.82 dB 1:57 05-Psycho
DR7 -0.15 dB -8.45 dB 2:59 06-Sheena's Back
DR7 -0.15 dB -8.20 dB 2:13 07-Baby You Crazy
DR7 -0.14 dB -8.71 dB 2:19 08-Ain't No Good
DR7 -0.15 dB -8.24 dB 2:52 09-The Lowlife
DR7 -0.15 dB -9.50 dB 4:33 10-Dream Girl
DR7 -0.15 dB -8.95 dB 3:14 11-Flyin' Blind
DR7 -0.15 dB -8.02 dB 2:31 12-Lusty L'il Lucy
DR7 -0.15 dB -8.63 dB 2:48 13-Filthy
DR6 -0.14 dB -8.00 dB 1:28 14-Rocker
--------------------------------------------------------------------------------

Number of tracks: 14
Official DR value: DR7

Samplerate: 44100 Hz
Channels: 2
Bits per sample: 16
Bitrate: 480 kbps
Codec: FLAC
================================================================================



All thanks to original releaser - funny_horse



Password: designol