Sandra - Mirrors (1986) [Japan] Re-up


Sandra - Mirrors (1986)
EAC Rip | FLAC (Img) + Cue + Log ~ 229 Mb | MP3 CBR320 ~ 85 Mb
Scans: PNG, 600 dpi ~ 341 Mb or JPG, 600 dpi ~ 94 Mb | RAR 5% Recovery
Synth-pop | Victor #VDP-1169

Mirrors is the second studio album from German singer Sandra, released in 1986. The album was produced by Michael Cretu and Armand Volker. It reached #16 in Germany, #14 in Norway, #40 in Sweden and #13 in Switzerland. Producer Michael Cretu used more of the writing and singing talents of Hubert Kemmler (who was already a popular singer in Germany under the name of Hubert Kah). The song "Don't Cry (The Breakup of the World)" was written in reaction to the Chernobyl disaster in 1986. The second album continued the same success all over Europe as the first one had previously done.
~ Wiki

| |

***************


Track List:

01. The Second Day [00:45]
02. Don't Cry [04:47]
03. Hi! Hi! Hi! [04:12]
04. Midnight Man [03:05]
05. You'll Be Mine [04:33]
06. Innocent Love [05:26]
07. Two Lovers Tonight [03:47]
08. Mirror Of Love [04:15]
09. Loreen [04:18]

Exact Audio Copy V0.99 prebeta 5 from 4. May 2009

Отчёт EAC об извлечении, выполненном 11. августа 2011, 2:14

SANDRA / MIRRORS

Дисковод: PLEXTOR CD-R PREMIUM2 Adapter: 0 ID: 0

Режим чтения : Достоверность
Использование точного потока : Да
Отключение кэша аудио : Да
Использование указателей C2 : Нет

Коррекция смещения при чтении : 30
Способность читать области Lead-in и Lead-out : Нет
Заполнение пропущенных сэмплов тишиной : Да
Удаление блоков с тишиной в начале и конце : Нет
При вычислениях CRC использовались нулевые сэмплы : Да
Интерфейс : Встроенный Win32-интерфейс для Win NT/2000

Выходной формат : Внутренние WAV-операции
Формат сэмплов : 44.100 Гц; 16 бит; стерео


TOC извлечённого CD

Трек | Старт | Длительность | Начальный сектор | Конечный сектор
---------------------------------------------------------------------
1 | 0:00.37 | 0:44.53 | 37 | 3389
2 | 0:45.15 | 4:46.60 | 3390 | 24899
3 | 5:32.00 | 4:12.00 | 24900 | 43799
4 | 9:44.00 | 3:04.65 | 43800 | 57664
5 | 12:48.65 | 4:32.22 | 57665 | 78086
6 | 17:21.12 | 5:25.08 | 78087 | 102469
7 | 22:46.20 | 3:46.70 | 102470 | 119489
8 | 26:33.15 | 4:14.57 | 119490 | 138596
9 | 30:47.72 | 4:17.35 | 138597 | 157906


Характеристики диапазона извлечения и сообщения об ошибках

Выбранный диапазон

Имя файла C:Sandra - Mirors (Victor VDP-1169).wav

Пиковый уровень 94.4 %
Качество диапазона 100.0 %
CRC теста C12709AA
CRC копии C12709AA
Копирование... OK

Ошибок не произошло


AccurateRip: сводка

Трек 1 точность не определена (достоверность 1) [A1857D1C], AccurateRip вернул [FEBF7ED6]
Трек 2 нет в базе данных
Трек 3 нет в базе данных
Трек 4 нет в базе данных
Трек 5 нет в базе данных
Трек 6 нет в базе данных
Трек 7 нет в базе данных
Трек 8 нет в базе данных
Трек 9 нет в базе данных

1 трек(и) не удалось проверить на точность
8 трек(и) не содержатся в базе AccurateRip

Ни один трек не прошёл проверки на точность
В вашей базе может быть иной вариант штамповки диска

Конец отчёта

foobar2000 1.2.6 / Dynamic Range Meter 1.1.1
log date: 2015-09-07 01:52:21

--------------------------------------------------------------------------------
Analyzed: SANDRA / MIRRORS
--------------------------------------------------------------------------------

DR Peak RMS Duration Track
--------------------------------------------------------------------------------
DR10 -9.63 dB -25.89 dB 0:45 01-01 THE SECOND DAY
DR12 -2.15 dB -17.72 dB 4:47 02-02 DON'T CRY
DR13 -1.39 dB -17.38 dB 4:12 03-03 HI! HI! HI!
DR13 -1.57 dB -16.77 dB 3:05 04-04 MIDNIGHT MAN
DR14 -1.22 dB -17.90 dB 4:32 05-05 YOU'LL BE MINE
DR12 -2.12 dB -16.60 dB 5:25 06-06 INNOCENT LOVE
DR14 -2.03 dB -17.89 dB 3:47 07-07 TWO LOVERS TONIGHT
DR13 -0.50 dB -17.07 dB 4:15 08-08 MIRROR OF LOVE
DR13 -2.26 dB -17.27 dB 4:17 09-09 LOREEN
--------------------------------------------------------------------------------

Number of tracks: 9
Official DR value: DR13

Samplerate: 44100 Hz
Channels: 2
Bits per sample: 16
Bitrate: 863 kbps
Codec: FLAC
================================================================================

[CUETools log; Date: 07.09.2015 1:50:58; Version: 2.1.5]
Pregap length 00:00:37.
[CTDB TOCID: c3A4VRULwWaWmnBxfgWmPLcK2wo-] found.
Track | CTDB Status
1 | (1/1) Accurately ripped
2 | (1/1) Accurately ripped
3 | (1/1) Accurately ripped
4 | (1/1) Accurately ripped
5 | (1/1) Accurately ripped
6 | (1/1) Accurately ripped
7 | (1/1) Accurately ripped
8 | (1/1) Accurately ripped
9 | (1/1) Accurately ripped
[AccurateRip ID: 000b1547-00542001-7c083909] found.
Track [ CRC | V2 ] Status
01 [a1857d1c|febf7ed6] (1+1/2) Accurately ripped
02 [a08fbc2f|e110414e] (1+1/3) Accurately ripped
03 [117bd68f|2bcabcda] (1+1/3) Accurately ripped
04 [90aa9708|cf2e5241] (1+1/3) Accurately ripped
05 [a7fc19aa|a4dfdc14] (1+1/3) Accurately ripped
06 [0db9a4b3|b07e48b0] (1+1/3) Accurately ripped
07 [dc241902|4a586f2b] (1+1/3) Accurately ripped
08 [73ff3575|fd3644aa] (1+1/3) Accurately ripped
09 [c9858178|f93131ff] (1+1/3) Accurately ripped

Track Peak [ CRC32 ] [W/O NULL] [ LOG ]
-- 94,4 [C12709AA] [37283417] CRC32
01 33,0 [0BDF7EA6] [53408B40]
02 78,0 [86917B0A] [95D2B5C8]
03 85,2 [05F536C0] [6BFA0185]
04 83,4 [882459CD] [6ADE5CB6]
05 86,9 [F93E7A96] [639311E0]
06 78,3 [6901268A] [8B96E426]
07 79,1 [C21C13DF] [2515728C]
08 94,4 [7CCCDD78] [991C3A0E]
09 77,0 [99465CA6] [2B55D0C3]



All thanks go to Gretzky Wayne



Download:


Uploadable: | | |

Hitfile: | | |