Вход в свой аккаунт

Или войдите через соц. сети

Big John Patton - Let 'Em Roll (1965) Reissue 1993


Big John Patton - Let 'Em Roll (1965) Reissue 1993
EAC | FLAC | Tracks (Cue&Log) ~ 289 Mb (incl 5%) | Mp3 (CBR320) ~ 124 Mb (incl 5%) | Scans included
Genre: Jazz, Hard Bop, Soul Jazz | Label: Blue Note | # CDP 0777 7 89795 2 4 | Time: 00:40:01

“ This album is INCREDIBLE. The way Bobby Hutcherson, Grant Green and John Patton lock in on their lines is almost surreal. The selections groove, but they're also deep, and the the musicians seem to connect on a deeply spiritual level. - - This is NOT just another Jazz organ combo album. It takes a new direction - - the sound is modern and progressive... John Patton at times is earthy and bluesy and at other times, very off center and mesmerizing. Melodically the stuff he's doing is almost Coltrane-esque, however, John's style is to understate things, and play with your sense of melodic imagination. Its an interactive listen, but if you're not feeling deep, you can say, "What the heck !" and get up and dance and it'll be just as good. This is probably one of the most inspired sessions to come out of those studios.

Review by Eddie Landsberg, Amazon.com
”


“ In an unusual setting for a groove/soul jazz setting, B3 organist extraordinaire big John Patton creates a band around himself that includes Grant Green, drummer Otis Finch, and vibraphonist Bobby Hutcherson. It's truly weird to think of vibes on a groove date, but the way Patton's understated playing works, and the way Green is literally all things to all players, Hutcherson's role is not only a clearly defined one, but adds immeasurably to both depth and texture on this date. What also makes this possible is the symbiotic relationship between Patton and Green. There is a double groove conscious swing happening on every track here, from the bluesed-out slip and slide of the title track which opens the record to a killer version of Hank Mobley's "The Turnaround," which expands the blues vibe into solid soul territory because of Hutcherson's ability to play pianistically and slip into the funk groove whenever necessary. Green's deadly in his solo on the track, shimmering arpeggios through Patton's big fat chords and chunky hammering runs. Also notable are Patton's own tunes, the most beautiful of which is "Latona," a floating Latin number with a killer salsa rhythm in 6/8. As Patton vamps through the chorus, Green slips in one of his gnarliest solos ever. It begins with a groove like run in the hard bop blues and then shoves itself into overdrive, capturing the cold sweat of a Bola Sete or Wes Montgomery in his groove years. But when Green goes for the harmonic edges, all bets are off: Hutcherson lays out, and he and Patton go running to the bridge and bring the melody back just in time to take it out. This is one of the least appreciated of Patton's records, and there's no reason for it; it is great.

Review by Thom Jurek, Allmusic.com
”






Tracklist:

01. Let 'Em Roll (06:46)
02. Latona (07:22)
03. The Shadow of Your Smile (06:53)
04. The Turnaround (06:46)
05. Jakey (05:35)
06. One Step Ahead (06:26)


Exact Audio Copy V1.0 beta 4 from 7. December 2014

EAC extraction logfile from 18. July 2015, 21:31

Big John Patton / Let 'Em Roll

Used drive : TSSTcorpCDDVDW SH-224DB Adapter: 1 ID: 0

Read mode : Secure
Utilize accurate stream : Yes
Defeat audio cache : Yes
Make use of C2 pointers : No

Read offset correction : 6
Overread into Lead-In and Lead-Out : No
Fill up missing offset samples with silence : Yes
Delete leading and trailing silent blocks : No
Null samples used in CRC calculations : Yes
Used interface : Native Win32 interface for Win NT & 2000
Gap handling : Appended to previous track

Used output format : User Defined Encoder
Selected bitrate : 896 kBit/s
Quality : High
Add ID3 tag : No
Command line compressor : C:Program FilesExact Audio CopyFlacflac.exe
Additional command line options : -6 -V -T "ARTIST=%artist%" -T "TITLE=%title%" -T "ALBUM=%albumtitle%" -T "DATE=%year%" -T "TRACKNUMBER=%tracknr%" -T "GENRE=%genre%" -T "COMMENT=%comment%" %source% -o %dest%


TOC of the extracted CD

Track | Start | Length | Start sector | End sector
---------------------------------------------------------
1 | 0:00.33 | 6:48.20 | 33 | 30652
2 | 6:48.53 | 7:23.55 | 30653 | 63932
3 | 14:12.33 | 6:55.40 | 63933 | 95097
4 | 21:07.73 | 6:49.57 | 95098 | 125829
5 | 27:57.55 | 5:37.25 | 125830 | 151129
6 | 33:35.05 | 6:26.58 | 151130 | 180137


Track 1

Filename C:New Folder1 - Let 'Em Roll.wav

Pre-gap length 0:00:02.33

Peak level 95.7 %
Extraction speed 2.2 X
Track quality 100.0 %
Test CRC 73181A11
Copy CRC 73181A11
Accurately ripped (confidence 7) [AD036849] (AR v2)
Copy OK

Track 2

Filename C:New Folder2 - Latona.wav

Pre-gap length 0:00:01.30

Peak level 96.7 %
Extraction speed 2.2 X
Track quality 100.0 %
Test CRC 807E747E
Copy CRC 807E747E
Accurately ripped (confidence 7) [5940700B] (AR v2)
Copy OK

Track 3

Filename C:New Folder3 - The Shadow of Your Smile.wav

Pre-gap length 0:00:01.28

Peak level 92.2 %
Extraction speed 2.2 X
Track quality 100.0 %
Test CRC 6CE017CB
Copy CRC 6CE017CB
Accurately ripped (confidence 7) [AFF8C459] (AR v2)
Copy OK

Track 4

Filename C:New Folder4 - The Turnaround.wav

Pre-gap length 0:00:01.65

Peak level 95.4 %
Extraction speed 2.2 X
Track quality 100.0 %
Test CRC 39199121
Copy CRC 39199121
Accurately ripped (confidence 7) [CFA23B9F] (AR v2)
Copy OK

Track 5

Filename C:New Folder5 - Jakey.wav

Pre-gap length 0:00:03.25

Peak level 95.7 %
Extraction speed 1.9 X
Track quality 99.9 %
Test CRC 0CA61582
Copy CRC 0CA61582
Accurately ripped (confidence 7) [32A5A952] (AR v2)
Copy OK

Track 6

Filename C:New Folder6 - One Step Ahead.wav

Pre-gap length 0:00:01.27

Peak level 94.4 %
Extraction speed 2.0 X
Track quality 99.9 %
Test CRC EEB5C2C0
Copy CRC EEB5C2C0
Accurately ripped (confidence 7) [824B7C61] (AR v2)
Copy OK


All tracks accurately ripped

No errors occurred

End of status report

---- CUETools DB Plugin V2.1.4

[CTDB TOCID: rn0yv_xVOJKiQLV4u1U5ZUc_3_U-] found
Submit result: rn0yv_xVOJKiQLV4u1U5ZUc_3_U- has been confirmed
Track | CTDB Status
1 | (2/2) Accurately ripped
2 | (1/2) Accurately ripped
3 | (2/2) Accurately ripped
4 | (1/2) Accurately ripped
5 | (1/2) Accurately ripped
6 | (2/2) Accurately ripped


==== Log checksum E7F22F6E30FF6FB761921A281C58710EDDD6C63491092FA6FA52BB52FB197FA0 ====

foobar2000 1.2 / Dynamic Range Meter 1.1.1
log date: 2015-09-09 17:47:05

--------------------------------------------------------------------------------
Analyzed: Big John Patton / Let 'Em Roll
--------------------------------------------------------------------------------

DR Peak RMS Duration Track
--------------------------------------------------------------------------------
DR10 -0.37 dB -12.54 dB 6:48 01-Let 'Em Roll
DR10 -0.28 dB -11.45 dB 7:24 02-Latona
DR12 -0.70 dB -15.50 dB 6:56 03-The Shadow of Your Smile
DR11 -0.41 dB -12.66 dB 6:50 04-The Turnaround
DR12 -0.38 dB -13.99 dB 5:37 05-Jakey
DR11 -0.50 dB -13.03 dB 6:27 06-One Step Ahead
--------------------------------------------------------------------------------

Number of tracks: 6
Official DR value: DR11

Samplerate: 44100 Hz
Channels: 2
Bits per sample: 16
Bitrate: 891 kbps
Codec: FLAC
================================================================================



All thanks to original releaser - alekow



Password: designol