Wanda Jackson - Right Or Wrong (1992) [4CD Box Set] Re-uploaD


Wanda Jackson - Right Or Wrong (1992) [4CD Box Set]
EAC | FLAC+CUEs+LOGs - 1,67 GB | Covers, No book | MP3 CBR 320 Kbps - 721 MB
Country / Rockabilly | TT - 308:34 minutes | Label: Bear Family Records / Cat. # BCD 15629 DI

How she could sing! At 17 she was dating Elvis, and when he told her she should switch to rock 'n' roll, she did! Then the fireworks started. All the great rockin' sides are here: the early Deccas, and all the Capitol recordings up to 1962. Fujiyama Mama, Mean Mean Man, Party, I Gotta Know... etc. The country hits are here too, like Right Or Wrong and In The Middle Of A Heartache, as well as the original Silver Threads And Golden Needles, and the original version of the song she wrote for Buck Owens, Kickin' Our Hearts Around. Listen for the dynamite guitar of Roy Clark, plus Al Downing and the Poe Cats, and the Los Angeles session cats...

If you really want to go all-out on a Wanda Jackson binge, then this monolithic Bear Family box set would be the place to start. This 4-CD set starts off with some of Jackson's earliest (and least well-known) country recordings, made as early as 1954, well before her rockabilly heyday, then moves on to collect all her best rock'n'roll numbers (whew!!), before dipping into the Nashville-styled country groove that she settled into after the rockabilly craze died down. The early tracks are a real revelation, since Wanda's '60s Nashville work was much more sedate and ballad-oriented; it's pretty cool to hear just how rural and hard country she really was.


This four-CD set is like a photo album of Wanda Jackson growing up, from innocent adolescent to rockabilly star and the dominant female country singer of the early 1960s. Her complete recordings from the first Decca session in March 1954 until her Capitol session of November 2, 1962, constitute the part of her career that rock & roll and rockabilly fans most care about. Disc one covers those early years, the 15 songs she cut for Decca Records through 1955, when she was still treading a fine line in country music, seemingly trying to be the next Kitty Wells at least part of the time. The singing is glorious and the playing solid, although Jackson, working in this idiom, was like a racing thoroughbred being asked to canter around a track. Then comes "Baby Loves Him," a Jackson original that redefined her for the next few years as a rockabilly star. Disc two features Jackson treading that fine line between straight country and rock & roll, interspersed with slower, more traditional numbers. As late as 1961, Disc three reveals, Jackson was still courting the rock & roll audience, although the main thrust of her career was moving back toward pure country, with forays into pop and country-pop. The country material on Disc four had a serious edge to it by now, and the rock & roll was almost superfluous. By late 1962 and early 1963, however, her sides show the kind of opulent overproduction, complete with choruses and string sections, that would help give country-pop a bad name; her voice is as good as ever, but the material is a stretch after the hot rockin' sides. The booklet is more thorough than most from Bear Family.

-- Bruce Eder, allmisic.com


Disc One:

01. If You Knew What I Know
02. Lovin' Country Style
03. The Heart You Could Have Had
04. The Right To Love
05. You Can't Have My Love (With Billy Gray)
06. If You Don't Somebody Else Will (With Billy Gray)
07. You'd Be The First One To Know
08. It's The Same World (Wherever You Go)
09. Tears At The Grand Ole Opry
10. Don't Do The Things He'd Do
11. Nobody's Darlin' But Mine
12. Wasted
13. I Cried Again
14. I'd Rather Have A Broken Heart
15. You Won't Forget (About Me)
16. Step By Step
17. Half As Good A Girl
18. I Gotta Know
19. Cryin' Thru The Night
20. Baby Loves Him
21. Honey Bop
22. Silver Threads And Golden Needles
23. Hot Dog! That Made Him Mad
24. Did You Miss Me
25. Cool Love
26. Let Me Explain
27. Don'a Wan'a
28. No Wedding Bells For Joe
29. Fujiyama Mama
30. Just Queen For A Day

Exact Audio Copy V0.99 prebeta 4 from 23. January 2008

Отчёт EAC об извлечении, выполненном 4. марта 2009, 14:54

Wanda Jackson / Right Or Wrong 4 CD Box 1954 - 1962 (Disc 1)

Дисковод: Optiarc DVD RW AD-7203A Adapter: 3 ID: 0

Режим чтения : Достоверность
Использование точного потока : Да
Отключение кэша аудио : Да
Использование указателей C2 : Нет

Коррекция смещения при чтении : 48
Способность читать области Lead-in и Lead-out : Нет
Заполнение пропущенных сэмплов тишиной : Да
Удаление блоков с тишиной в начале и конце : Нет
При вычислениях CRC использовались нулевые сэмплы : Да
Интерфейс : Установленный внешний ASPI-интерфейс

Выходной формат : Внутренние WAV-операции
Формат сэмплов : 44.100 Гц; 16 бит; стерео


TOC извлечённого CD

Трек | Старт | Длительность | Начальный сектор | Конечный сектор
---------------------------------------------------------------------
1 | 0:00.00 | 2:38.40 | 0 | 11889
2 | 2:38.40 | 2:30.58 | 11890 | 23197
3 | 5:09.23 | 2:22.70 | 23198 | 33917
4 | 7:32.18 | 2:33.72 | 33918 | 45464
5 | 10:06.15 | 2:31.30 | 45465 | 56819
6 | 12:37.45 | 2:17.03 | 56820 | 67097
7 | 14:54.48 | 2:28.00 | 67098 | 78197
8 | 17:22.48 | 2:27.52 | 78198 | 89274
9 | 19:50.25 | 2:23.50 | 89275 | 100049
10 | 22:14.00 | 2:46.08 | 100050 | 112507
11 | 25:00.08 | 2:50.05 | 112508 | 125262
12 | 27:50.13 | 2:20.47 | 125263 | 135809
13 | 30:10.60 | 2:34.60 | 135810 | 147419
14 | 32:45.45 | 2:16.03 | 147420 | 157622
15 | 35:01.48 | 2:25.72 | 157623 | 168569
16 | 37:27.45 | 2:40.18 | 168570 | 180587
17 | 40:07.63 | 3:12.17 | 180588 | 195004
18 | 43:20.05 | 2:30.55 | 195005 | 206309
19 | 45:50.60 | 3:01.20 | 206310 | 219904
20 | 48:52.05 | 2:01.15 | 219905 | 228994
21 | 50:53.20 | 2:16.03 | 228995 | 239197
22 | 53:09.23 | 2:37.40 | 239198 | 251012
23 | 55:46.63 | 2:41.45 | 251013 | 263132
24 | 58:28.33 | 2:18.17 | 263133 | 273499
25 | 60:46.50 | 2:18.58 | 273500 | 283907
26 | 63:05.33 | 2:28.50 | 283908 | 295057
27 | 65:34.08 | 2:16.15 | 295058 | 305272
28 | 67:50.23 | 2:31.50 | 305273 | 316647
29 | 70:21.73 | 2:15.45 | 316648 | 326817
30 | 72:37.43 | 2:27.55 | 326818 | 337897


Характеристики диапазона извлечения и сообщения об ошибках

Выбранный диапазон

Имя файла D:РаздачиWanda JacksonCD 1Wanda Jackson - Right Or Wrong 4 CD Box 1954 - 1962 (Disc 1).wav

Пиковый уровень 100.0 %
Качество диапазона 100.0 %
CRC копии B9629AD5
Копирование... OK

Ошибок не произошло


AccurateRip: сводка

Трек 1 нет в базе данных
Трек 2 нет в базе данных
Трек 3 нет в базе данных
Трек 4 нет в базе данных
Трек 5 нет в базе данных
Трек 6 нет в базе данных
Трек 7 нет в базе данных
Трек 8 нет в базе данных
Трек 9 нет в базе данных
Трек 10 нет в базе данных
Трек 11 нет в базе данных
Трек 12 нет в базе данных
Трек 13 нет в базе данных
Трек 14 нет в базе данных
Трек 15 нет в базе данных
Трек 16 нет в базе данных
Трек 17 нет в базе данных
Трек 18 нет в базе данных
Трек 19 нет в базе данных
Трек 20 нет в базе данных
Трек 21 нет в базе данных
Трек 22 нет в базе данных
Трек 23 нет в базе данных
Трек 24 нет в базе данных
Трек 25 нет в базе данных
Трек 26 нет в базе данных
Трек 27 нет в базе данных
Трек 28 нет в базе данных
Трек 29 нет в базе данных
Трек 30 нет в базе данных

Ни одного трека нет в базе AccurateRip

Конец отчёта

[AccurateRip ID: 005082c4-06b5db56-ac11991e] found.
Track [ CRC ] Status
01 [7df0dc17] (2/2) Accurately ripped
02 [515e7f2a] (2/2) Accurately ripped
03 [7cdc13fa] (2/2) Accurately ripped
04 [92389703] (2/2) Accurately ripped
05 [4f00e977] (2/2) Accurately ripped
06 [48b4af7a] (2/2) Accurately ripped
07 [18a6160c] (2/2) Accurately ripped
08 [c3b1c1f6] (2/2) Accurately ripped
09 [27be3cda] (2/2) Accurately ripped
10 [c9d933e0] (2/2) Accurately ripped
11 [f29e4f92] (2/2) Accurately ripped
12 [838a7152] (2/2) Accurately ripped
13 [fa02de03] (0/0) No match but offset
14 [5f18739e] (2/2) Accurately ripped
15 [ee2f1186] (2/2) Accurately ripped
16 [abc279b9] (2/2) Accurately ripped
17 [a09dec4e] (2/2) Accurately ripped
18 [912c7090] (2/2) Accurately ripped
19 [b9d27e4c] (2/2) Accurately ripped
20 [1a8dcc7f] (2/2) Accurately ripped
21 [e3b762aa] (2/2) Accurately ripped
22 [bef474d8] (2/2) Accurately ripped
23 [e6288672] (2/2) Accurately ripped
24 [941ccb88] (2/2) Accurately ripped
25 [15c6e545] (2/2) Accurately ripped
26 [85720ffa] (2/2) Accurately ripped
27 [8827e450] (2/2) Accurately ripped
28 [e0de22b2] (2/2) Accurately ripped
29 [769ddb3e] (2/2) Accurately ripped
30 [d93ea865] (2/2) Accurately ripped

Track Peak [ CRC32 ] [W/O NULL] [ LOG ]
-- 100,0 [B9629AD5] [44D77838] CRC32
01 72,6 [2DA0AEA5] [8A5D0FCC]
02 79,6 [58DE6A28] [ECF041BE]
03 78,2 [3EC690A9] [0568A4FE]
04 76,6 [D0A0B2B0] [A07B5ED5]
05 86,1 [61240282] [F8AD1A91]
06 70,9 [0E85C7F0] [EA41037E]
07 72,9 [40157707] [195DCCDC]
08 70,6 [2A85B4C2] [F32B0647]
09 77,6 [CDF70D60] [07F5D5F8]
10 72,0 [AD5D70EF] [9AE5B4E9]
11 75,2 [1A749638] [2AD1ABF5]
12 77,0 [521CFF7A] [9524CBE7]
13 79,4 [0AADBCDF] [FB91FD9B]
14 85,6 [E0C21DD3] [30A4DC9F]
15 74,2 [D5B381C9] [CB7A5449]
16 73,9 [5320DA1C] [25004D12]
17 79,8 [7A111404] [2CC5969B]
18 92,4 [AAF8B509] [12E875AD]
19 88,9 [2A4AE72D] [7BFEA14A]
20 98,0 [8B5A911B] [C8CA96DC]
21 100,0 [01A2F391] [A1957969]
22 84,4 [EA42FAA5] [DD4C4283]
23 94,9 [644B17D4] [4F16E9B3]
24 99,8 [77589A29] [1E96ECF4]
25 100,0 [E3B629ED] [E7A291E8]
26 98,5 [AB71EB04] [1AF5D942]
27 86,2 [54A5BA3A] [98395330]
28 95,4 [E4BF050C] [FAC1BE3A]
29 95,2 [D74A52ED] [DF122D3E]
30 90,7 [6A53CACD] [16784C9F]



Disc Two:

01. Makin' Believe
02. Just Call Me Lonesome
03. Happy, Happy Birthday
04. Let Me Go, Lover
05. (Let's Have A) Party
06. Day Dreaming
07. Heartbreak Ahead
08. Here We Are Again
09. I Wanna Waltz
10. I Can't Make My Dreams Understand
11. Money Honey
12. Long Tall Sally
13. Sinful Heart
14. Mean Mean Man
15. Rock Your Baby
16. A Date With Jerry
17. (Every Time They Play) Our Song
18. You've Turned To A Stranger
19. Reaching
20. I'd Rather Have You
21. Savin' My Love
22. You're The One For Me
23. In The Middle Of A Heartache
24. Please Call Today
25. My Destiny
26. The Wrong Kind Of Girl
27. Kansas City
28. Fallin'
29. Sparklin Brown Eyes
30. Hard Headed Woman
31. Baby, Baby, Bye Bye
32. It Doesn't Matter Anymore

Exact Audio Copy V0.99 prebeta 4 from 23. January 2008

Отчёт EAC об извлечении, выполненном 4. марта 2009, 15:20

Wanda Jackson / Right Or Wrong 4 CD Box 1954 - 1962 (Disc 2)

Дисковод: Optiarc DVD RW AD-7203A Adapter: 3 ID: 0

Режим чтения : Достоверность
Использование точного потока : Да
Отключение кэша аудио : Да
Использование указателей C2 : Нет

Коррекция смещения при чтении : 48
Способность читать области Lead-in и Lead-out : Нет
Заполнение пропущенных сэмплов тишиной : Да
Удаление блоков с тишиной в начале и конце : Нет
При вычислениях CRC использовались нулевые сэмплы : Да
Интерфейс : Установленный внешний ASPI-интерфейс

Выходной формат : Внутренние WAV-операции
Формат сэмплов : 44.100 Гц; 16 бит; стерео


TOC извлечённого CD

Трек | Старт | Длительность | Начальный сектор | Конечный сектор
---------------------------------------------------------------------
1 | 0:00.00 | 2:21.10 | 0 | 10584
2 | 2:21.10 | 3:09.02 | 10585 | 24761
3 | 5:30.12 | 2:40.23 | 24762 | 36784
4 | 8:10.35 | 2:10.70 | 36785 | 46604
5 | 10:21.30 | 2:11.37 | 46605 | 56466
6 | 12:32.67 | 3:09.60 | 56467 | 70701
7 | 15:42.52 | 2:48.73 | 70702 | 83374
8 | 18:31.50 | 2:49.25 | 83375 | 96074
9 | 21:21.00 | 2:04.57 | 96075 | 105431
10 | 23:25.57 | 2:24.23 | 105432 | 116254
11 | 25:50.05 | 2:15.72 | 116255 | 126451
12 | 28:06.02 | 2:01.53 | 126452 | 135579
13 | 30:07.55 | 2:38.00 | 135580 | 147429
14 | 32:45.55 | 2:13.57 | 147430 | 157461
15 | 34:59.37 | 1:46.60 | 157462 | 165471
16 | 36:46.22 | 2:15.60 | 165472 | 175656
17 | 39:02.07 | 2:04.70 | 175657 | 185026
18 | 41:07.02 | 2:43.18 | 185027 | 197269
19 | 43:50.20 | 2:22.02 | 197270 | 207921
20 | 46:12.22 | 2:33.05 | 207922 | 219401
21 | 48:45.27 | 2:10.10 | 219402 | 229161
22 | 50:55.37 | 2:03.73 | 229162 | 238459
23 | 52:59.35 | 2:28.42 | 238460 | 249601
24 | 55:28.02 | 2:19.03 | 249602 | 260029
25 | 57:47.05 | 2:25.07 | 260030 | 270911
26 | 60:12.12 | 2:38.38 | 270912 | 282799
27 | 62:50.50 | 2:47.10 | 282800 | 295334
28 | 65:37.60 | 2:50.45 | 295335 | 308129
29 | 68:28.30 | 2:36.62 | 308130 | 319891
30 | 71:05.17 | 1:59.63 | 319892 | 328879
31 | 73:05.05 | 2:10.25 | 328880 | 338654
32 | 75:15.30 | 2:49.57 | 338655 | 351386


Характеристики диапазона извлечения и сообщения об ошибках

Выбранный диапазон

Имя файла D:РаздачиWanda JacksonCD 2Wanda Jackson - Right Or Wrong 4 CD Box 1954 - 1962 (Disc 2).wav

Пиковый уровень 99.9 %
Качество диапазона 100.0 %
CRC копии F5DF9049
Копирование... OK

Ошибок не произошло


AccurateRip: сводка

Трек 1 нет в базе данных
Трек 2 нет в базе данных
Трек 3 нет в базе данных
Трек 4 нет в базе данных
Трек 5 нет в базе данных
Трек 6 нет в базе данных
Трек 7 нет в базе данных
Трек 8 нет в базе данных
Трек 9 нет в базе данных
Трек 10 нет в базе данных
Трек 11 нет в базе данных
Трек 12 нет в базе данных
Трек 13 нет в базе данных
Трек 14 нет в базе данных
Трек 15 нет в базе данных
Трек 16 нет в базе данных
Трек 17 нет в базе данных
Трек 18 нет в базе данных
Трек 19 нет в базе данных
Трек 20 нет в базе данных
Трек 21 нет в базе данных
Трек 22 нет в базе данных
Трек 23 нет в базе данных
Трек 24 нет в базе данных
Трек 25 нет в базе данных
Трек 26 нет в базе данных
Трек 27 нет в базе данных
Трек 28 нет в базе данных
Трек 29 нет в базе данных
Трек 30 нет в базе данных
Трек 31 нет в базе данных
Трек 32 нет в базе данных

Ни одного трека нет в базе AccurateRip

Конец отчёта

[AccurateRip ID: 0059148a-07d64cae-d6124d20] found.
Track [ CRC ] Status
01 [70c532e9] (3/3) Accurately ripped
02 [3c4dc40a] (3/3) Accurately ripped
03 [fa84bfb8] (3/3) Accurately ripped
04 [f5ac018e] (3/3) Accurately ripped
05 [2c22f026] (3/3) Accurately ripped
06 [4f37a7b8] (3/3) Accurately ripped
07 [8277a01b] (3/3) Accurately ripped
08 [78a51e37] (3/3) Accurately ripped
09 [d15fe45e] (3/3) Accurately ripped
10 [6d833ba7] (3/3) Accurately ripped
11 [38a81575] (3/3) Accurately ripped
12 [01cd359b] (3/3) Accurately ripped
13 [584eee48] (3/3) Accurately ripped
14 [c70eec9e] (3/3) Accurately ripped
15 [e1063669] (3/3) Accurately ripped
16 [32fd8b92] (3/3) Accurately ripped
17 [fc9bdcb5] (3/3) Accurately ripped
18 [2a01c708] (3/3) Accurately ripped
19 [7df26558] (3/3) Accurately ripped
20 [dd30893e] (3/3) Accurately ripped
21 [ce432a01] (3/3) Accurately ripped
22 [0fcebc30] (3/3) Accurately ripped
23 [4296a1cc] (3/3) Accurately ripped
24 [175d0479] (3/3) Accurately ripped
25 [03cf9f21] (3/3) Accurately ripped
26 [0617a8b6] (3/3) Accurately ripped
27 [0d6a8a73] (3/3) Accurately ripped
28 [41d710ec] (3/3) Accurately ripped
29 [c4681fba] (3/3) Accurately ripped
30 [1fdb4c05] (3/3) Accurately ripped
31 [50d2adbb] (3/3) Accurately ripped
32 [475f22e5] (3/3) Accurately ripped

Track Peak [ CRC32 ] [W/O NULL] [ LOG ]
-- 99,9 [F5DF9049] [C25DD5A5] CRC32
01 78,3 [4D014A06] [4A0869BF]
02 85,1 [6A68DD2B] [03B63827]
03 89,1 [18C19126] [D528A876]
04 82,2 [74006F5E] [3B80034D]
05 99,4 [0A91C119] [A3F9E469]
06 88,3 [1AE15C47] [FDC872DB]
07 80,5 [A5A7DE87] [56571529]
08 81,8 [31D88194] [5EF6DDFE]
09 82,7 [1F1B593B] [F8183CD7]
10 84,3 [B5E4D449] [E31E6F8A]
11 87,7 [51B3453C] [599F7259]
12 94,1 [1F79B821] [A2AC7D21]
13 84,9 [9384054A] [CC69DE35]
14 93,3 [5EEF84B9] [70CE88E0]
15 99,9 [37E90FDB] [5739B5CF]
16 99,0 [D7CE8742] [56BA6DEE]
17 84,9 [AD7AD0B4] [077F4EF7]
18 80,0 [35101C34] [3CE6B91A]
19 81,4 [866623A1] [9B958F36]
20 85,1 [78F04051] [FA4730CD]
21 83,1 [8975D626] [E5AEE21F]
22 94,4 [FFCE66F0] [DA85C212]
23 75,6 [4D41E042] [97E7A866]
24 76,8 [12849047] [ED988190]
25 86,7 [08DF8278] [C0537C50]
26 86,8 [B2DBBD33] [5C85AD42]
27 80,2 [AF9D56E3] [5C2A5871]
28 79,9 [8D13AFE9] [269E06C2]
29 87,8 [39FF87D9] [ED4095C7]
30 90,2 [56CD4BCE] [5E64B312]
31 84,7 [E8157741] [E5288DAF]
32 85,1 [2F2A20A0] [04769BE2]

[AccurateRip ID: 0059148a-07d64cae-d6124d20] found.
Track [ CRC ] Status
01 [70c532e9] (3/3) Accurately ripped
02 [3c4dc40a] (3/3) Accurately ripped
03 [fa84bfb8] (3/3) Accurately ripped
04 [f5ac018e] (3/3) Accurately ripped
05 [2c22f026] (3/3) Accurately ripped
06 [4f37a7b8] (3/3) Accurately ripped
07 [8277a01b] (3/3) Accurately ripped
08 [78a51e37] (3/3) Accurately ripped
09 [d15fe45e] (3/3) Accurately ripped
10 [6d833ba7] (3/3) Accurately ripped
11 [38a81575] (3/3) Accurately ripped
12 [01cd359b] (3/3) Accurately ripped
13 [584eee48] (3/3) Accurately ripped
14 [c70eec9e] (3/3) Accurately ripped
15 [e1063669] (3/3) Accurately ripped
16 [32fd8b92] (3/3) Accurately ripped
17 [fc9bdcb5] (3/3) Accurately ripped
18 [2a01c708] (3/3) Accurately ripped
19 [7df26558] (3/3) Accurately ripped
20 [dd30893e] (3/3) Accurately ripped
21 [ce432a01] (3/3) Accurately ripped
22 [0fcebc30] (3/3) Accurately ripped
23 [4296a1cc] (3/3) Accurately ripped
24 [175d0479] (3/3) Accurately ripped
25 [03cf9f21] (3/3) Accurately ripped
26 [0617a8b6] (3/3) Accurately ripped
27 [0d6a8a73] (3/3) Accurately ripped
28 [41d710ec] (3/3) Accurately ripped
29 [c4681fba] (3/3) Accurately ripped
30 [1fdb4c05] (3/3) Accurately ripped
31 [50d2adbb] (3/3) Accurately ripped
32 [475f22e5] (3/3) Accurately ripped

Track Peak [ CRC32 ] [W/O NULL] [ LOG ]
-- 99,9 [F5DF9049] [C25DD5A5] CRC32
01 78,3 [4D014A06] [4A0869BF]
02 85,1 [6A68DD2B] [03B63827]
03 89,1 [18C19126] [D528A876]
04 82,2 [74006F5E] [3B80034D]
05 99,4 [0A91C119] [A3F9E469]
06 88,3 [1AE15C47] [FDC872DB]
07 80,5 [A5A7DE87] [56571529]
08 81,8 [31D88194] [5EF6DDFE]
09 82,7 [1F1B593B] [F8183CD7]
10 84,3 [B5E4D449] [E31E6F8A]
11 87,7 [51B3453C] [599F7259]
12 94,1 [1F79B821] [A2AC7D21]
13 84,9 [9384054A] [CC69DE35]
14 93,3 [5EEF84B9] [70CE88E0]
15 99,9 [37E90FDB] [5739B5CF]
16 99,0 [D7CE8742] [56BA6DEE]
17 84,9 [AD7AD0B4] [077F4EF7]
18 80,0 [35101C34] [3CE6B91A]
19 81,4 [866623A1] [9B958F36]
20 85,1 [78F04051] [FA4730CD]
21 83,1 [8975D626] [E5AEE21F]
22 94,4 [FFCE66F0] [DA85C212]
23 75,6 [4D41E042] [97E7A866]
24 76,8 [12849047] [ED988190]
25 86,7 [08DF8278] [C0537C50]
26 86,8 [B2DBBD33] [5C85AD42]
27 80,2 [AF9D56E3] [5C2A5871]
28 79,9 [8D13AFE9] [269E06C2]
29 87,8 [39FF87D9] [ED4095C7]
30 90,2 [56CD4BCE] [5E64B312]
31 84,7 [E8157741] [E5288DAF]
32 85,1 [2F2A20A0] [04769BE2]



Disc Three:

01. Lonely Weekends
02. Tweedle Dee
03. Riot In Cell Block # 9
04. Little Charm Bracelet
05. Right Or Wrong
06. Funnel Of Love
07. Tongue Tied
08. There's A Party Goin' On
09. Lost Weekend
10. Man We Had A Party
11. Why I'm Walkin'
12. I May Never Get To Heaven
13. Stupid Cupid
14. Brown Eyed Handsome Man
15. I Cried Again
16. The Last Letter
17. Who Shot Sam
18. Slippin' And Slidin'
19. My Baby Left Me
20. So Soon
21. The Window Up Above
22. Sticks And Stones
23. I Don't Wanta Go
24. In The Middle Of A Heartache
25. A Little Bitty Tear
26. I'd Be Ashamed
27. Seven Lonely Days
28. Don't Ask Me Why
29. I Need You Now
30. This Should Go On Forever
31. Is It Wrong
32. We Could

Exact Audio Copy V0.99 prebeta 4 from 23. January 2008

Отчёт EAC об извлечении, выполненном 4. марта 2009, 15:45

Wanda Jackson / Right Or Wrong 4 CD Box 1954 - 1962 (Disc 3)

Дисковод: Optiarc DVD RW AD-7203A Adapter: 3 ID: 0

Режим чтения : Достоверность
Использование точного потока : Да
Отключение кэша аудио : Да
Использование указателей C2 : Нет

Коррекция смещения при чтении : 48
Способность читать области Lead-in и Lead-out : Нет
Заполнение пропущенных сэмплов тишиной : Да
Удаление блоков с тишиной в начале и конце : Нет
При вычислениях CRC использовались нулевые сэмплы : Да
Интерфейс : Установленный внешний ASPI-интерфейс

Выходной формат : Внутренние WAV-операции
Формат сэмплов : 44.100 Гц; 16 бит; стерео


TOC извлечённого CD

Трек | Старт | Длительность | Начальный сектор | Конечный сектор
---------------------------------------------------------------------
1 | 0:00.00 | 2:24.00 | 0 | 10799
2 | 2:24.00 | 2:42.52 | 10800 | 23001
3 | 5:06.52 | 2:30.70 | 23002 | 34321
4 | 7:37.47 | 2:29.05 | 34322 | 45501
5 | 10:06.52 | 2:39.18 | 45502 | 57444
6 | 12:45.70 | 2:08.32 | 57445 | 67076
7 | 14:54.27 | 2:22.00 | 67077 | 77726
8 | 17:16.27 | 2:03.25 | 77727 | 86976
9 | 19:19.52 | 2:18.38 | 86977 | 97364
10 | 21:38.15 | 1:59.65 | 97365 | 106354
11 | 23:38.05 | 2:33.70 | 106355 | 117899
12 | 26:12.00 | 2:36.55 | 117900 | 129654
13 | 28:48.55 | 2:15.65 | 129655 | 139844
14 | 31:04.45 | 2:16.00 | 139845 | 150044
15 | 33:20.45 | 2:40.17 | 150045 | 162061
16 | 36:00.62 | 3:02.20 | 162062 | 175731
17 | 39:03.07 | 2:21.68 | 175732 | 186374
18 | 41:25.00 | 2:10.65 | 186375 | 196189
19 | 43:35.65 | 2:12.15 | 196190 | 206104
20 | 45:48.05 | 2:22.25 | 206105 | 216779
21 | 48:10.30 | 2:50.22 | 216780 | 229551
22 | 51:00.52 | 2:11.65 | 229552 | 239441
23 | 53:12.42 | 2:26.13 | 239442 | 250404
24 | 55:38.55 | 2:35.22 | 250405 | 262051
25 | 58:14.02 | 2:18.15 | 262052 | 272416
26 | 60:32.17 | 2:41.13 | 272417 | 284504
27 | 63:13.30 | 2:08.52 | 284505 | 294156
28 | 65:22.07 | 2:36.30 | 294157 | 305886
29 | 67:58.37 | 2:19.05 | 305887 | 316316
30 | 70:17.42 | 2:48.58 | 316317 | 328974
31 | 73:06.25 | 2:18.32 | 328975 | 339356
32 | 75:24.57 | 3:01.20 | 339357 | 352951


Характеристики диапазона извлечения и сообщения об ошибках

Выбранный диапазон

Имя файла D:РаздачиWanda JacksonCD 3Wanda Jackson - Right Or Wrong 4 CD Box 1954 - 1962 (Disc 3).wav

Пиковый уровень 100.0 %
Качество диапазона 99.9 %
CRC копии DB97E461
Копирование... OK

Ошибок не произошло


AccurateRip: сводка

Трек 1 нет в базе данных
Трек 2 нет в базе данных
Трек 3 нет в базе данных
Трек 4 нет в базе данных
Трек 5 нет в базе данных
Трек 6 нет в базе данных
Трек 7 нет в базе данных
Трек 8 нет в базе данных
Трек 9 нет в базе данных
Трек 10 нет в базе данных
Трек 11 нет в базе данных
Трек 12 нет в базе данных
Трек 13 нет в базе данных
Трек 14 нет в базе данных
Трек 15 нет в базе данных
Трек 16 нет в базе данных
Трек 17 нет в базе данных
Трек 18 нет в базе данных
Трек 19 нет в базе данных
Трек 20 нет в базе данных
Трек 21 нет в базе данных
Трек 22 нет в базе данных
Трек 23 нет в базе данных
Трек 24 нет в базе данных
Трек 25 нет в базе данных
Трек 26 нет в базе данных
Трек 27 нет в базе данных
Трек 28 нет в базе данных
Трек 29 нет в базе данных
Трек 30 нет в базе данных
Трек 31 нет в базе данных
Трек 32 нет в базе данных

Ни одного трека нет в базе AccurateRip

Конец отчёта

[AccurateRip ID: 0057f0cf-07c98937-d4126220] found.
Track [ CRC ] Status
01 [237558e6] (2/2) Accurately ripped
02 [e59a28a5] (2/2) Accurately ripped
03 [d7020598] (3/3) Accurately ripped
04 [bb97470f] (2/2) Accurately ripped
05 [f5ac8172] (2/2) Accurately ripped
06 [7237d474] (3/3) Accurately ripped
07 [776acad7] (3/3) Accurately ripped
08 [f535b0d0] (2/2) Accurately ripped
09 [a55a902e] (2/2) Accurately ripped
10 [b8c6e232] (2/2) Accurately ripped
11 [69e08e9d] (2/2) Accurately ripped
12 [091d9428] (2/2) Accurately ripped
13 [7d8ebc95] (2/2) Accurately ripped
14 [9e3d5b4b] (2/2) Accurately ripped
15 [388b835b] (2/2) Accurately ripped
16 [db575095] (2/2) Accurately ripped
17 [79f1a169] (2/2) Accurately ripped
18 [bcdd8bdc] (2/2) Accurately ripped
19 [734c4437] (2/2) Accurately ripped
20 [b777ce47] (2/2) Accurately ripped
21 [5927568a] (2/2) Accurately ripped
22 [ef78d293] (2/2) Accurately ripped
23 [229b3a43] (2/2) Accurately ripped
24 [305d6f39] (2/2) Accurately ripped
25 [58e3e1fb] (2/2) Accurately ripped
26 [4a9d408e] (2/2) Accurately ripped
27 [6782cd9d] (2/2) Accurately ripped
28 [0e8a9150] (2/2) Accurately ripped
29 [180b7af0] (2/2) Accurately ripped
30 [00e21e66] (2/2) Accurately ripped
31 [7e8be6e7] (2/2) Accurately ripped
32 [78cc413f] (2/2) Accurately ripped

Track Peak [ CRC32 ] [W/O NULL] [ LOG ]
-- 100,0 [DB97E461] [CC1F5B65] CRC32
01 85,1 [BD727A97] [BD05FC0D]
02 93,3 [695E3A9A] [0F0B2687]
03 100,0 [BE5BCB96] [BE4C51F3]
04 76,5 [C5E548DD] [6EACBBF0]
05 93,3 [A8369644] [6FC11ECB]
06 100,0 [8A22C228] [5FAE4429]
07 100,0 [10D7C217] [CB6224F7]
08 100,0 [C141FA8B] [9942C69E]
09 82,1 [70DD2596] [94236897]
10 96,5 [AA05FA2F] [07EC48EB]
11 84,1 [E67C37ED] [8B575B96]
12 79,9 [EA6986A9] [1083ECDB]
13 100,0 [DF54A4A0] [533DAAB6]
14 95,0 [01901FF1] [5752A67A]
15 79,4 [645CA53B] [DE7700D5]
16 83,0 [BC861516] [E67DEC7F]
17 100,0 [CBB90D75] [CE3B0046]
18 100,0 [73F8B37B] [D4C8CAF7]
19 100,0 [63F2E71D] [9FFAFB98]
20 84,0 [C546906F] [035D15C4]
21 84,1 [6B07AC6C] [264D9455]
22 91,1 [D3AE95DA] [7AEBD332]
23 74,9 [53DD87BB] [FAA4E756]
24 75,7 [DCE30512] [DE85DF01]
25 95,0 [C1D1666B] [A51D7649]
26 84,1 [54560468] [C020749F]
27 91,3 [C73937BD] [B669EB40]
28 70,6 [472BA364] [B3D020D2]
29 87,7 [5A81929E] [B63175FD]
30 81,2 [519D2B2E] [78273262]
31 74,4 [28796F5C] [CD0D7921]
32 83,1 [8F8377AA] [B8D34E58]



Disc Four:

01. You Don't Know Baby
02. Before I Lose My Mind
03. The Tip Of My Fingers
04. Let Me Talk To You
05. ( Let's Stop) Kickin' Our Hearts Around
06. Between The Window And The Phone
07. If I Cried Every Time You Hurt Me
08. I Misunderstood
09. Let My Love Walk In
10. To Tell You The Truth (1992)
11. To Tell You The Truth (1964)
12. The Greatest Actor
13. You Bug Me Bad
14. One Teardrop At A Time
15. Funny How Time Slips Away
16. These Empty Arms
17. But I Was Lying
18. We Haven't A Moment To Lose
19. How Important Can It Be
20. I May Never Get To Heaven
21. The Things I Might Have Been
22. Little Things Mean A Lot
23. Have You Ever Been Lonely
24. Please Love Me Forever
25. Since I Met You Baby
26. May You Never Be Alone
27. Sympathy
28. Whirlpool
29. Pledging My Love
30. What Am I Living For

Exact Audio Copy V0.99 prebeta 4 from 23. January 2008

Отчёт EAC об извлечении, выполненном 4. марта 2009, 16:09

Wanda Jackson / Right Or Wrong 4 CD Box 1954 - 1962 (Disc 4)

Дисковод: Optiarc DVD RW AD-7203A Adapter: 3 ID: 0

Режим чтения : Достоверность
Использование точного потока : Да
Отключение кэша аудио : Да
Использование указателей C2 : Нет

Коррекция смещения при чтении : 48
Способность читать области Lead-in и Lead-out : Нет
Заполнение пропущенных сэмплов тишиной : Да
Удаление блоков с тишиной в начале и конце : Нет
При вычислениях CRC использовались нулевые сэмплы : Да
Интерфейс : Установленный внешний ASPI-интерфейс

Выходной формат : Внутренние WAV-операции
Формат сэмплов : 44.100 Гц; 16 бит; стерео


TOC извлечённого CD

Трек | Старт | Длительность | Начальный сектор | Конечный сектор
---------------------------------------------------------------------
1 | 0:00.00 | 2:49.20 | 0 | 12694
2 | 2:49.20 | 2:35.40 | 12695 | 24359
3 | 5:24.60 | 2:55.30 | 24360 | 37514
4 | 8:20.15 | 2:09.65 | 37515 | 47254
5 | 10:30.05 | 2:20.60 | 47255 | 57814
6 | 12:50.65 | 2:19.72 | 57815 | 68311
7 | 15:10.62 | 2:34.63 | 68312 | 79924
8 | 17:45.50 | 2:41.40 | 79925 | 92039
9 | 20:27.15 | 2:17.50 | 92040 | 102364
10 | 22:44.65 | 2:36.25 | 102365 | 114089
11 | 25:21.15 | 2:34.32 | 114090 | 125671
12 | 27:55.47 | 2:55.05 | 125672 | 138801
13 | 30:50.52 | 2:10.73 | 138802 | 148624
14 | 33:01.50 | 2:23.27 | 148625 | 159376
15 | 35:25.02 | 2:50.10 | 159377 | 172136
16 | 38:15.12 | 2:25.30 | 172137 | 183041
17 | 40:40.42 | 2:36.40 | 183042 | 194781
18 | 43:17.07 | 2:27.70 | 194782 | 205876
19 | 45:45.02 | 2:41.58 | 205877 | 218009
20 | 48:26.60 | 2:37.12 | 218010 | 229796
21 | 51:03.72 | 2:32.50 | 229797 | 241246
22 | 53:36.47 | 3:23.35 | 241247 | 256506
23 | 57:00.07 | 2:09.60 | 256507 | 266241
24 | 59:09.67 | 2:31.70 | 266242 | 277636
25 | 61:41.62 | 2:41.73 | 277637 | 289784
26 | 64:23.60 | 2:45.37 | 289785 | 302196
27 | 67:09.22 | 2:10.58 | 302197 | 312004
28 | 69:20.05 | 2:20.57 | 312005 | 322561
29 | 71:40.62 | 2:36.58 | 322562 | 334319
30 | 74:17.45 | 2:40.20 | 334320 | 346339


Характеристики диапазона извлечения и сообщения об ошибках

Выбранный диапазон

Имя файла D:РаздачиWanda JacksonCD 4Wanda Jackson - Right Or Wrong 4 CD Box 1954 - 1962 (Disc 4).wav

Пиковый уровень 95.3 %
Качество диапазона 100.0 %
CRC копии 92178AA4
Копирование... OK

Ошибок не произошло


AccurateRip: сводка

Трек 1 нет в базе данных
Трек 2 нет в базе данных
Трек 3 нет в базе данных
Трек 4 нет в базе данных
Трек 5 нет в базе данных
Трек 6 нет в базе данных
Трек 7 нет в базе данных
Трек 8 нет в базе данных
Трек 9 нет в базе данных
Трек 10 нет в базе данных
Трек 11 нет в базе данных
Трек 12 нет в базе данных
Трек 13 нет в базе данных
Трек 14 нет в базе данных
Трек 15 нет в базе данных
Трек 16 нет в базе данных
Трек 17 нет в базе данных
Трек 18 нет в базе данных
Трек 19 нет в базе данных
Трек 20 нет в базе данных
Трек 21 нет в базе данных
Трек 22 нет в базе данных
Трек 23 нет в базе данных
Трек 24 нет в базе данных
Трек 25 нет в базе данных
Трек 26 нет в базе данных
Трек 27 нет в базе данных
Трек 28 нет в базе данных
Трек 29 нет в базе данных
Трек 30 нет в базе данных

Ни одного трека нет в базе AccurateRip

Конец отчёта

[AccurateRip ID: 0051ceb7-06d192c4-ae12091e] found.
Track [ CRC ] Status
01 [426abf73] (2/2) Accurately ripped
02 [62737d98] (2/2) Accurately ripped
03 [90ee6c27] (2/2) Accurately ripped
04 [beef0593] (2/2) Accurately ripped
05 [506ab069] (2/2) Accurately ripped
06 [b4417b83] (2/2) Accurately ripped
07 [5bab6714] (2/2) Accurately ripped
08 [d89e5ebb] (2/2) Accurately ripped
09 [1bb07cea] (2/2) Accurately ripped
10 [ead391a7] (2/2) Accurately ripped
11 [f2651f64] (2/2) Accurately ripped
12 [5621fec6] (2/2) Accurately ripped
13 [15845709] (2/2) Accurately ripped
14 [3ee0437e] (2/2) Accurately ripped
15 [bcfc97d9] (2/2) Accurately ripped
16 [85101187] (2/2) Accurately ripped
17 [05655dac] (2/2) Accurately ripped
18 [c0629929] (2/2) Accurately ripped
19 [f680e80e] (2/2) Accurately ripped
20 [3513479b] (2/2) Accurately ripped
21 [2163a42d] (2/2) Accurately ripped
22 [3b7635e4] (2/2) Accurately ripped
23 [5300b499] (2/2) Accurately ripped
24 [2dac3d6f] (2/2) Accurately ripped
25 [91c1ea8d] (2/2) Accurately ripped
26 [9bb6e8e4] (2/2) Accurately ripped
27 [b39a280a] (2/2) Accurately ripped
28 [c5662802] (2/2) Accurately ripped
29 [f2825296] (2/2) Accurately ripped
30 [e89e5fc5] (2/2) Accurately ripped

Track Peak [ CRC32 ] [W/O NULL] [ LOG ]
-- 95,3 [92178AA4] [3EF7E3BA] CRC32
01 95,3 [B9E94B42] [2B5A0313]
02 89,1 [601D675A] [CF7C9A19]
03 91,1 [7E46EB57] [4392B700]
04 89,0 [7BE2C177] [ACB8201A]
05 78,4 [1A0D4061] [DA58B8E4]
06 85,1 [60A82A7D] [A60E9AF1]
07 76,9 [4478F9E4] [C1E72C36]
08 82,0 [12847746] [C8C32C05]
09 78,9 [AE6F2190] [8C99D5BE]
10 90,3 [A930392F] [197C8452]
11 76,9 [0F61B16C] [B96399B7]
12 80,8 [67DD418C] [67A63A76]
13 86,1 [318D36EE] [DFBED5B3]
14 74,9 [BE69903A] [CEF460AD]
15 78,9 [742C5774] [6EA7CDF6]
16 79,6 [74B8BDBE] [A2839E7C]
17 74,8 [2BCDAD05] [D7968317]
18 79,2 [66AB9786] [86FED49F]
19 84,0 [78C13466] [C5C8F80A]
20 82,8 [19B3D1E4] [03B9B31D]
21 78,3 [4DB72D1D] [17335785]
22 77,4 [A4DC9038] [C02F95C3]
23 70,1 [8AB5F2A0] [914399A0]
24 76,5 [F984D9C9] [761778B1]
25 75,2 [094CE33C] [1C60CE6D]
26 73,7 [0A7C5844] [8CD81A3E]
27 71,9 [E9AF816F] [02821D14]
28 75,6 [F1FEF644] [9F9E4530]
29 67,4 [5838A0B4] [9CA24B32]
30 73,7 [32AFEC52] [7614542C]


Thanks to the Original ripper!