This Is Soul 2006 (2006)


This Is Soul 2006 (2006)
EAC Rip | FLAC (Tracks) +CUE, LOG | 644 MB | Covers Included
Soul | Label: Soul Brother Records | Catalog Number: CD SBPJ 31

16 great new independent artists featuring some of the outstanding tracks from 2006. Incl P J Morton ‘No Ordinary Love’, Nuwamba ‘Forever’, Brown Baby Girl ‘Feels Like Love’, Chavous ‘Much Better’, Jazzhole ‘All The Ways’, Amar Khalil ‘Sunny Day’, Jeff Robinson ‘Waiting For The Tables To Turn’, Martha Redbone ‘Children Of love’ (excl chant and rap) and Natural Selection, Gabbie McGee, Crystal Night, Browns Bag, Inobe, , plus great new unreleased tracks from LaSonya Gunther ‘Ummm Hmmm’, Darien ‘Where Its At’ and Iman Williams ‘Just Wanna Be With You’.]


Exact Audio Copy V1.0 beta 3 from 29. August 2011

EAC extraction logfile from 1. September 2015, 23:52

Various / This is Soul 2006

Used drive : GENERIC CDRCB05 Adapter: 4 ID: 0

Read mode : Secure
Utilize accurate stream : Yes
Defeat audio cache : Yes
Make use of C2 pointers : No

Read offset correction : 102
Overread into Lead-In and Lead-Out : No
Fill up missing offset samples with silence : Yes
Delete leading and trailing silent blocks : No
Null samples used in CRC calculations : Yes
Used interface : Native Win32 interface for Win NT & 2000
Gap handling : Appended to previous track

Used output format : User Defined Encoder
Selected bitrate : 1024 kBit/s
Quality : High
Add ID3 tag : No
Command line compressor : C:Program FilesFLACflac.exe
Additional command line options : -8 -V -T "ARTIST=%artist%" -T "TITLE=%title%" -T "ALBUM=%albumtitle%" -T "DATE=%year%" -T "TRACKNUMBER=%tracknr%" -T "GENRE=%genre%" -T "PERFORMER=%albuminterpret%" -T "COMPOSER=%composer%" %haslyrics%--tag-from-file=LYRICS="%lyricsfile%"%haslyrics% -T "ALBUMARTIST=%albumartist%" -T "DISCNUMBER=%cdnumber%" -T "TOTALDISCS=%totalcds%" -T "TOTALTRACKS=%numtracks%" -T "COMMENT=%comment%" %source% -o %dest%


TOC of the extracted CD

Track | Start | Length | Start sector | End sector
---------------------------------------------------------
1 | 0:00.00 | 4:28.38 | 0 | 20137
2 | 4:28.38 | 4:15.36 | 20138 | 39298
3 | 8:43.74 | 3:56.23 | 39299 | 57021
4 | 12:40.22 | 5:41.44 | 57022 | 82640
5 | 18:21.66 | 4:29.02 | 82641 | 102817
6 | 22:50.68 | 3:31.28 | 102818 | 118670
7 | 26:22.21 | 3:57.44 | 118671 | 136489
8 | 30:19.65 | 3:14.61 | 136490 | 151100
9 | 33:34.51 | 4:42.09 | 151101 | 172259
10 | 38:16.60 | 5:14.67 | 172260 | 195876
11 | 43:31.52 | 4:47.05 | 195877 | 217406
12 | 48:18.57 | 4:51.47 | 217407 | 239278
13 | 53:10.29 | 4:19.15 | 239279 | 258718
14 | 57:29.44 | 3:45.46 | 258719 | 275639
15 | 61:15.15 | 4:54.39 | 275640 | 297728
16 | 66:09.54 | 5:25.18 | 297729 | 322121


Track 1

Filename G:POSTSThis Is Soul 2006 (2006)1 - Chavous - Much Better.wav

Pre-gap length 0:00:02.00

Peak level 94.4 %
Extraction speed 1.4 X
Track quality 100.0 %
Test CRC 5470357D
Copy CRC 5470357D
Accurately ripped (confidence 1) [3BB30205] (AR v1)
Copy OK

Track 2

Filename G:POSTSThis Is Soul 2006 (2006)2 - Inobe - Do what you do.wav

Pre-gap length 0:00:02.51

Peak level 98.8 %
Extraction speed 1.6 X
Track quality 100.0 %
Test CRC E98A7085
Copy CRC E98A7085
Accurately ripped (confidence 1) [419EB290] (AR v1)
Copy OK

Track 3

Filename G:POSTSThis Is Soul 2006 (2006)3 - La Sonya Gunther - Umm Hmm.wav

Pre-gap length 0:00:02.51

Peak level 93.6 %
Extraction speed 1.7 X
Track quality 100.0 %
Test CRC 5346357C
Copy CRC 5346357C
Accurately ripped (confidence 1) [AD0840E7] (AR v1)
Copy OK

Track 4

Filename G:POSTSThis Is Soul 2006 (2006)4 - Crystal Night - Vin Rouge.wav

Pre-gap length 0:00:02.51

Peak level 85.2 %
Extraction speed 1.8 X
Track quality 99.9 %
Test CRC AD30425C
Copy CRC AD30425C
Accurately ripped (confidence 1) [AA105E53] (AR v1)
Copy OK

Track 5

Filename G:POSTSThis Is Soul 2006 (2006)5 - Amar Khalil - Sunny Day.wav

Pre-gap length 0:00:02.51

Peak level 84.5 %
Extraction speed 2.1 X
Track quality 100.0 %
Test CRC 73C16329
Copy CRC 73C16329
Accurately ripped (confidence 1) [45577FF9] (AR v1)
Copy OK

Track 6

Filename G:POSTSThis Is Soul 2006 (2006)6 - Darien - Where it's at.wav

Pre-gap length 0:00:02.51

Peak level 97.3 %
Extraction speed 2.1 X
Track quality 100.0 %
Test CRC A42066CE
Copy CRC A42066CE
Accurately ripped (confidence 1) [27C09F6C] (AR v1)
Copy OK

Track 7

Filename G:POSTSThis Is Soul 2006 (2006)7 - P.J. Morten - No Ordinairy Love.wav

Pre-gap length 0:00:02.51

Peak level 96.4 %
Extraction speed 2.2 X
Track quality 100.0 %
Test CRC A794BEF4
Copy CRC A794BEF4
Accurately ripped (confidence 1) [5DB950E1] (AR v1)
Copy OK

Track 8

Filename G:POSTSThis Is Soul 2006 (2006)8 - Nuwamba - Forever.wav

Pre-gap length 0:00:02.51

Peak level 98.8 %
Extraction speed 2.2 X
Track quality 100.0 %
Test CRC D4C82322
Copy CRC D4C82322
Accurately ripped (confidence 1) [C3E34B80] (AR v1)
Copy OK

Track 9

Filename G:POSTSThis Is Soul 2006 (2006)9 - Jazzhole - All the ways.wav

Pre-gap length 0:00:02.51

Peak level 98.8 %
Extraction speed 2.3 X
Track quality 100.0 %
Test CRC CA3C6F83
Copy CRC CA3C6F83
Accurately ripped (confidence 1) [8A040A58] (AR v1)
Copy OK

Track 10

Filename G:POSTSThis Is Soul 2006 (2006)10 - Jeff Robinson - Waiting for the tables to turn.wav

Pre-gap length 0:00:02.51

Peak level 98.8 %
Extraction speed 2.5 X
Track quality 100.0 %
Test CRC 2200B62A
Copy CRC 2200B62A
Accurately ripped (confidence 1) [46478B51] (AR v1)
Copy OK

Track 11

Filename G:POSTSThis Is Soul 2006 (2006)11 - Brown's Bag - No more llove.wav

Pre-gap length 0:00:02.51

Peak level 98.8 %
Extraction speed 2.7 X
Track quality 100.0 %
Test CRC 371CD1EF
Copy CRC 371CD1EF
Accurately ripped (confidence 1) [26CD0E97] (AR v1)
Copy OK

Track 12

Filename G:POSTSThis Is Soul 2006 (2006)12 - Martha Redbone - Children of love.wav

Pre-gap length 0:00:02.51

Peak level 98.8 %
Extraction speed 2.8 X
Track quality 100.0 %
Test CRC 0DE71822
Copy CRC 0DE71822
Accurately ripped (confidence 1) [47FC0290] (AR v1)
Copy OK

Track 13

Filename G:POSTSThis Is Soul 2006 (2006)13 - Brown Baby Girl - Feels like love.wav

Pre-gap length 0:00:02.51

Peak level 100.0 %
Extraction speed 2.9 X
Track quality 100.0 %
Test CRC A6CD873A
Copy CRC A6CD873A
Accurately ripped (confidence 1) [B724DCF6] (AR v1)
Copy OK

Track 14

Filename G:POSTSThis Is Soul 2006 (2006)14 - Gabie McGhee - Something So.wav

Pre-gap length 0:00:02.51

Peak level 94.4 %
Extraction speed 2.9 X
Track quality 100.0 %
Test CRC 88A759A3
Copy CRC 88A759A3
Accurately ripped (confidence 1) [6ADEE447] (AR v1)
Copy OK

Track 15

Filename G:POSTSThis Is Soul 2006 (2006)15 - Iman Williams - I just wanna be with you.wav

Pre-gap length 0:00:02.51

Peak level 98.8 %
Extraction speed 3.1 X
Track quality 100.0 %
Test CRC 1D3700EA
Copy CRC 1D3700EA
Accurately ripped (confidence 1) [87993E8E] (AR v1)
Copy OK

Track 16

Filename G:POSTSThis Is Soul 2006 (2006)16 - Natural Selection - Get through.wav

Pre-gap length 0:00:02.51

Peak level 98.8 %
Extraction speed 3.2 X
Track quality 100.0 %
Test CRC 9CE0CD8F
Copy CRC 9CE0CD8F
Accurately ripped (confidence 1) [56B62775] (AR v1)
Copy OK


All tracks accurately ripped

No errors occurred

End of status report

==== Log checksum E4F7073F8D9F4F5188D7F982E15B2631CD1B652934A43EA53BC1BF2B4AB57005 ====


Tracklist:
01. Much Better - Chavous
02. Do What You Do - Inobe
03. Ummm Hmmm -La Sonya Gunther
04. Vin Rouge - Crystal Night
05. Sunny Day - Amar Khalil
06. Where It's At - Darien
07. No Ordinary Love - P.J. Morten
08. Forever - Nuwamba
09. All The Ways - Jazzhole
10. Waiting For The Tables To Turn - Jeff Robinson
11. No More Love - Brown's Bag
12. Children Of Love - Martha Redbone
13. Feels Like Love - Brown Baby Girl
14. Something So -Gabie McGee
15. I Just Wanna Be With You -Iman Williams
16. Get Through - Natural Selection