Hooked On Classics Collection 1-4 **Combined Repost**


Hooked On Classics Collection 1-4
EAC Secure Rip | FLAC (Image + Cue + Log) - 1.13 GB | Complete Scans (Jpeg 600 dpi) - 303 MB | MP3 (CBR320 Kbps) - 445 MB
Classical Pop | K-Tel International | 180:34 minutes | Hosted on: NitroFlare

The Hooked on Classics series consists of arrangements of classical favorites, with an added, pronounced beat, giving the music a rock or disco flavor. The series was the brainchild of Louis Clark, who had been the arranger for Electric Light Orchestra, and who conducted the Royal Philharmonic Orchestra. Many of the numerous Hooked on … albums became crossover best-sellers.


_______________________________________________________________________________________________________________




The Royal Philharmonic Orchestra (Louis Clark) - Hooked On Classics (1981) U.S. First Pressing
EAC Secure Rip | FLAC (Image + Cue + Log) - 312 MB | Complete Scans (Jpeg 600 dpi) - 49.8 MB | MP3 (CBR320 Kbps) - 117 MB
Classical, Disco | K-Tel International (USA) | NU 6113 | 47:59 minutes | 5% WinRar Recovery | Hosted on: NitroFlare

Louis Clark, former arranger for Electric Light Orchestra, conducted the Royal Philharmonic Orchestra playing a collection of very recognizable extracts from classical music pieces played over a continuous beat (sometimes an overtly disco fast beat, sometimes a slower and more subtle rhythm, always produced by a LinnDrum) that linked the segments together.

Exact Audio Copy V1.0 beta 2 from 29. April 2011

EAC extraction logfile from 7. October 2012, 0:51

The Royal Philharmonic Orchestra / Hooked On Classics

Used drive : HL-DT-STDVDRAM GH60N Adapter: 0 ID: 1

Read mode : Secure
Utilize accurate stream : Yes
Defeat audio cache : Yes
Make use of C2 pointers : No

Read offset correction : 667
Overread into Lead-In and Lead-Out : No
Fill up missing offset samples with silence : Yes
Delete leading and trailing silent blocks : No
Null samples used in CRC calculations : Yes
Used interface : Native Win32 interface for Win NT & 2000

Used output format : User Defined Encoder
Selected bitrate : 1024 kBit/s
Quality : High
Add ID3 tag : No
Command line compressor : C:Program Files (x86)Exact Audio CopyFlacflac.exe
Additional command line options : -V -8 -T "artist=%albumartist%" -T "title=%title%" -T "album=%albumtitle%" -T "date=%year%" -T "genre=%genre%" -T

"tracknumber=%tracknr%" %source%


TOC of the extracted CD

Track | Start | Length | Start sector | End sector
---------------------------------------------------------
1 | 0:00.00 | 5:05.40 | 0 | 22914
2 | 5:05.40 | 6:41.68 | 22915 | 53057
3 | 11:47.33 | 6:01.60 | 53058 | 80192
4 | 17:49.18 | 5:59.52 | 80193 | 107169
5 | 23:48.70 | 5:28.48 | 107170 | 131817
6 | 29:17.43 | 5:11.30 | 131818 | 155172
7 | 34:28.73 | 4:08.57 | 155173 | 173829
8 | 38:37.55 | 4:24.45 | 173830 | 193674
9 | 43:02.25 | 4:56.55 | 193675 | 215929


Range status and errors

Selected range

Filename C:EACThe Royal Philharmonic Orchestra - (1982) Hooked On Classics [1987 K-Tel Remaster]The Royal Philharmonic Orchestra - Hooked On

Classics.wav

Peak level 100.0 %
Extraction speed 2.0 X
Range quality 100.0 %
Test CRC 9E9ADCE0
Copy CRC 9E9ADCE0
Copy OK

No errors occurred


AccurateRip summary

Track 1 accurately ripped (confidence 1) [8FEF0CC5] (AR v2)
Track 2 accurately ripped (confidence 1) [B1C2E325] (AR v2)
Track 3 accurately ripped (confidence 1) [D042064C] (AR v2)
Track 4 accurately ripped (confidence 1) [51086D7D] (AR v2)
Track 5 accurately ripped (confidence 1) [41101653] (AR v2)
Track 6 accurately ripped (confidence 1) [EEF1EBFC] (AR v2)
Track 7 accurately ripped (confidence 1) [82045CD4] (AR v2)
Track 8 accurately ripped (confidence 1) [A92F546B] (AR v2)
Track 9 accurately ripped (confidence 1) [73B5B1DC] (AR v2)

All tracks accurately ripped

End of status report

==== Log checksum AED67642B4A322767CE19B15018216198C460146ECEE87B51DD9B2D29B8B0852 ====


01. Hooked On Classics (Parts 1 & 2) - 5:06
Piano Concerto no. 1 in B flat minor Op 23 / Tchaikovsky
Flight of the Bumblebee / Rimsky-Korsakov
Symphony no. 40 in G minor / Mozart
Rhapsody in Blue / Gershwin
Karelia Suite Op 11 / Sibelius
Symphony no. 5 in C minor Op 67 / Beethoven
Toccata in D minor / JS Bach
Serenade no. 13 in G major - 'Eine Kleine Nachtmusik' / Mozart
Symphony no. 9 in D minor Op 125 / Beethoven
Overture to William Tell / Rossini
Le nozze di Figaro / Mozart
Romeo & Juliet Fantasy Overture / Tchaikovsky
Trumpet Voluntary / Clarke (the listed title is a common misconception; the correct title is "Prince of Denmark's March")
Hallelujah Chorus / Handel
Piano Concerto in A minor Op 16 / Grieg
March of the Toreadors / Bizet
1812 Overture / Tchaikovsky

02. Hooked on Romance - 6:42
Air / J.S. Bach
Ave Maria / Schubert
Szerelmi álmok (Love dreams - German title: Liebesträume) / Liszt
Symphony no. 9 in D minor Op 125 3rd movement / Beethoven
Rhapsody on a theme of Paganini Op 43 / Rachmaninov
Piano Sonata no. 14 in C sharp minor Op 27/2 - 'Moonlight' 1st movement / Beethoven
'Pathetique' 2nd movement / Beethoven
Clarinet Concerto in A 2nd movement / Mozart
Largo / Handel

03. Hooked On Classics (Part 3) - 6:02
Wedding March / Mendelssohn
Radetzky March Op 228 / Johann Strauss I
Toccata Op 42/5 / Widor
Alla Hornpipe from 'Wassermusik' / Handel
Humoresque Op 101/7 / Dvorak
Lullaby / Brahms
Arrival of the Queen of Sheba / Handel
Promenade / Mussorgsky
In the Hall of the Mountain King - Grieg
Caprice no. 24 / Paganini
Ride of the Valkyries / Wagner
Fingal's Cave / Mendelssohn
Military March / Schubert
Polonaise in A major / Chopin
Symphony no. 4 in A major - 'Italian' 1st movement / Mendelssohn
Overture to the Light Cavalry / Suppé
Farandole / Bizet
Largo / Dvorak
Lohengrin, Prelude to Act 3 / Wagner

04. Hooked On Bach - 5:59
Ave Maria (Bach/Gounod)
Minuet
Suite no. 2 in B minor - 'Badinerie'
Brandenburg Concerto no. 3 in G major 1st movement
Brandenburg Concerto no. 2 in F major 1st movement
Erkenne Mich Mein Hüter
Suite no. 2 in B minor - Bourée 2
Suite no. 2 in B minor - Bourée 1
Suite no. 3 in D major - Gavotte
Musette
March
French Suite no. 5 in G major - Gavotte
Wachet auf Ruft uns die Stimme
Ave Maria (Bach/Gounod)

05. Hooked On Tchaikovsky - 5:29
Capriccio Italien
Swan Lake
Dance of the Reed Flutes
Romeo & Juliet Fantasy Overture
Symphony no. 6 in B minor Op 74
Trepak
Dance of the Sugar Plum Fairy
March
Chinese Dance
Miniature Overture
Piano Concerto no. 1 in B flat minor Op 23
Capriccio Italien

06. Hooked On A Song - 5:11
Votre Toast / Bizet
Funiculi Funicula / Denza
Tarantella Napolitana / Rossini
Polovtsian Dances / Borodin
Dance of the Hours / Ponchielli
Habanera / Bizet
Neapolitan Serenade / Di Capua
Aria / Puccini
Verdi La Fosche / Verdi
Votre Toast / Bizet

07. Hooked On Mozart - 4:09
Rondo Alla Turka
Piano Sonata No.15 in C, K.545
Serenade no. 13 in G major - 'Eine Kleine Nachtmusik'
Piano Concerto no. 21 in C major
Piano Sonata in C major
A Musical Joke
Le nozze di Figaro
Overture to Le nozze di Figaro
Serenade no. 13 in G major - 'Eine kleine Nachtmusik'
Overture to Die Zauberflöte
Horn Concerto no. 4 in E flat major
Symphony no. 41 in C major - 'Jupiter'

08. Hooked On Mendelssohn 4:25
Violin Concerto in E minor Op 64 3rd movement
Octet in E flat major Op 20, Scherzo
Violin Concerto in E minor Op 64 3rd movement

09. Hooked On A Can-Can - 4:56
Can-Can / Offenbach
Unter Donner und Blitz Op 324 / Johann Strauss II
Hungarian Dance / Brahms
Tritsch Tratsch Polka Op 214 / Johann Strauss II
La Via Parisienne / Offenbach
Gallop / Ponchielli
Czardas / Monti
La Vie Parisienne / Offenbach
Overture To Dichter und Bauer / Suppé
Can-Can (Reprise) / Offenbach


Album released in 1981.


foobar2000 1.1.7 / Dynamic Range Meter 1.1.0
log date: 2012-10-08 11:30:53

--------------------------------------------------------------------------------
Analyzed: The Royal Philharmonic Orchestra / Hooked On Classics
--------------------------------------------------------------------------------

DR Peak RMS Duration Track
--------------------------------------------------------------------------------
DR14 -0.45 dB -17.40 dB 5:06 01-Hooked On Classics Parts 1 & 2
DR12 -1.32 dB -18.25 dB 6:42 02-Hooked On Romance
DR13 0.00 dB -16.48 dB 6:02 03-Hooked On Classics Part 3
DR12 -2.71 dB -19.00 dB 6:00 04-Hooked On Bach
DR13 -0.45 dB -17.21 dB 5:29 05-Hooked On Tchaikovsky
DR14 -0.97 dB -17.47 dB 5:11 06-Hooked On A Song
DR13 -0.81 dB -17.02 dB 4:09 07-Hooked On Mozart
DR13 -1.41 dB -17.63 dB 4:25 08-Hooked On Mendelssohn
DR14 -1.31 dB -17.37 dB 4:57 09-Hooked On Can Can
--------------------------------------------------------------------------------

Number of tracks: 9
Official DR value: DR13

Samplerate: 44100 Hz
Channels: 2
Bits per sample: 16
Bitrate: 865 kbps
Codec: FLAC
================================================================================




_______________________________________________________________________________________________________________




The Royal Philharmonic Orchestra (Louis Clark) - Hooked On Classics 2: Can't Stop The Classics (1982) U.S. First Pressing
EAC Secure Rip | FLAC (Image + Cue + Log) - 303 MB | Complete Scans (Jpeg 600 dpi) - 70.1 MB | MP3 (CBR320 Kbps) - 110 MB
Classical, Disco | K-Tel International (USA) | NU 6893 | 44:23 minutes | 5% WinRar Recovery | Hosted on: NitroFlare

Louis Clark, former arranger for Electric Light Orchestra, conducted the Royal Philharmonic Orchestra playing a collection of very recognizable extracts from classical music pieces played over a continuous beat (sometimes an overtly disco fast beat, sometimes a slower and more subtle rhythm, always produced by a LinnDrum) that linked the segments together.

Exact Audio Copy V1.0 beta 2 from 29. April 2011

EAC extraction logfile from 7. October 2012, 13:34

The Royal Philharmonic Orchestra / Hooked On Classics 2: Can't Stop The Classics

Used drive : HL-DT-STDVDRAM GH60N Adapter: 0 ID: 1

Read mode : Secure
Utilize accurate stream : Yes
Defeat audio cache : Yes
Make use of C2 pointers : No

Read offset correction : 667
Overread into Lead-In and Lead-Out : No
Fill up missing offset samples with silence : Yes
Delete leading and trailing silent blocks : No
Null samples used in CRC calculations : Yes
Used interface : Native Win32 interface for Win NT & 2000

Used output format : User Defined Encoder
Selected bitrate : 1024 kBit/s
Quality : High
Add ID3 tag : No
Command line compressor : C:Program Files (x86)Exact Audio CopyFlacflac.exe
Additional command line options : -V -8 -T "artist=%albumartist%" -T "title=%title%" -T "album=%albumtitle%" -T "date=%year%" -T "genre=%genre%" -T

"tracknumber=%tracknr%" %source%


TOC of the extracted CD

Track | Start | Length | Start sector | End sector
---------------------------------------------------------
1 | 0:00.32 | 5:48.33 | 32 | 26164
2 | 5:48.65 | 4:08.32 | 26165 | 44796
3 | 9:57.22 | 6:41.30 | 44797 | 74901
4 | 16:38.52 | 6:31.48 | 74902 | 104274
5 | 23:10.25 | 6:04.72 | 104275 | 131646
6 | 29:15.22 | 4:05.48 | 131647 | 150069
7 | 33:20.70 | 4:24.20 | 150070 | 169889
8 | 37:45.15 | 3:33.47 | 169890 | 185911
9 | 41:18.62 | 3:04.65 | 185912 | 199776


Range status and errors

Selected range

Filename C:EACThe Royal Philharmonic Orchestra (Louis Clark) - (1982) Hooked On Classics 2- Can't Stop The Classics [1987 K-Tel Remaster]The

Royal Philharmonic Orchestra - Hooked On Classics 2- Can't Stop The Classics.wav

Peak level 100.0 %
Extraction speed 1.6 X
Range quality 100.0 %
Test CRC 9900DB68
Copy CRC 9900DB68
Copy OK

No errors occurred


AccurateRip summary

Track 1 accurately ripped (confidence 3) [59619026] (AR v1)
Track 2 accurately ripped (confidence 3) [8AC142EA] (AR v1)
Track 3 accurately ripped (confidence 3) [45C3AD24] (AR v1)
Track 4 accurately ripped (confidence 3) [72A96C15] (AR v1)
Track 5 accurately ripped (confidence 3) [4B50CFF8] (AR v1)
Track 6 accurately ripped (confidence 3) [5AC7963E] (AR v1)
Track 7 accurately ripped (confidence 3) [1291AF33] (AR v1)
Track 8 accurately ripped (confidence 3) [405CA51C] (AR v1)
Track 9 accurately ripped (confidence 3) [6D974255] (AR v1)

All tracks accurately ripped

End of status report

==== Log checksum EF7DB11BFC456F71047CA3E82BB783D87F4917E9608F5FDC871CC6B710CC50B7 ====


01. Can't Stop The Classics - 5:48
Russlan and Ludmilla / Glinka
Czards from "Coppélia" / Delibes
Pathétique Sonata / Beethoven
Pizzicato from "Sylvia" / Delibes
Slavonic Dance no. 8 / Dvorak
The Barber of Seville: Overture (Theme 2) / Rossini
Dance of the Tumblers / Rimsky-Korsakov
Winter from "The Four Seasons" / Vivaldi
Revolutions Etude in C Minor, Op. 10, No. 12 / Chopin
Carnival Overture / Dvorak
Hungarian Rhapsody no. 2 / Liszt
Sabre Dance / Khachaturian

02. Hooked On America - 4:07
Rhapsody in Blue / Gershwin
Camptown Races / Foster
Rhapsody in Blue / Gershwin
An American in Paris / Gershwin
Rhapsody in Blue / Gershwin
Symphony "From The New World" (1st Movement) / Dvorak
Poor Old Joe / Foster
Symphony "From The New World" (4th Movement) / Dvorak
I Wish I Was in Dixie's Land / Emmett
Battle Hymn of the Republic / Howe-Steffe

03. Hooked On Romance (Part 2) - 6:41
Canon / Pachebel
Nimrod from "Enigma" Variations / Elgar
Piano Concerto no. 2 / Rachmaninoff
Intermezzo from "Cavalleria Rusticana" / Mascagni
Étude in E, Op. 10, no. 3 / Chopin
Warsaw Concerto / Addinsell
To A Wild Rose from "Woodland Sketches" / MacDowell
Spartacus: Ballet Suite no. 2 / Khachaturian
Aranjuez Mon Amour / Rodrigo

04. Can't Stop the Classics (Part 2) - 6:30
Fanfare Intro / Clark
Overture from "Die Meistersinger von Nürnberg / Wagner
Peter and the Wolf / Prokofiev
Marche Slave / Tchaikovsky
Sheep May Safely Graze / Bach
Bridal March from "Lohengrin" / Wagner
Nessun Dorma from "Turandot" / Puccini
Grand March from "Aida" / Verdi
Für Elise / Beethoven
Finlandia / Sibelius
Pathétique Sonata, Op. 13 (Mvt. B) / Beethoven
Pomp and Circusntance March no. 4 / Elgar
Serenade from String Quartet in F, Op. 3 no. 5 / Haydn
Adagio Cantabile from String Quartet in C, Op. 76, no. 3 / Haydn
Bolero / Ravel

05. A Night At The Opera - 6:04
Hallelujah Chorus from "Messiah" / Handel
With Cat-Like Travel from "The Pirates of Penzance" / Gilbert-Sullivan
"Choral" Symphony / Beethoven
Anvil Chorus from "Il Trovatore" / Verdi
The March of the Toreadors from "Carmen" / Bizet
Soldiers Chorus from "Faust" / Gounod
Rule, Britannia! / Thomson-Arne
Hallelujah Chorus / Handel

06. Tales Of The Vienna Waltz - All works composed by Johann Strauss - 4:04
Blue Danube Waltz 1 (Theme 1)
Blue Danube Waltz 2 (Theme 2)
Die Fledermaus
Roses from the South
Vienna Blood
Blue Danube Waltz 3 (Theme 1)
Blue Danube Waltz 3 (Theme 2)
Artists' Life Waltz
Blue Danube Waltz 4 (Theme 2)
Tales of the Vienna Woods
Morgenblätter
Blue Danube (Reprise)

07. Hooked on Baroque - 4:23
L'Inverno from "The Four Seasons" / Vivaldi
La Primavera from "The Four Seasons" / Vivaldi
The Harmonious blacksmith / Handel
Bourrée no. 2 from English Suite no. 2 / Bach
Flute Sonata / Vinci
Brandenbourg Concerto no. 3 / Bach
Concerto in G / Tartini
Flute Sonata no. 5 / Bach
Gavotte from Flute Sonata, Op. 1, no. 7 / Handel
Suite in A Minor / Telemann
Violin Sonata no. 4 / Bach
Allegro Spiritoso / Pergolesi
L'Estate from "The Four Seasons" / Vivaldi
L'Inverno from "The Four Seasons" / Vivaldi

08. If You Knew Sousa - 3:34
The Liberty Bell / John Phillip Sousa
Blaze Away / Helzmann-Thurban
Semper Fidelis / Sousa
The Washington Post / Sousa

09. If You Knew Sousa (And Friends) - 3:05
Entry of the Gladiators / Fucik
Colonel Bogey / Alford
R.A.F. March Past / Davies
Pomp and Circumstance March No. 1 / Elgar
The Dam Busters / Coates
Stars and Stripes Forever / Sousa


Album released in 1982.


foobar2000 1.1.7 / Dynamic Range Meter 1.1.0
log date: 2012-10-08 12:27:11

--------------------------------------------------------------------------------
Analyzed: The Royal Philharmonic Orchestra / Hooked On Classics 2: Can't Stop The Classics
--------------------------------------------------------------------------------

DR Peak RMS Duration Track
--------------------------------------------------------------------------------
DR14 -0.04 dB -16.28 dB 5:48 01-Can't Stop The Classics
DR12 -0.84 dB -16.40 dB 4:08 02-Hooked On America
DR12 -0.74 dB -18.38 dB 6:41 03-Hooked On Romance (Part 2)
DR13 0.00 dB -15.81 dB 6:32 04-Can't Stop The Classics (Part 2)
DR12 -1.35 dB -16.66 dB 6:05 05-A Night At The Opera
DR14 -1.35 dB -18.21 dB 4:06 06-Tales Of The Vienna Waltz
DR12 -0.70 dB -17.61 dB 4:24 07-Hooked On Baroque
DR12 -1.81 dB -15.92 dB 3:34 08-If You Knew Sousa
DR13 -0.28 dB -15.82 dB 3:05 09-If You Knew Sousa (And Friends)
--------------------------------------------------------------------------------

Number of tracks: 9
Official DR value: DR13

Samplerate: 44100 Hz
Channels: 2
Bits per sample: 16
Bitrate: 910 kbps
Codec: FLAC
================================================================================





_______________________________________________________________________________________________________________




The Royal Philharmonic Orchestra (Louis Clark) - Hooked On Classics 3: Journey Through The Classics (1983) [1999 Digimode Remaster]
EAC Secure Rip | FLAC (Image + Cue + Log) - 270 MB | Complete Scans (Jpeg 600 dpi) - 96.9 MB | MP3 (CBR320 Kbps) - 102 MB
Classical, Disco | Digimode Entertainment | HD 2003 | 41:02 minutes | 5% WinRar Recovery | Hosted on: NitroFlare

Louis Clark, former arranger for Electric Light Orchestra, conducted the Royal Philharmonic Orchestra playing a collection of very recognizable extracts from classical music pieces played over a continuous beat (sometimes an overtly disco fast beat, sometimes a slower and more subtle rhythm, always produced by a LinnDrum that linked the segments together.

Exact Audio Copy V1.0 beta 2 from 29. April 2011

EAC extraction logfile from 9. November 2012, 17:27

The Royal Philharmonic Orchestra / Hooked On Classics 3: Journey Through The Classics

Used drive : HL-DT-STDVDRAM GH60N Adapter: 0 ID: 1

Read mode : Secure
Utilize accurate stream : Yes
Defeat audio cache : Yes
Make use of C2 pointers : No

Read offset correction : 667
Overread into Lead-In and Lead-Out : No
Fill up missing offset samples with silence : Yes
Delete leading and trailing silent blocks : No
Null samples used in CRC calculations : Yes
Used interface : Native Win32 interface for Win NT & 2000

Used output format : User Defined Encoder
Selected bitrate : 1024 kBit/s
Quality : High
Add ID3 tag : No
Command line compressor : C:Program Files (x86)Exact Audio CopyFlacflac.exe
Additional command line options : -V -8 -T "artist=%albumartist%" -T "title=%title%" -T "album=%albumtitle%" -T "date=%year%" -T "genre=%genre%" -T "tracknumber=%tracknr%" %source%


TOC of the extracted CD

Track | Start | Length | Start sector | End sector
---------------------------------------------------------
1 | 0:00.72 | 1:13.45 | 72 | 5591
2 | 1:14.42 | 3:52.65 | 5592 | 23056
3 | 5:07.32 | 2:55.33 | 23057 | 36214
4 | 8:02.65 | 4:19.72 | 36215 | 55711
5 | 12:22.62 | 4:03.43 | 55712 | 73979
6 | 16:26.30 | 3:31.27 | 73980 | 89831
7 | 19:57.57 | 3:54.00 | 89832 | 107381
8 | 23:51.57 | 3:58.63 | 107382 | 125294
9 | 27:50.45 | 3:27.55 | 125295 | 140874
10 | 31:18.25 | 3:13.47 | 140875 | 155396
11 | 34:31.72 | 2:49.33 | 155397 | 168104
12 | 37:21.30 | 3:40.70 | 168105 | 184674


Range status and errors

Selected range

Filename C:EACThe Royal Philharmonic Orchestra (Louis Clark) - (1983) Hooked On Classics 3- Journey Through The Classics [1999 Digimode Remaster]The Royal Philharmonic Orchestra - Hooked On Classics 3- Journey Through The

Classics.wav

Peak level 100.0 %
Extraction speed 1.9 X
Range quality 100.0 %
Test CRC 57B9B891
Copy CRC 57B9B891
Copy OK

No errors occurred


AccurateRip summary

Track 1 cannot be verified as accurate (confidence 3) [85410020], AccurateRip returned [C96B0A4B] (AR v2)
Track 2 cannot be verified as accurate (confidence 3) [FB99877E], AccurateRip returned [E30C0199] (AR v2)
Track 3 cannot be verified as accurate (confidence 3) [7435D3C7], AccurateRip returned [9CC3115B] (AR v2)
Track 4 cannot be verified as accurate (confidence 3) [FA45D622], AccurateRip returned [C59CB711] (AR v2)
Track 5 cannot be verified as accurate (confidence 3) [A978C242], AccurateRip returned [AFD82E78] (AR v2)
Track 6 cannot be verified as accurate (confidence 3) [03BDCDC2], AccurateRip returned [5D920AFE] (AR v2)
Track 7 cannot be verified as accurate (confidence 3) [7C5E18E3], AccurateRip returned [5AD6C001] (AR v2)
Track 8 cannot be verified as accurate (confidence 3) [C84529AF], AccurateRip returned [6FFCA229] (AR v2)
Track 9 cannot be verified as accurate (confidence 4) [004198BA], AccurateRip returned [85EBF48D] (AR v2)
Track 10 cannot be verified as accurate (confidence 3) [D080A255], AccurateRip returned [DD654081] (AR v2)
Track 11 cannot be verified as accurate (confidence 3) [5C83D1A4], AccurateRip returned [81692811] (AR v2)
Track 12 cannot be verified as accurate (confidence 3) [6048290B], AccurateRip returned [BCCC0781] (AR v2)

No tracks could be verified as accurate
You may have a different pressing from the one(s) in the database

End of status report

==== Log checksum 24A56913C989962C83F7B3B6A198A096D8FA8F9C027187BDB5F0E1F5079BA86A ====


Track Listing:

01. Also Sprach Zarathustra - 1:11
Also Sprach Zarathustra / Strauss

02. Journey Through The Classics - 3:50
Ballet Music From "Faust" / Gounod
Dance Of The Clowns (From "A Midsummer Night's Dream) / Mendelssohn
Horn Concerto No. 3 In E-Flat / Mozart
Presto From 7th Symphony / Beethoven
Concerto In D / Albinoni
Trumpet Tune / Purcell
Bacchanale (From "Samson And Delilah") / Saint-Saëns
Finlandia / Sibelius

03. Hooked On Haydn - 2:52
Trumpet Concerto In E-Flat (3rd Movement)

04. Hooked On Romance (Opus 3) - 4:17
Gymnopédie No. 2 / Satie
Nocturne, Op. 9, No. 2 / Chopin
Nocturne From String Quartet No. 2 / Borodin
Recuerdos De La Alhambra / Tarrega
Symphony No. 2 (4th Movement) / Sibelius
The Swan (From "Carnival Of The Animals") / Saint-Saëns
Symphony No. 3 (3rd Movement) / Brahms
Siciliana / Clark

05. Viva Vivaldi - 3:59
Concerto In C, F. XII, No. 37
Concerto In C, F. XII, No. 14
Concerto In G, F. V, No. 2
Concerto In A, Minor, F. VII, No. 8
Violin Concerto In D, Op. 7, No. 11

06. Dance Of The Furies - 3:28
Dance Of The Furies / Gluck
Summer (From "The Four Seasons") / Vivaldi

07. Scotland The Brave (Hookery Jiggery Jock) - 3:50
Scotland The Brave
Ben Glen Bay
Cock O' The North
Wi' A Hundred Pipers
Charlie Is My Darlin'
Loch Lomond
The Keel Row
Bonnie Dundee
Roxburgh Castle
Amazing Grace

08. Journey Through The Classics (Part 2) - 3:55
Dance Of The Tumblers (Theme 1) (From "The Snow Maiden") / Rimsky-Korsakov
Dance Of The Comedians (From "The Bartered Bride") / Smetana
Alla Marcia (From "Karelia" Suite) / Sibelius
Finale From "The Lark" (String Quartet) / Haydn
Symphony No. 6 (3rd Movement) / Tchaïkovsky
Largo Al Factotum (From "The Barber Of Seville") / Rossini
The Merry Wives Of Windsor / Nicolai

09. Journey Through America - 3:22
The Star-Spangled Banner / Stafford Smith
Oh Susanna / Foster
Marching Through Georgia / Work
The Yellow Rose Of Texas / Traditional
When The Saints Go Marching In / Traditional
Blue Tail Fly / Traditional
When Johnny Comes Marching Home / Traditional
Deep In The Heart Of Texas / Swander, Herschey
Yankee Doodle (Came To Town) / Traditional
Caissons Go Rolling Along / Traditional
Shortnin' Bread / Traditional
The Star-Spangled Banner (Reprise)/ Stafford Smith

10. Hooked On Marching - 3:10
Under The Double Eagle / J.F. Wagner
The Stars And Stripes Forever / Sousa
Under The Double Eagle / J.F. Wagner
The British Grenadiers / Traditional
Cavalry Of The Clouds / Alford
Officer Of The Day / Hall
King Cotton / Sousa
Imperial Echoes / Safroni

11. Symphony Of The Seas - 2:47
The Sailors' Hornpipe / Traditional
Portsmouth / Traditional
Anchors Aweigh / Zimmermann
A Life On The Ocean Waves / Traditional
What Shall We Do With The Drunken Sailor / Traditional
Blow The Man Down / Traditional
The Sailors' Hornpipe / Traditional

12. Hooked On Rodgers & Hammerstein - 3:37
Oklahoma
June Is Bustin' Out All Over (From "Carousel")
There Is Nothin' Like A Dame (From "South Pacific")
The Farmer And The Cowman (From "Oklahoma")
Do-Re-Mi (From "The Sound Of Music")
Oklahoma (Reprise)


Album released in 1983, Remastered CD released in 1999.


foobar2000 1.1.7 / Dynamic Range Meter 1.1.0
log date: 2012-11-16 21:46:20

--------------------------------------------------------------------------------
Analyzed: The Royal Philharmonic Orchestra / Hooked On Classics 3: Journey Through The Classics
--------------------------------------------------------------------------------

DR Peak RMS Duration Track
--------------------------------------------------------------------------------
DR12 0.00 dB -17.10 dB 1:14 01-Also Sprach Zarathustra
DR12 -0.12 dB -14.81 dB 3:53 02-Journey Through The Classics
DR11 -1.95 dB -16.06 dB 2:55 03-Hooked On Haydn
DR11 -2.53 dB -18.49 dB 4:20 04-Hooked On Romance (Opus 3)
DR13 -3.04 dB -18.31 dB 4:04 05-Viva Vivaldi
DR11 -2.04 dB -14.94 dB 3:31 06-Dance Of The Furies
DR11 -0.72 dB -14.83 dB 3:54 07-Scotland The brave
DR12 -0.66 dB -15.61 dB 3:59 08-Journey Through The Classics (Part 2)
DR11 -2.05 dB -16.12 dB 3:28 09-Journey Through America
DR13 -0.93 dB -15.66 dB 3:14 10-Hooked On marching
DR12 -1.37 dB -16.11 dB 2:49 11-Symphony Of The Seas
DR12 -1.07 dB -15.75 dB 3:41 12-Hooked On Rogers & Hammerstein
--------------------------------------------------------------------------------

Number of tracks: 12
Official DR value: DR12

Samplerate: 44100 Hz
Channels: 2
Bits per sample: 16
Bitrate: 876 kbps
Codec: FLAC
================================================================================





_______________________________________________________________________________________________________________




The New World Ensemble (Ettore Stratta) - Hooked On Classics 4: Baroque (1982) [1999 Digimode Remaster]
EAC Secure Rip | FLAC (Image + Cue + Log) - 271 MB | Complete Scans (Jpeg 600 dpi) - 86.3 MB | MP3 (CBR320 Kbps) - 114 MB
Classical, Disco | Digimode Entertainment | HD 2004 | 47:10 minutes | 5% WinRar Recovery | Hosted on: NitroFlare

Ettore Stratta is an Italian conductor and concert producer best known for his work in popular music and lighter classics and has had a notably successful series of "crossover" recordings. He conducted The New World Ensemble playing a collection of very recognizable extracts from classical music pieces played over a continuous beat (sometimes an overtly disco fast beat, sometimes a slower and more subtle rhythm, always produced by a LinnDrum that linked the segments together.

Exact Audio Copy V1.0 beta 2 from 29. April 2011

EAC extraction logfile from 9. November 2012, 18:54

The New World Ensemble / Hooked On Classics 4: Baroque

Used drive : HL-DT-STDVDRAM GH60N Adapter: 0 ID: 1

Read mode : Secure
Utilize accurate stream : Yes
Defeat audio cache : Yes
Make use of C2 pointers : No

Read offset correction : 667
Overread into Lead-In and Lead-Out : No
Fill up missing offset samples with silence : Yes
Delete leading and trailing silent blocks : No
Null samples used in CRC calculations : Yes
Used interface : Native Win32 interface for Win NT & 2000

Used output format : User Defined Encoder
Selected bitrate : 1024 kBit/s
Quality : High
Add ID3 tag : No
Command line compressor : C:Program Files (x86)Exact Audio CopyFlacflac.exe
Additional command line options : -V -8 -T "artist=%albumartist%" -T "title=%title%" -T "album=%albumtitle%" -T "date=%year%" -T "genre=%genre%" -T "tracknumber=%tracknr%" %source%


TOC of the extracted CD

Track | Start | Length | Start sector | End sector
---------------------------------------------------------
1 | 0:00.33 | 3:28.52 | 33 | 15684
2 | 3:29.10 | 7:36.25 | 15685 | 49909
3 | 11:05.35 | 6:19.45 | 49910 | 78379
4 | 17:25.05 | 5:33.03 | 78380 | 103357
5 | 22:58.08 | 6:20.15 | 103358 | 131872
6 | 29:18.23 | 5:39.05 | 131873 | 157302
7 | 34:57.28 | 5:20.37 | 157303 | 181339
8 | 40:17.65 | 6:52.43 | 181340 | 212282


Range status and errors

Selected range

Filename C:EACThe New World Ensemble (Ettore Stratta) - (1982) Hooked On Classics 4- Baroque [1999 Digimode Remaster]The New World Ensemble - Hooked On Classics 4- Baroque.wav

Peak level 93.0 %
Extraction speed 1.7 X
Range quality 100.0 %
Test CRC 6E151A97
Copy CRC 6E151A97
Copy OK

No errors occurred


AccurateRip summary

Track 1 cannot be verified as accurate (confidence 2) [DD56FE5B], AccurateRip returned [833D21FC] (AR v2)
Track 2 cannot be verified as accurate (confidence 2) [E00E4F2F], AccurateRip returned [D50A6C6F] (AR v2)
Track 3 cannot be verified as accurate (confidence 2) [CE1F43C8], AccurateRip returned [EBCAF240] (AR v2)
Track 4 cannot be verified as accurate (confidence 2) [DD3D120D], AccurateRip returned [38F3872C] (AR v2)
Track 5 cannot be verified as accurate (confidence 2) [3737F22F], AccurateRip returned [81FA89AF] (AR v2)
Track 6 cannot be verified as accurate (confidence 2) [7F7100E1], AccurateRip returned [F85E71A6] (AR v2)
Track 7 cannot be verified as accurate (confidence 2) [71B0A7AF], AccurateRip returned [FDED3A2F] (AR v2)
Track 8 cannot be verified as accurate (confidence 2) [FDE034E6], AccurateRip returned [71A009DF] (AR v2)

No tracks could be verified as accurate
You may have a different pressing from the one(s) in the database

End of status report

==== Log checksum 262E9915588FC5D872D2F1AA7893764363BEBCCC2A3455A7E5953CD822E3EE94 ====


Track Listing:

01. Hooked On Baroque 2
Canon in D major / Pachelbel
Rondeau / Mouret
Au clair de la lune / Lully
Andante cantabile / Haydn
Fugue in G minor "Little" / J.S. Bach
Rule, Britannia! / Arne
Brandenburg Concerto no. 5 in D Major / J.S. Bach
Trumpet Voluntary / Clarke
Two-Part Invention in F major / J.S. Bach
Harpsichord Concerto in D minor / J.S. Bach
Music for the Royal Fireworks / Handel
Canon in D major / Pachelbel

02. Hooked On Adagio
Violin Concerto in F minor "Winter" / Vivaldi
Sleepers, wake / J.S. Bach
Plaisir d'amour / Martini
Guitar Concerto in D major / Vivaldi
Harpsichord Suite in D minor / Handel
Harpsichord Concerto in F minor / J.S. Bach
Adagio / Marcello
Air / J.S. Bach

03. Hooked On Gigue
Brandenburg Concerto no. 5 in D major / J.S. Bach
Concerto Grosso in G minor, opus 6/8 "Christmas Concerto" / Corelli
Brandenburg Concerto no. 6 in B-flat major / J.S. Bach
The Fairy Queen / Purcell
English Suite no. 3 in G minor / J.S. Bach
Music for the Royal Fireworks / Handel
Canon in D major / Pachelbel
Recorder Sonata in A major, opus 5/9 / Corelli
I pastor Fido, opus 13 / Chédeville
Orchestral Suite no. 3 in D major / J.S. Bach

04. Hooked On Fugue
Fugue in C major / J.S. Bach
Fugue in C minor / J.S. Bach
Fugue in G minor "Great" / J.S. Bach
Fugue in C minor / J.S. Bach
Fugue in G minor / J.S. Bach
Fugue in A minor / J.S. Bach
Fugue Finale / J.S. Bach

05. Hooked On Handel
Hallelujah Chorus
Bourée
Presto
Air
Bourée
Arm Arm ye Brave
Hail Judea Happy Land
See the Conquering Hero Come
Ev'ry Valley Shall be Exalted
For Unto Us a Child is Born
Hallelujah Chorus

06. Hooked On Vivaldi
Violin Concerto in E major "Spring"
Gloria in D major
Flute Concerto in D major "Il cardellino"
Concerto for Two Mandolins in G major
Concerto Grosso in D minor
Piccolo Concerto in C major
Violin Concerto in F major "Autumn"

07. Hooked On Scarlatti
Harpsichord Sonata in D major
Harpsichord Sonata in D minor
Harpsichord Sonata in A major
Harpsichord Sonata in E minor
Harpsichord Sonata in C minor
Harpsichord Sonata in C major
Harpsichord Sonata in F major
Harpsichord Sonata in B flat
Harpsichord Sonata in F major

08. Hooked On Baroque 2 (Reprise)
Canon in D major / Pachelbel
Adagio in G minor / Albinoni
Rondeau / Mouret
Au clair de la lune / Lully
Andante cantabile / Haydn
Fugue in G minor "Little" / J.S. Bach
Rule, Britannia! / Arne
Brandenburg Concerto no. 5 in D Major / J.S. Bach
Rondeau / Couperin
Jesu, Joy of Man's Desiring / J.S. Bach
Trumpet Voluntary / Clarke
Two-Part Invention in F major / J.S. Bach
Harpsichord Concerto in D minor / J.S. Bach
Music for the Royal Fireworks / Handel
Canon in D major / Pachelbel


Album released in 1982, Remastered CD Released in 1999.


foobar2000 1.1.7 / Dynamic Range Meter 1.1.0
log date: 2012-11-16 21:57:59

--------------------------------------------------------------------------------
Analyzed: The New World Ensemble / Hooked On Classics 4: Baroque
--------------------------------------------------------------------------------

DR Peak RMS Duration Track
--------------------------------------------------------------------------------
DR12 -0.83 dB -16.25 dB 3:29 01-Hooked On Baroque 2
DR11 -4.35 dB -19.82 dB 7:36 02-Hooked On Adagio
DR13 -1.76 dB -18.87 dB 6:20 03-Hooked On Gigue
DR11 -0.62 dB -16.54 dB 5:33 04-Hooked On Fugue
DR12 -1.69 dB -18.35 dB 6:20 05-Hooked On Handel
DR13 -1.91 dB -17.85 dB 5:39 06-Hooked On Vivaldi
DR12 -1.78 dB -18.96 dB 5:20 07-Hooked On Scarlatti
DR12 -1.17 dB -16.37 dB 6:53 08-Hooked On Baroque 2 (Reprise)
--------------------------------------------------------------------------------

Number of tracks: 8
Official DR value: DR12

Samplerate: 44100 Hz
Channels: 2
Bits per sample: 16
Bitrate: 766 kbps
Codec: FLAC
================================================================================





_______________________________________________________________________________________________________________



5% WinRar Recovery
If you experience any problems or broken links, PLEASE SEND PM to flac jacket.