Leaves' Eyes - King Of Kings (2015)


Leaves' Eyes - King Of Kings (2015)
Year & Label: 2015, AFM Records/Fono | CD#: FO1163CD
Flac (image) | MP3 CBR 320 Kbps | Artwork (JPG, 300 dpi) | File-hosts: Nitroflare.com
Symphonic Metal | FLAC: 400 MB | Artwork: 60 MB | MP3: 000 MB | 5% WinRAR Recovery

EAC Secure-rip with LOG+CUE+COVERS | Source: torrents

It’s pretty clear at this stage of the game that Leaves' Eyes has broken any ties with the gothic-influenced sound of Lovelorn. The album clearly aimed for a more symphonic approach that departed from the conventional gothic sound of Theatre of Tragedy, yet many songs still had this rather dark atmosphere going on, not as pronounced as Theatre of Tragedy’s, but evident enough to draw comparisons with the last works that featured Liv. Albums like Njord or Meredead are also symphonic metal albums above anything else, but there are many more influences involved on those two records that don't make them as straight-forward as Symphonies of the Night or King of Kings are. And I see that many are having problems in regards to Leaves’ Eyes going for a more straight-forward sound. I know that albums like Njord or Meredead are great because they have very powerful atmospheres and are very diverse, but I actually don’t have any complaints about the sound that Leaves’ Eyes has been aiming for since its last album, which is a more direct and guitar-driven approach coupled with the symphonic arrangements and folky nuances that they’re known for.

Stylistically, as I just said, King of Kings builds on the sound of Symphonies of the Night. The album is very guitar-centered, with a tone slightly reminiscent of Once – which you can also hear on the previous album - but still retaining that kind of heavier approach that Leaves’ Eyes developed over the past years. To put it in Thorsten Bauer’s words, “you hear a lot of metal-influenced riff guitar music”, which is actually true for some of the most riff-driven tracks on King of Kings, such as ''Halvdan the Black'' or ''Blazing Waters''. However, the guitars are not brought that up front so as to overshadow the symphonic nature of the band. The more folky songs also deliver the goods, and they’re still one of the reasons I love this band. The uplifting and jovial uilleann pipe melodies, the flutes and cellos together with the guitars, blend perfectly on songs like ''Vengeance Venom'' or ''Swords in Rock''.

The vocal department doesn’t disappoint either. Leaves’ Eyes gave Liv the possibility to demonstrate her wide range, something that she couldn’t do back in her Theater of Tragedy days (not that that was a bad thing anyway). She uses her soprano range to its fullest extent on songs like ''King of Kings'', particularly on the chorus, while others like ''The Waking Eye'' feature a softer and more melodic approach by her, very much in the vein of the band’s debut album Lovelorn. Alexander has also improved lot since his Njord times, where his grunts where barely decent. Both his voice and Liv’s complement quite well on any of Leave’s Eyes previous albums at the end of the day, but there’s no denying that his vocal work could’ve used a bit of improvement back then. Things started to get better with the previous album though, and now King of Kings shows him giving a quite competent performance with harsh growls and his occasionally deeper grunts. There are also some very pleasant surprises like the guest vocals by Simone Simons on ''Edge of Steel'' and Linda Fay Hella’s appearance on ''Blazing Waters''. Even though both vocalists deliver the goods, I still would’ve liked them to give Simons a bit more space, perhaps allow her to take the lead on some verses or to stand out more. Fay’s appearance on the other hand, provides ''Blazing Waters'' with a nice atmospheric beginning that slowly builds up until the main guitar riffs comes in and the track turns into a riffing monster.

Yes, the album is shorter and more straightforward than previous works, it’s particularly more in line with Symphonies of the Night, as I have already said a couple of times, but this doesn’t make it any worse. The fact that the band’s aiming for a more direct approach doesn’t hurt Leaves’ Eyes at all as the band’s essence remains untouched - the symphonic and folk elements are as good as they’ve always been. This only shows Leaves' Eyes songwriting quality, as they've been able to deliver in 45 minutes what albums like Njord did on one hour of playing time. Those that approach this album expecting to find the enthralling atmospheres of Njord or Meredead might be disappointed, but the album makes up for it with the actual music, which is a more than satisfying piece of symphonic metal with a Nordic folk touch.

www.metal-archives.com

Musicians:

Vocals : Liv Kristine
Guitars : Thorsten Bauer
Bass : Pete Streit
Drums : Joris Nijenhuis
Vocals, Keyboards : Alexander Krull

Track List:

01. Sweven [2:03]
02. King Of Kings [4:48]
03. Halvdan The Black [4:22]
04. The Waking Eye [4:42]
05. Feast Of The Year [0:38]
06. Vengeance Venom (feat. Simone Simons from Epica)[3:18]
07. Sacred Vow [4:21]
08. Edge Of Steel [5:06]
09. Haraldskvæði [3:25]
10. Blaring Waters (feat. Lindy Fay Hella from Wardruna) [7:31]
11. Swords In Rock [3:03]
12. Spellbound (Bonus Track) [4:06]
13. Trail Of Blood (Bonus Track) [3:55]

Exact Audio Copy V1.0 beta 3 from 29. August 2011

EAC extraction logfile from 17. September 2015, 22:24

Leaves' Eyes / King Of Kings (4632000116328)

Used drive : MATSHITABD-CMB UJ242AS Adapter: 0 ID: 1

Read mode : Secure
Utilize accurate stream : Yes
Defeat audio cache : Yes
Make use of C2 pointers : No

Read offset correction : 103
Overread into Lead-In and Lead-Out : No
Fill up missing offset samples with silence : Yes
Delete leading and trailing silent blocks : No
Null samples used in CRC calculations : Yes
Used interface : Installed external ASPI interface

Used output format : User Defined Encoder
Selected bitrate : 1024 kBit/s
Quality : High
Add ID3 tag : Yes
Command line compressor : C:Program Files (x86)Exact Audio CopyFlacflac.exe
Additional command line options : -V -8 -T "Date=%year%" -T "Genre=%genre%" %source%


TOC of the extracted CD

Track | Start | Length | Start sector | End sector
---------------------------------------------------------
1 | 0:00.00 | 2:03.12 | 0 | 9236
2 | 2:03.12 | 4:47.46 | 9237 | 30807
3 | 6:50.58 | 4:22.00 | 30808 | 50457
4 | 11:12.58 | 4:41.68 | 50458 | 71600
5 | 15:54.51 | 0:37.71 | 71601 | 74446
6 | 16:32.47 | 3:17.65 | 74447 | 89286
7 | 19:50.37 | 4:20.72 | 89287 | 108858
8 | 24:11.34 | 5:06.20 | 108859 | 131828
9 | 29:17.54 | 3:24.40 | 131829 | 147168
10 | 32:42.19 | 7:30.57 | 147169 | 180975
11 | 40:13.01 | 3:03.33 | 180976 | 194733
12 | 43:16.34 | 4:06.10 | 194734 | 213193
13 | 47:22.44 | 3:54.73 | 213194 | 230816


Range status and errors

Selected range

Filename C:EACripLeaves' Eyes - King Of Kings (4632000116328).wav

Peak level 100.0 %
Extraction speed 4.2 X
Range quality 100.0 %
Test CRC 73E3AF80
Copy CRC 73E3AF80
Copy OK

No errors occurred


AccurateRip summary

Track 1 not present in database
Track 2 not present in database
Track 3 not present in database
Track 4 not present in database
Track 5 not present in database
Track 6 not present in database
Track 7 not present in database
Track 8 not present in database
Track 9 not present in database
Track 10 not present in database
Track 11 not present in database
Track 12 not present in database
Track 13 not present in database

None of the tracks are present in the AccurateRip database

End of status report

==== Log checksum CD57C76A586151E25F722950E385AA6E5E2C9181C29C78DB23EAB16B675DACEE ====

Not my rip, not my scan-job. Thx very much to the original uploader rd!
5% WinRar Recovery Record for all files.
Try before you might buy. Support the artists you like and buy their stuff whenever you can afford it.