Вход в свой аккаунт

Или войдите через соц. сети

Jennifer Paige - Jennifer Paige (1998) Japanese Edition [Re-Up]


Jennifer Paige - Jennifer Paige (1998) Japanese Edition
EAC | FLAC | Image (Cue&Log) ~ 328 Mb (incl 5%) | Mp3 (CBR320) ~ 106 Mb (incl 5%) | Scans ~ 296 Mb
Genre: Contemporary Pop/Rock, Adult Contemporary | Label: Polydor K.K. | # POCP-7350 | Time: 00:44:09

“ Much as Donny Osmond stormed the charts in 1989 with the George Michael sound-alike "Soldier of Love," Jennifer Paige and her producer have re-created the same scenario via this collection's first offering, "Crush," a song very reminiscent of early Mariah Carey. It is only hoped that Carey will use this as a reminder of what made her voice so engaging upon her entrance into the pop diva arena. Jennifer unleashes a voice with great development potential that holds its own with a solid pop effort, and splendidly provides her own background vocals on most tracks as well. Definitely one of the brighter pop talents to emerge in quite a while. Standout tracks on this fine debut release include the first single "Crush," "Get to Me," "Somewhere, Someday," and the stellar "Let It Rain."

Review by Jaime Sunao Ikeda, Allmusic.com
”







Tracklist:

01. Crush (03:20)
02. Questions (04:15)
03. Always You (04:05)
04. Get To Me (04:00)
05. Busted (03:48)
06. Sober (04:05)
07. Between You And Me (04:00)
08. Let It Rain (04:14)
09. Just To Have You (04:16)
10. Somewhere, Someday (03:56)
11. Always You (Bonus Remix) (04:05)


Exact Audio Copy V1.0 beta 1 from 15. November 2010

EAC extraction logfile from 24. January 2011, 1:41

Jennifer Paige / Jennifer Paige

Used drive : PIONEER DVD-RW DVR-112D Adapter: 2 ID: 0

Read mode : Secure
Utilize accurate stream : Yes
Defeat audio cache : Yes
Make use of C2 pointers : No

Read offset correction : 48
Overread into Lead-In and Lead-Out : No
Fill up missing offset samples with silence : Yes
Delete leading and trailing silent blocks : No
Null samples used in CRC calculations : Yes
Used interface : Installed external ASPI interface

Used output format : User Defined Encoder
Selected bitrate : 1024 kBit/s
Quality : High
Add ID3 tag : No
Command line compressor : C:Program Files (x86)Exact Audio CopyFlacflac.exe
Additional command line options : -5 -V -T "ARTIST=%a" -T "TITLE=%t" -T "ALBUM=%g" -T "DATE=%y" -T "TRACKNUMBER=%n" -T "GENRE=%m" -T "COMMENT=EAC FLAC -5" %s


TOC of the extracted CD

Track | Start | Length | Start sector | End sector
---------------------------------------------------------
1 | 0:00.00 | 3:20.00 | 0 | 14999
2 | 3:20.00 | 4:15.10 | 15000 | 34134
3 | 7:35.10 | 4:05.27 | 34135 | 52536
4 | 11:40.37 | 4:00.60 | 52537 | 70596
5 | 15:41.22 | 3:48.13 | 70597 | 87709
6 | 19:29.35 | 4:05.52 | 87710 | 106136
7 | 23:35.12 | 4:00.05 | 106137 | 124141
8 | 27:35.17 | 4:14.63 | 124142 | 143254
9 | 31:50.05 | 4:16.12 | 143255 | 162466
10 | 36:06.17 | 3:58.28 | 162467 | 180344
11 | 40:04.45 | 4:05.15 | 180345 | 198734


Range status and errors

Selected range

Filename F:Jennifer Paige - 1998 (Japan)Jennifer Paige - Jennifer Paige.wav

Peak level 100.0 %
Extraction speed 0.7 X
Range quality 100.0 %
Test CRC B64617EC
Copy CRC B64617EC
Copy OK

No errors occurred


AccurateRip summary

Track 1 cannot be verified as accurate (confidence 2) [4537A3C9], AccurateRip returned [F9E3C568]
Track 2 cannot be verified as accurate (confidence 2) [EFF58216], AccurateRip returned [3C48EAA6]
Track 3 cannot be verified as accurate (confidence 2) [42DF9FA5], AccurateRip returned [D5BD51AE]
Track 4 cannot be verified as accurate (confidence 2) [DEAECAA9], AccurateRip returned [3371BB1D]
Track 5 cannot be verified as accurate (confidence 2) [D53C65AF], AccurateRip returned [7C2A5B90]
Track 6 cannot be verified as accurate (confidence 2) [6BF40656], AccurateRip returned [3CF17DD0]
Track 7 cannot be verified as accurate (confidence 2) [CE15F395], AccurateRip returned [804768BA]
Track 8 cannot be verified as accurate (confidence 2) [DFFC960B], AccurateRip returned [B2430785]
Track 9 cannot be verified as accurate (confidence 2) [1485180C], AccurateRip returned [42440248]
Track 10 cannot be verified as accurate (confidence 2) [500917A5], AccurateRip returned [D097125B]
Track 11 cannot be verified as accurate (confidence 2) [B64FD1ED], AccurateRip returned [3EEF8141]

No tracks could be verified as accurate
You may have a different pressing from the one(s) in the database

End of status report

foobar2000 1.1.16 / Dynamic Range Meter 1.1.1
log date: 2012-12-22 18:20:54

--------------------------------------------------------------------------------
Analyzed: Jennifer Paige / Jennifer Paige
--------------------------------------------------------------------------------

DR Peak RMS Duration Track
--------------------------------------------------------------------------------
DR7 0.00 dB -8.86 dB 3:20 01-Crush
DR7 0.00 dB -8.31 dB 4:15 02-Questions
DR8 -0.10 dB -10.81 dB 4:05 03-Always You
DR7 0.00 dB -9.32 dB 4:01 04-Get To Me
DR7 0.00 dB -8.27 dB 3:48 05-Busted
DR7 0.00 dB -8.57 dB 4:06 06-Sober
DR9 -0.07 dB -11.04 dB 4:00 07-Between You And Me
DR9 0.00 dB -11.15 dB 4:15 08-Let It Rain
DR9 0.00 dB -11.23 dB 4:16 09-Just To Have You
DR7 0.00 dB -9.07 dB 3:58 10-Somewhere, Someday
DR7 0.00 dB -8.98 dB 4:05 11-Always You (Bonus Remix)
--------------------------------------------------------------------------------

Number of tracks: 11
Official DR value: DR8

Samplerate: 44100 Hz
Channels: 2
Bits per sample: 16
Bitrate: 990 kbps
Codec: FLAC
================================================================================



All thanks to original releaser - bvstudio





Password: designol